<?xml version="1.0" standalone="no"?>
<!DOCTYPE svg PUBLIC "-//W3C//DTD SVG 1.1//EN" "http://www.w3.org/Graphics/SVG/1.1/DTD/svg11.dtd" >
<svg xmlns="http://www.w3.org/2000/svg" xmlns:xlink="http://www.w3.org/1999/xlink" version="1.1">
<metadata>
Created by FontForge 20190801 at Fri Apr 29 23:32:12 2022
 By www-data
Copyright 2015 The Public Sans Project Authors (https://github.com/uswds/public-sans)
</metadata>
<defs>
<font id="PublicSansExtraLightItalic" horiz-adv-x="0" >
  <font-face 
    font-family="PublicSansExtraLightItalic"
    font-weight="250"
    font-style="italic"
    font-stretch="normal"
    units-per-em="2000"
    panose-1="0 0 0 0 0 0 0 0 0 0"
    ascent="1600"
    descent="-400"
    x-height="1034"
    cap-height="1446"
    bbox="-376 -480 2242 2057"
    underline-thickness="140"
    underline-position="-440"
    slope="-8"
    unicode-range="U+000D-FB02"
  />
<missing-glyph horiz-adv-x="1671" 
d="M399 1652h918q36 0 36 -42v-1876q0 -56 -66 -56h-872q-31 0 -42.5 12t-11.5 36v1880q0 46 38 46zM1251 -114v1634q0 34 -30 34h-686zM463 1433v-1617q0 -19 9.5 -29.5t34.5 -10.5h671z" />
    <glyph glyph-name="fi" unicode="fi" horiz-adv-x="1218" 
d="M230 0l132 937h-219l16 97h216l24 167q18 121 79.5 183t174.5 62h159l-13 -96h-151q-64 0 -92.5 -37.5t-39.5 -109.5l-23 -169h252l-15 -97h-250l-132 -937h-118zM853 0l146 1034h117l-145 -1034h-118zM1029 1295l21 151h130l-20 -151h-131z" />
    <glyph glyph-name="fl" unicode="fl" horiz-adv-x="1312" 
d="M230 0l132 937h-219l16 97h216l24 167q18 121 79.5 183t174.5 62h159l-13 -96h-151q-64 0 -92.5 -37.5t-39.5 -109.5l-23 -169h252l-15 -97h-250l-132 -937h-118zM1054 -10q-62 0 -99.5 20.5t-56 57t-21.5 84t4 101.5l177 1233h119l-176 -1226q-12 -90 14 -131t70 -42
l56 -1l-12 -84q-21 -6 -41.5 -9t-33.5 -3z" />
    <glyph glyph-name=".notdef" horiz-adv-x="1671" 
d="M399 1652h918q36 0 36 -42v-1876q0 -56 -66 -56h-872q-31 0 -42.5 12t-11.5 36v1880q0 46 38 46zM1251 -114v1634q0 34 -30 34h-686zM463 1433v-1617q0 -19 9.5 -29.5t34.5 -10.5h671z" />
    <glyph glyph-name="uni0000" horiz-adv-x="54" 
 />
    <glyph glyph-name="uni0000" horiz-adv-x="54" 
 />
    <glyph glyph-name="nonmarkingreturn" horiz-adv-x="666" 
 />
    <glyph glyph-name="CR" unicode="&#xd;" horiz-adv-x="462" 
 />
    <glyph glyph-name="space" unicode=" " horiz-adv-x="505" 
 />
    <glyph glyph-name="exclam" unicode="!" horiz-adv-x="460" 
d="M157 323l129 1123h147l-191 -1123h-85zM76 0l26 189h156l-27 -189h-155z" />
    <glyph glyph-name="quotedbl" unicode="&#x22;" horiz-adv-x="779" 
d="M574 1031l14 415h172l-106 -415h-80zM266 1031l14 415h172l-106 -415h-80z" />
    <glyph glyph-name="numbersign" unicode="#" horiz-adv-x="1146" 
d="M749 -3l-92 14l220 1437l91 -11zM90 480v91h959v-91h-959zM346 -3l-91 14l220 1437l91 -11zM154 890v91h959v-91h-959z" />
    <glyph glyph-name="dollar" unicode="$" horiz-adv-x="1221" 
d="M548 -20q-197 0 -317.5 95.5t-123.5 274.5l127 15q15 -136 103.5 -202.5t227.5 -66.5q84 0 166 32t139.5 91t68.5 140q16 104 -30.5 171t-163.5 105l-228 74q-141 44 -214 126t-54 220q16 118 87.5 210.5t183 145.5t250.5 53q130 0 216.5 -55.5t125.5 -145t31 -194.5
l-122 -13q-3 98 -34 163t-90 97.5t-147 32.5q-78 0 -158.5 -30.5t-139.5 -94t-72 -160.5q-12 -87 37.5 -137.5t188.5 -101.5l217 -74q156 -54 210 -157t36 -232q-16 -110 -87.5 -196t-184 -136t-249.5 -50zM458 -220l37 258h118l-37 -258h-118zM703 1409l36 259h120
l-36 -259h-120z" />
    <glyph glyph-name="percent" unicode="%" horiz-adv-x="1646" 
d="M329 -8l-91 1l1118 1469h90zM435 640q-76 0 -133 38t-88.5 108t-31.5 168q0 85 22 175t67.5 166.5t115 124.5t164.5 48q76 0 132 -37.5t87 -107.5t31 -168q0 -84 -21.5 -174.5t-67 -167.5t-114 -125t-163.5 -48zM444 718q70 0 120.5 44t82 111.5t46.5 141t15 132.5
q0 110 -39.5 176.5t-130.5 66.5q-69 0 -118.5 -43.5t-82 -110.5t-48 -140.5t-15.5 -131.5q0 -110 39.5 -178t130.5 -68zM1151 -20q-76 0 -133 37.5t-88.5 108t-31.5 168.5q0 88 23 178.5t69 166.5t115.5 122.5t161.5 46.5q76 0 132 -37.5t87.5 -107t31.5 -168.5
q0 -84 -22 -174.5t-67 -167.5t-114 -125t-164 -48zM1160 58q70 0 120.5 44t82 111.5t46.5 140.5t15 133q0 110 -39.5 176.5t-130.5 66.5q-68 0 -118 -43.5t-82.5 -111t-47.5 -140.5t-15 -131q0 -110 39 -178t130 -68z" />
    <glyph glyph-name="ampersand" unicode="&#x26;" horiz-adv-x="1256" 
d="M400 -10q-123 0 -203.5 47t-115.5 131t-20 196q13 92 58 168.5t123 141.5t191 125q-47 61 -76.5 120t-41.5 118.5t-2 123.5q12 86 63 155.5t128.5 110.5t172.5 41q91 0 164.5 -37t112 -105.5t24.5 -162.5q-6 -43 -37.5 -105t-112 -136.5t-234.5 -153.5l279 -430
q24 25 62 82t74.5 141.5t55.5 193.5h113q-24 -111 -62 -198.5t-87 -159.5t-104 -138l169 -259h-141l-115 172q-112 -94 -221.5 -138t-216.5 -44zM437 96q91 0 182.5 44t167.5 113l-302 464q-119 -64 -200 -154t-95 -202q-14 -119 58 -192t189 -73zM547 847q123 69 190 123
t94.5 101t33.5 93q11 76 -17 121t-78 65t-105 20q-98 -1 -158.5 -62t-71.5 -141q-8 -59 7.5 -115.5t39.5 -101t41 -67.5z" />
    <glyph glyph-name="quotesingle" unicode="'" horiz-adv-x="471" 
d="M266 1031l14 415h172l-106 -415h-80z" />
    <glyph glyph-name="parenleft" unicode="(" horiz-adv-x="549" 
d="M294 -225q-57 140 -92.5 277.5t-45 284t14.5 316.5q35 247 142.5 476t249.5 414h79q-120 -194 -216.5 -425t-129.5 -467q-32 -224 -10.5 -438.5t86.5 -437.5h-78z" />
    <glyph glyph-name="parenright" unicode=")" horiz-adv-x="566" 
d="M-57 -229q121 195 217 426t129 466q33 225 11.5 439.5t-87.5 436.5h78q56 -140 92 -277t45.5 -284t-14.5 -317q-34 -246 -141.5 -475t-250.5 -415h-79z" />
    <glyph glyph-name="asterisk" unicode="*" horiz-adv-x="697" 
d="M296 830l-84 56l179 228l-245 71l30 87l236 -91l-16 265h106l-14 -265l239 101l27 -86l-240 -81l173 -217l-84 -61l-150 241z" />
    <glyph glyph-name="plus" unicode="+" horiz-adv-x="1018" 
d="M432 319l115 817h99l-115 -817h-99zM149 673l15 105l764 1l-15 -104z" />
    <glyph glyph-name="comma" unicode="," horiz-adv-x="429" 
d="M-23 -235l135 233l-73 2l27 187h182l-23 -161l-179 -261h-69z" />
    <glyph glyph-name="hyphen" unicode="-" horiz-adv-x="705" 
d="M118 463l15 107l453 2l-14 -108z" />
    <glyph glyph-name="period" unicode="." horiz-adv-x="392" 
d="M42 0l28 190h156l-27 -190h-157z" />
    <glyph glyph-name="slash" unicode="/" horiz-adv-x="628" 
d="M-58 -100l683 1546h104l-684 -1546h-103z" />
    <glyph glyph-name="zero" unicode="0" horiz-adv-x="1127" 
d="M487 -22q-210 0 -309.5 183.5t-48.5 555.5q36 250 117 416.5t197 249.5t255 83q208 0 308.5 -186t48.5 -560q-52 -372 -205 -557t-363 -185zM506 94q158 0 263 148t151 478q47 334 -18 483t-221 149t-264.5 -150t-155.5 -482q-46 -329 21 -477.5t224 -148.5z" />
    <glyph glyph-name="one" unicode="1" horiz-adv-x="763" 
d="M292 0l170 1189h-270l13 96q123 0 190.5 17t97.5 52t40 92h91l-207 -1446h-125z" />
    <glyph glyph-name="two" unicode="2" horiz-adv-x="1092" 
d="M56 0l14 96l7 50q18 131 83 221t156 155t190.5 119.5t190 112t153.5 133t78 183.5q17 124 -54 200.5t-208 76.5q-99 0 -176.5 -40.5t-127.5 -112t-69 -163.5h-123q19 118 86 216.5t177 158.5t257 60q127 0 215 -49.5t127.5 -139t21.5 -208.5q-18 -130 -82.5 -220
t-154.5 -153.5t-189 -116.5t-188.5 -109.5t-151.5 -131t-77 -183.5l-6 -37h728l-17 -118h-860z" />
    <glyph glyph-name="three" unicode="3" horiz-adv-x="1159" 
d="M483 -22q-127 2 -222 54t-142 145.5t-35 220.5h125q-1 -141 78.5 -222.5t219.5 -81.5q109 0 195 37t140.5 104t66.5 155q14 102 -28 170.5t-124.5 103.5t-188.5 35l-118 1l17 115l115 1q98 1 182.5 41t140 104t65.5 138q9 64 -19.5 122.5t-94 94.5t-171.5 36
q-77 0 -155 -34t-135.5 -103.5t-73.5 -176.5h-124q19 131 93 227t182 148.5t228 52.5q134 0 230 -44.5t141.5 -126t29.5 -194.5q-15 -107 -94 -196t-218 -139q94 -28 154 -81t85.5 -127t12.5 -165q-14 -94 -61 -171.5t-121.5 -132.5t-169.5 -83.5t-206 -27.5z" />
    <glyph glyph-name="four" unicode="4" horiz-adv-x="1155" 
d="M665 0l56 397h-641l19 129l765 920h126l-131 -932h231l-17 -117h-232l-56 -397h-120zM217 514h516l107 751z" />
    <glyph glyph-name="five" unicode="5" horiz-adv-x="1179" 
d="M529 -22q-121 0 -217 49t-156.5 136.5t-75.5 202.5l121 30q18 -91 62.5 -160t114.5 -107.5t163 -38.5q157 0 266 100.5t135 279.5q15 111 -20 191.5t-104 124.5t-157 44q-63 0 -118.5 -12t-112 -47.5t-120.5 -108.5q-3 -1 -4.5 -1t-4.5 1l-114 22l167 762h777l-19 -115
h-662l-114 -534q74 79 165.5 112t191.5 33q116 0 210 -52.5t142.5 -156.5t26.5 -259q-20 -149 -95 -260.5t-190.5 -173.5t-257.5 -62z" />
    <glyph glyph-name="six" unicode="6" horiz-adv-x="1142" 
d="M518 -22q-149 0 -247.5 86t-136.5 248t-6 392q32 229 113.5 400.5t208 266.5t294.5 95q105 0 187.5 -42t131.5 -121t52 -191h-116q-13 109 -82.5 176t-186.5 67q-132 0 -231.5 -79.5t-163 -238.5t-86.5 -396q35 87 98 154.5t144 105t170 37.5q131 0 222 -55.5t132 -159.5
t20 -251q-20 -147 -89.5 -258t-178.5 -173.5t-249 -62.5zM537 91q92 0 169.5 47t129 131.5t67.5 196.5q16 109 -8 190t-88 125.5t-170 44.5q-84 0 -165 -42.5t-137.5 -114.5t-70.5 -161q-18 -119 10 -213.5t95 -149t168 -54.5z" />
    <glyph glyph-name="seven" unicode="7" horiz-adv-x="1108" 
d="M264 0q34 105 99 257t157 331.5t209 370t256 372.5h-774l17 115h914l-18 -115q-92 -117 -186 -260t-180.5 -294.5t-159.5 -297t-126 -269.5t-78 -210h-130z" />
    <glyph glyph-name="eight" unicode="8" horiz-adv-x="1204" 
d="M525 -22q-151 0 -256 51t-154 142.5t-32 214.5q12 85 63.5 163.5t123.5 134t145 69.5q-92 42 -142.5 123t-32.5 203q17 123 87.5 209.5t176.5 132t230 45.5q126 0 218.5 -45.5t138 -132t28.5 -209.5q-17 -122 -88.5 -203t-177.5 -123q70 -14 126.5 -69.5t86.5 -134
t18 -163.5q-17 -123 -92 -214.5t-194.5 -142.5t-272.5 -51zM541 87q168 0 280.5 81t130.5 215q13 89 -23.5 158.5t-114 109t-189.5 39.5q-111 0 -200 -39.5t-144 -109t-68 -158.5q-19 -134 71 -215t257 -81zM642 812q141 0 237 71t114 200q18 128 -58.5 202.5t-215.5 74.5
t-236 -74.5t-115 -202.5q-17 -129 59 -200t215 -71z" />
    <glyph glyph-name="nine" unicode="9" horiz-adv-x="1149" 
d="M456 -22q-104 0 -189 42t-136 120.5t-55 188.5h120q11 -107 84 -173.5t190 -66.5q132 0 234.5 77t170 235.5t91.5 403.5q-33 -89 -96 -157t-144.5 -106.5t-173.5 -38.5q-131 0 -223 55.5t-132.5 160t-20.5 252.5q21 147 89.5 258.5t177 174t248.5 62.5q149 0 247 -86
t136 -248.5t5 -391.5q-33 -234 -115.5 -405t-211 -264t-296.5 -93zM572 617q85 0 166 42.5t137.5 114.5t68.5 162q19 119 -9 213.5t-95 149.5t-167 55q-92 0 -169 -47.5t-128 -132.5t-67 -197q-23 -163 40 -261.5t223 -98.5z" />
    <glyph glyph-name="colon" unicode=":" horiz-adv-x="394" 
d="M156 793l28 190h156l-27 -190h-157zM43 6l28 189h156l-27 -189h-157z" />
    <glyph glyph-name="semicolon" unicode=";" horiz-adv-x="428" 
d="M5 -272l136 272h-63l26 189h156l-23 -167l-177 -294h-55zM182 791l26 191h158l-27 -191h-157z" />
    <glyph glyph-name="less" unicode="&#x3c;" horiz-adv-x="1005" 
d="M846 317l-702 314l17 127l794 321l-17 -132l-630 -252l555 -252z" />
    <glyph glyph-name="equal" unicode="=" horiz-adv-x="1020" 
d="M178 868l14 104l764 2l-15 -104zM116 432l15 104l763 2l-14 -104z" />
    <glyph glyph-name="greater" unicode="&#x3e;" horiz-adv-x="1003" 
d="M100 317l20 126l627 252l-558 252l19 132l702 -321l-18 -127z" />
    <glyph glyph-name="question" unicode="?" horiz-adv-x="967" 
d="M368 327q16 115 65 201t112 155.5t126 133.5t109 134.5t59 160.5q17 114 -48.5 180t-187.5 66q-66 0 -134 -27.5t-123.5 -73t-84.5 -101.5l-106 43q77 124 201 195.5t264 71.5q121 0 204 -44t120.5 -123t23.5 -184q-15 -104 -64.5 -182t-115 -144t-131.5 -132.5
t-115.5 -145.5t-65.5 -184h-108zM299 0l27 189h155l-27 -189h-155z" />
    <glyph glyph-name="at" unicode="@" horiz-adv-x="1568" 
d="M698 -220q-165 0 -286 57t-197.5 157t-105.5 232t-8 282q24 158 96 299t184 249t254 170t304 62q116 0 224 -36.5t189 -112t119.5 -193.5t14.5 -283q-21 -149 -83.5 -263t-150.5 -178t-187 -64q-68 0 -103.5 25t-40.5 83q-2 13 -6 13.5t-15 -10.5q-49 -59 -116 -99
t-159 -40q-66 0 -117 42.5t-75 120t-8 181.5q17 126 76 228.5t146 163t187 60.5q76 0 124.5 -35.5t70.5 -95.5q1 -4 5.5 -2.5t7.5 8.5l29 75h93l-133 -452q-26 -93 -11.5 -128.5t65.5 -35.5q63 0 124 47.5t105.5 136t60.5 207.5q21 145 -10.5 247.5t-100 166.5t-158.5 94
t-185 30q-145 0 -267 -54t-215 -148.5t-152.5 -218t-78.5 -262.5q-18 -128 5 -241t88 -200t173.5 -136t261.5 -49q83 0 144 17.5t112.5 47t104.5 64.5l44 -79q-96 -69 -208 -109.5t-235 -40.5zM659 236q62 0 121 39.5t105.5 104.5t67.5 143q28 101 15 167t-52.5 98t-89.5 32
q-72 0 -132 -46t-100.5 -123t-54.5 -171q-17 -113 15 -178.5t105 -65.5z" />
    <glyph glyph-name="A" unicode="A" horiz-adv-x="1330" 
d="M29 0l696 1446h146l283 -1446h-124l-83 430h-586l-208 -430h-124zM413 553h516l-147 766z" />
    <glyph glyph-name="B" unicode="B" horiz-adv-x="1259" 
d="M134 0l206 1446h402q236 0 348.5 -97.5t86.5 -281.5q-18 -117 -87 -200.5t-219 -131.5q74 -16 124.5 -47t79.5 -76t38.5 -102.5t-1.5 -125.5q-27 -194 -171 -289t-391 -95h-416zM271 114h285q194 0 306 64.5t132 209.5q15 104 -26 167t-121.5 91t-182.5 28h-314zM365 789
h310q58 0 120.5 12t118 41.5t94.5 82.5t50 133q21 144 -71 210t-258 66h-286z" />
    <glyph glyph-name="C" unicode="C" horiz-adv-x="1287" 
d="M604 -20q-175 0 -286 82.5t-154.5 243t-16.5 395.5q20 180 72 322t134.5 240.5t195 150.5t253.5 52q137 0 234.5 -61.5t148 -163.5t48.5 -222h-130q-5 90 -41 165t-104.5 120t-174.5 45q-109 0 -195 -43.5t-148.5 -126.5t-102.5 -204t-58 -277q-37 -306 48.5 -453.5
t290.5 -147.5q105 0 185.5 45.5t136.5 121.5t85 166h130q-21 -86 -68.5 -167t-118.5 -144.5t-162.5 -101t-201.5 -37.5z" />
    <glyph glyph-name="D" unicode="D" horiz-adv-x="1299" 
d="M137 0l202 1446q4 0 69.5 -1t144.5 -1q132 -1 238 -19.5t186 -58.5t134 -102.5t81.5 -151t27.5 -205.5q0 -116 -17.5 -228t-56.5 -213.5t-102.5 -186.5t-156 -147.5t-217.5 -97t-286 -34.5h-247zM279 116h112q192 0 326 58t217.5 163t121.5 247.5t38 311.5
q0 166 -60.5 260.5t-176 134t-279.5 39.5h-128z" />
    <glyph glyph-name="E" unicode="E" horiz-adv-x="1173" 
d="M134 0l207 1446h808l-17 -116h-689l-77 -541h631l-15 -117h-632l-79 -552l712 -2l-18 -118h-831z" />
    <glyph glyph-name="F" unicode="F" horiz-adv-x="1112" 
d="M136 0l205 1446h797l-16 -116h-673l-75 -542h613l-15 -116h-615l-96 -672h-125z" />
    <glyph glyph-name="G" unicode="G" horiz-adv-x="1372" 
d="M599 -20q-174 0 -286.5 85.5t-155.5 250t-9 404.5q34 238 125 405t229 254t312 87q125 0 222.5 -63t152.5 -165t47 -219h-130q-1 86 -40 161.5t-108.5 121.5t-162.5 46q-130 0 -236.5 -68.5t-179 -207t-103.5 -350.5q-23 -162 -9 -280t61 -194.5t121.5 -113.5t171.5 -37
t174.5 37.5t133 97.5t89 128.5t43.5 130.5l24 151h-356l15 99l478 -1l-105 -740h-100l34 238q-47 -70 -112 -128.5t-149.5 -94t-190.5 -35.5z" />
    <glyph glyph-name="H" unicode="H" horiz-adv-x="1459" 
d="M135 0l203 1446h120l-90 -636h806l89 636h119l-203 -1446h-119l97 692h-805l-97 -692h-120z" />
    <glyph glyph-name="I" unicode="I" horiz-adv-x="538" 
d="M136 0l204 1446h120l-204 -1446h-120z" />
    <glyph glyph-name="J" unicode="J" horiz-adv-x="735" 
d="M238 -20q-76 0 -133 21.5t-71 30.5l34 126q28 -13 64.5 -33.5t100.5 -20.5q89 0 131.5 54.5t60.5 187.5l157 1100h118l-162 -1139q-14 -102 -46.5 -175.5t-93.5 -112.5t-160 -39z" />
    <glyph glyph-name="K" unicode="K" horiz-adv-x="1264" 
d="M134 0l207 1446h123l-112 -796l776 796h149l-548 -567l378 -879h-142l-344 783l-294 -305l-68 -478h-125z" />
    <glyph glyph-name="L" unicode="L" horiz-adv-x="1102" 
d="M134 0l207 1446h124l-189 -1325h664l-17 -121h-789z" />
    <glyph glyph-name="M" unicode="M" horiz-adv-x="1650" 
d="M136 0l204 1446h156l275 -1287l649 1287h152l-204 -1446h-127l172 1204l-598 -1204h-132l-253 1191l-170 -1191h-124z" />
    <glyph glyph-name="N" unicode="N" horiz-adv-x="1410" 
d="M134 0l207 1446h108l592 -1217l173 1217h120l-207 -1446h-105l-594 1222l-174 -1222h-120z" />
    <glyph glyph-name="O" unicode="O" horiz-adv-x="1364" 
d="M607 -20q-176 0 -290.5 85t-159 249.5t-10.5 402.5q34 241 126.5 408t232 254t314.5 87q174 0 287 -86t157 -253t10 -407q-34 -238 -125 -403.5t-229 -251t-313 -85.5zM626 97q138 0 243.5 67t174.5 205t99 350q30 214 -0.5 353.5t-116.5 208t-224 68.5
q-206 0 -341 -155.5t-181 -474.5q-30 -211 1.5 -349t119 -205.5t225.5 -67.5z" />
    <glyph glyph-name="P" unicode="P" horiz-adv-x="1194" 
d="M136 0l205 1446h434q142 0 246 -50.5t153.5 -150.5t28.5 -247q-21 -144 -96 -245.5t-189.5 -154t-254.5 -52.5h-325l-77 -546h-125zM354 662h325q105 0 190.5 41t141.5 118t71 186q23 164 -66 244t-254 80h-312z" />
    <glyph glyph-name="Q" unicode="Q" horiz-adv-x="1395" 
d="M1124 -240q-55 0 -122.5 18.5t-129.5 70t-100 151.5q-47 -9 -87 -14.5t-78 -5.5q-172 0 -287 83.5t-161 248t-11 408.5q34 242 126 408.5t231 252t314 85.5q174 0 287.5 -85.5t158 -252t10.5 -408.5q-33 -238 -123 -404.5t-255 -260.5q28 -93 93.5 -135t150.5 -46z
M624 97q207 0 341 151.5t179 470.5q30 209 0 349t-116.5 210.5t-225.5 70.5q-211 0 -344 -158.5t-179 -474.5q-44 -317 47.5 -468t297.5 -151z" />
    <glyph glyph-name="R" unicode="R" horiz-adv-x="1270" 
d="M134 0l206 1446h496q138 0 227 -43.5t126 -126.5t20 -204q-17 -120 -70 -198t-123 -123t-138 -67l175 -684h-129l-166 659h-410l-94 -659h-120zM363 773h319q116 0 201 30t135.5 93.5t64.5 162.5q19 143 -51 209.5t-219 66.5h-370z" />
    <glyph glyph-name="S" unicode="S" horiz-adv-x="1271" 
d="M569 -20q-93 0 -176 25t-146.5 73.5t-100 120.5t-37.5 168h129q7 -91 54.5 -152.5t123.5 -92.5t168 -31q107 0 193.5 33.5t141.5 94t66 140.5q9 72 -10 126.5t-67 92.5t-126 59l-272 73q-144 38 -215 122.5t-53 222.5q16 118 86.5 210.5t182.5 145.5t249 53
q153 0 250 -60.5t139.5 -154t30.5 -193.5h-128q4 110 -38 174t-114 91.5t-157 27.5q-78 0 -159.5 -30.5t-140.5 -94t-73 -160.5q-11 -87 38 -141.5t188 -94.5l262 -74q87 -22 140.5 -63.5t80.5 -94.5t33 -113t-2 -121q-14 -105 -81.5 -191.5t-183.5 -138.5t-276 -52z" />
    <glyph glyph-name="T" unicode="T" horiz-adv-x="1096" 
d="M428 0l189 1327h-449l16 119h987l-15 -119h-420l-188 -1327h-120z" />
    <glyph glyph-name="U" unicode="U" horiz-adv-x="1309" 
d="M598 -20q-163 0 -258 57t-127.5 172t-7.5 287l134 950h126l-139 -981q-18 -122 8.5 -205t96.5 -124.5t183 -41.5q171 0 273 92.5t128 278.5l139 981h119l-138 -975q-22 -162 -88 -271t-177 -164.5t-272 -55.5z" />
    <glyph glyph-name="V" unicode="V" horiz-adv-x="1217" 
d="M452 0l-268 1446h121l243 -1308l626 1308h120l-689 -1446h-153z" />
    <glyph glyph-name="W" unicode="W" horiz-adv-x="1774" 
d="M361 0l-176 1446h126l144 -1262l510 1262h101l152 -1262l510 1262h123l-596 -1446h-127l-146 1219l-496 -1219h-125z" />
    <glyph glyph-name="X" unicode="X" horiz-adv-x="1281" 
d="M29 0l567 740l-341 706h153l281 -594l452 594h139l-537 -697l363 -749h-151l-303 632l-483 -632h-140z" />
    <glyph glyph-name="Y" unicode="Y" horiz-adv-x="1076" 
d="M407 0l86 621l-335 825h130l283 -709l477 709h132l-566 -827l-89 -619h-118z" />
    <glyph glyph-name="Z" unicode="Z" horiz-adv-x="1175" 
d="M65 0l13 79l943 1253h-742l16 114h907l-11 -77l-950 -1254h770l-18 -115h-928z" />
    <glyph glyph-name="bracketleft" unicode="[" horiz-adv-x="550" 
d="M81 -322l249 1768h305l-14 -92h-191l-227 -1584h192l-13 -92h-301z" />
    <glyph glyph-name="backslash" unicode="\" horiz-adv-x="623" 
d="M402 -100l-243 1546h104l243 -1546h-104z" />
    <glyph glyph-name="bracketright" unicode="]" horiz-adv-x="550" 
d="M-72 -322l13 92h192l226 1584h-192l14 92h301l-250 -1768h-304z" />
    <glyph glyph-name="asciicircum" unicode="^" horiz-adv-x="884" 
d="M632 263l-140 626l-320 -623h-106l371 716q23 45 50 61.5t51 2t35 -63.5l170 -719h-111z" />
    <glyph glyph-name="underscore" unicode="_" horiz-adv-x="948" 
d="M24 -215l17 107l691 2l-17 -107z" />
    <glyph glyph-name="grave" unicode="`" horiz-adv-x="446" 
d="M433 1155l-224 291h146l171 -291h-93z" />
    <glyph glyph-name="a" unicode="a" horiz-adv-x="1037" 
d="M351 -20q-95 0 -160.5 35t-95 100t-17.5 156q24 173 144 254.5t364 89.5l199 7l14 91q15 114 -45.5 176.5t-172.5 62.5q-94 -1 -173 -51.5t-109 -149.5h-113q16 80 71 149.5t142.5 111.5t201.5 42q113 0 188.5 -41t108 -116t17.5 -179l-102 -718h-104l19 195
q-78 -126 -175.5 -170.5t-201.5 -44.5zM394 80q55 0 113 21.5t109.5 58.5t86 82.5t41.5 93.5l27 192l-165 -4q-134 -2 -219.5 -27.5t-130.5 -78t-58 -136.5q-12 -95 42 -148.5t154 -53.5z" />
    <glyph glyph-name="b" unicode="b" horiz-adv-x="1133" 
d="M553 -20q-92 0 -151 26.5t-91.5 66t-47 78t-18.5 61.5l-39 -212h-97l195 1486h121l-82 -629q12 21 39.5 54t72 65.5t106 55t140.5 22.5q181 0 273 -132.5t57 -400.5q-31 -244 -152 -392.5t-326 -148.5zM551 84q133 0 230.5 108.5t126.5 339.5q25 191 -35.5 303.5
t-213.5 112.5q-166 0 -249 -111t-110 -305q-31 -236 25 -342t226 -106z" />
    <glyph glyph-name="c" unicode="c" horiz-adv-x="1029" 
d="M459 -20q-128 0 -217 59t-127 177.5t-13 297.5q23 161 89 283t172 189.5t249 67.5q96 0 170.5 -37t118 -108t45.5 -175h-114q-1 63 -29.5 110.5t-80.5 74.5t-124 27q-140 0 -243 -106t-134 -326q-27 -194 35 -312.5t220 -118.5q72 0 132 27.5t102.5 75.5t60.5 109h112
q-30 -102 -94 -172.5t-149 -106.5t-181 -36z" />
    <glyph glyph-name="d" unicode="d" horiz-adv-x="1129" 
d="M439 -20q-186 0 -278.5 135t-57.5 406q32 240 150.5 386.5t320.5 146.5q79 0 134.5 -22.5t91 -55t55 -65.5t25.5 -54l83 629h121l-196 -1486h-97l16 212q-10 -23 -34.5 -61.5t-67.5 -78t-108 -66t-158 -26.5zM468 84q170 0 254 106t115 342q16 129 -2 222.5t-77.5 143.5
t-171.5 50q-135 0 -232.5 -101t-124.5 -315q-27 -206 31.5 -327t207.5 -121z" />
    <glyph glyph-name="e" unicode="e" horiz-adv-x="1067" 
d="M479 -20q-131 0 -222 62t-130 180t-15 285q23 168 91.5 291t174 189.5t242.5 66.5q130 0 213 -60.5t115 -173.5t9 -271l-8 -62h-717q-15 -108 5.5 -199.5t83.5 -147t172 -55.5q105 0 187 53.5t114 148.5h117q-33 -102 -100.5 -170.5t-154.5 -102.5t-177 -34zM247 585h597
q15 103 -5 186t-78 131t-157 48q-107 0 -182 -54.5t-119 -138.5t-56 -172z" />
    <glyph glyph-name="f" unicode="f" horiz-adv-x="751" 
d="M230 0l132 937h-219l16 97h216l24 167q18 121 79.5 183t174.5 62h159l-13 -96h-151q-64 0 -92.5 -37.5t-39.5 -109.5l-23 -169h252l-15 -97h-250l-132 -937h-118z" />
    <glyph glyph-name="g" unicode="g" horiz-adv-x="1166" 
d="M437 -342q-213 0 -327.5 72t-96.5 213q8 58 36.5 98.5t65 69t67 46t42.5 26.5q-15 11 -34 25t-31.5 36.5t-7.5 57.5q5 44 49 81t126 58q-74 45 -111 118.5t-25 165.5q13 97 67 170.5t148 114t227 40.5q93 0 154.5 -24t109.5 -71q14 7 47 21t73 30.5t74 31t49 20.5
l-18 -141l-177 -39q28 -75 18 -160q-12 -91 -63.5 -162.5t-142 -112t-219.5 -40.5h-19.5t-18.5 1q-125 -3 -174.5 -28t-53.5 -55q-3 -31 37 -45.5t145 -22.5q39 -3 93 -6t120 -8q138 -8 209.5 -77.5t54.5 -196.5q-18 -137 -140 -222t-353 -85zM467 -248q146 0 237.5 51.5
t104.5 156.5q9 69 -31.5 113.5t-137.5 51.5l-296 20q-32 2 -78.5 -22t-84.5 -68.5t-47 -102.5q-11 -91 69.5 -145.5t263.5 -54.5zM548 496q121 0 202 57t96 173q16 117 -49 175t-183 58q-123 0 -206 -60.5t-99 -179.5q-14 -108 48 -165.5t191 -57.5z" />
    <glyph glyph-name="h" unicode="h" horiz-adv-x="1100" 
d="M109 0l198 1486h115l-80 -602q46 70 132.5 118.5t204.5 48.5q95 0 166.5 -37.5t107.5 -104t24 -154.5l-100 -755h-121l97 722q14 104 -44.5 162t-168.5 58q-77 0 -145.5 -25.5t-115 -77.5t-56.5 -131l-95 -708h-119z" />
    <glyph glyph-name="i" unicode="i" horiz-adv-x="467" 
d="M102 0l146 1034h117l-145 -1034h-118zM278 1295l21 151h130l-20 -151h-131z" />
    <glyph glyph-name="j" unicode="j" horiz-adv-x="477" 
d="M-55 -332q-80 0 -98 10l-18 10l13 84l107 3q69 3 102.5 38t44.5 119l157 1102h119l-158 -1111q-19 -130 -76 -192.5t-193 -62.5zM285 1300l22 151h133l-22 -151h-133z" />
    <glyph glyph-name="k" unicode="k" horiz-adv-x="1048" 
d="M95 0l212 1486h119l-144 -1019l586 567h147l-401 -384l281 -650h-134l-242 560l-261 -248l-43 -312h-120z" />
    <glyph glyph-name="l" unicode="l" horiz-adv-x="561" 
d="M303 -10q-62 0 -99.5 20.5t-56 57t-21.5 84t4 101.5l177 1233h119l-176 -1226q-12 -90 14 -131t70 -42l56 -1l-12 -84q-21 -6 -41.5 -9t-33.5 -3z" />
    <glyph glyph-name="m" unicode="m" horiz-adv-x="1604" 
d="M96 0l147 1034h112l-21 -149q47 67 121.5 118t187.5 51q81 0 157.5 -42t98.5 -126q57 79 141 123.5t178 44.5q50 0 102 -15t94.5 -55t61 -113.5t1.5 -191.5l-96 -679h-118l95 672q16 111 -7 170.5t-69.5 82.5t-103.5 23q-55 0 -115 -21.5t-106.5 -74.5t-60.5 -147
l-100 -705h-117l104 741q10 70 -17.5 115.5t-74 68.5t-96.5 23q-55 0 -115 -23.5t-106 -75t-57 -135.5l-103 -714h-118z" />
    <glyph glyph-name="n" unicode="n" horiz-adv-x="1084" 
d="M96 0l147 1034h112l-18 -149q31 46 80 84t113.5 60.5t142.5 22.5q95 0 165.5 -41.5t103 -125.5t14.5 -211l-96 -674h-119l95 666q20 134 -36 205t-164 71q-76 0 -145.5 -25.5t-116.5 -77t-58 -130.5l-102 -709h-118z" />
    <glyph glyph-name="o" unicode="o" horiz-adv-x="1062" 
d="M461 -20q-129 0 -218 59.5t-127 178t-14 295.5q22 163 86 284.5t169.5 189t247.5 67.5q129 0 216.5 -60.5t124.5 -180.5t13 -300q-21 -159 -84.5 -279t-166.5 -187t-247 -67zM477 85q94 0 169 49t125 145t68 237q17 126 -2.5 223.5t-79.5 153t-166 55.5
q-97 0 -172.5 -48.5t-125.5 -145t-69 -238.5q-17 -126 3 -223t81.5 -152.5t168.5 -55.5z" />
    <glyph glyph-name="p" unicode="p" horiz-adv-x="1127" 
d="M63 -322l178 1356h118l-22 -198q23 39 67.5 90.5t116 89.5t172.5 38q120 0 203 -56t119 -171.5t12 -292.5q-22 -172 -85 -296t-163 -191t-234 -67q-75 0 -127 23t-85.5 58.5t-52 74t-27.5 69.5l-69 -527h-121zM544 85q136 0 234.5 108t127.5 334q26 191 -35.5 306
t-213.5 115q-151 0 -245 -115t-118 -306q-17 -126 5 -226t83 -158t162 -58z" />
    <glyph glyph-name="q" unicode="q" horiz-adv-x="1130" 
d="M723 -322l69 527q-22 -41 -66.5 -94t-114 -92t-169.5 -39q-121 0 -205.5 59t-120.5 181.5t-11 313.5q21 160 81.5 276.5t158.5 180t231 63.5q76 0 129 -22.5t87.5 -57t54 -71.5t28.5 -67l29 198h119l-179 -1356h-121zM471 85q101 0 177 58t124.5 158t64.5 226
q25 191 -38.5 306t-214.5 115q-136 0 -234 -103.5t-126 -317.5q-27 -202 33.5 -322t213.5 -120z" />
    <glyph glyph-name="r" unicode="r" horiz-adv-x="727" 
d="M95 0l146 1034h113l-24 -174q35 72 85 114.5t107 61t111 18.5q26 0 50 -4t38 -13l-17 -123q-16 8 -43.5 11.5t-45.5 3.5q-59 3 -124.5 -18t-115 -75t-63.5 -150l-96 -686h-121z" />
    <glyph glyph-name="s" unicode="s" horiz-adv-x="943" 
d="M416 -20q-102 0 -180.5 33t-121.5 101t-41 173h115q3 -64 32 -109.5t82 -70t128 -24.5q108 0 181 46t86 142q9 65 -18.5 104.5t-91.5 58.5l-208 61q-107 31 -164 91.5t-42 169.5q12 88 60 155t131 105t200 38q146 0 228 -71t67 -213h-113q2 82 -47 132t-150 50
q-104 0 -175.5 -46.5t-84.5 -144.5q-9 -64 29.5 -100t116.5 -58l204 -62q57 -17 93.5 -45.5t56 -63.5t24 -75t-1.5 -79q-12 -91 -61.5 -157.5t-133.5 -103.5t-200 -37z" />
    <glyph glyph-name="t" unicode="t" horiz-adv-x="718" 
d="M414 -2q-85 0 -129 26t-56 79.5t0 136.5l98 697h-157l15 97h157l68 295h94l-41 -295h220l-14 -97h-221l-97 -686q-14 -97 13.5 -122.5t101.5 -25.5h92l-13 -92q-18 -7 -52.5 -10t-78.5 -3z" />
    <glyph glyph-name="u" unicode="u" horiz-adv-x="1096" 
d="M448 -20q-80 1 -145 23.5t-109 67t-62.5 112t-5.5 157.5l96 694h121l-97 -686q-17 -117 39.5 -189.5t192.5 -72.5q122 0 205.5 68t102.5 208l95 672h119l-145 -1034h-100l16 193q-27 -70 -74.5 -117.5t-110.5 -72t-138 -23.5z" />
    <glyph glyph-name="v" unicode="v" horiz-adv-x="934" 
d="M326 0l-194 1034h118l153 -883h20l410 883h115l-487 -1034h-135z" />
    <glyph glyph-name="w" unicode="w" horiz-adv-x="1453" 
d="M280 0l-142 1034h117l114 -881h19l364 881h96l127 -878h18l354 878h114l-425 -1034h-143l-122 840l-344 -840h-147z" />
    <glyph glyph-name="x" unicode="x" horiz-adv-x="1040" 
d="M5 0l446 537l-271 497h136l221 -404l333 404h136l-413 -497l296 -537h-137l-244 444l-367 -444h-136z" />
    <glyph glyph-name="y" unicode="y" horiz-adv-x="978" 
d="M106 -330q-76 0 -102 10l-26 10l13 83l101 -1q65 -1 106 16.5t66 45.5t41 60l59 120l-232 1020h123l190 -868l431 868h116l-577 -1152q-42 -80 -90 -126.5t-102.5 -66t-116.5 -19.5z" />
    <glyph glyph-name="z" unicode="z" horiz-adv-x="898" 
d="M13 0l11 89l703 847h-542l14 98h682l-12 -89l-701 -847h587l-14 -98h-728z" />
    <glyph glyph-name="braceleft" unicode="{" horiz-adv-x="559" 
d="M323 -322q-72 0 -117.5 24.5t-64 68t-10.5 100.5l65 447q6 47 -10.5 93t-59 76.5t-113.5 30.5l15 92q107 1 166.5 61.5t72.5 148.5l63 438q8 57 39.5 99t83.5 65.5t120 23.5h70l-13 -92h-59q-44 0 -71 -11.5t-40.5 -34t-18.5 -57.5l-63 -441q-11 -77 -43 -128.5t-76 -78
t-92 -31.5q-10 -1 -12 -6.5t10 -7.5q46 -4 83 -28.5t54.5 -75t7.5 -131.5l-63 -445q-8 -55 12.5 -81.5t88.5 -26.5h57l-13 -92h-69z" />
    <glyph glyph-name="bar" unicode="|" horiz-adv-x="518" 
d="M91 -322l279 1974h101l-281 -1974h-99z" />
    <glyph glyph-name="braceright" unicode="}" horiz-adv-x="573" 
d="M-73 -322l13 92h59q44 0 71 11.5t40.5 34t18.5 57.5l63 441q11 77 43 128.5t76 78t92 31.5q11 2 12.5 7.5t-10.5 6.5q-46 4 -83 28.5t-54.5 75t-6.5 131.5l62 445q9 56 -11.5 82t-89.5 26h-57l13 92h69q72 0 117.5 -24.5t64 -68t10.5 -100.5l-65 -447q-6 -47 11 -93
t59 -76.5t113 -30.5l-14 -92q-108 0 -167 -60.5t-73 -149.5l-62 -438q-8 -57 -40 -99t-84 -65.5t-120 -23.5h-70z" />
    <glyph glyph-name="asciitilde" unicode="~" horiz-adv-x="1030" 
d="M170 632l-24 82q50 44 107.5 78.5t138.5 34.5q50 0 90.5 -14.5t77.5 -33t76 -33t86 -14.5q72 0 117.5 30t76.5 64l24 -84q-30 -41 -89.5 -73t-142.5 -32q-55 0 -95.5 14t-75 32.5t-72 33t-85.5 14.5q-70 0 -121 -31t-89 -68z" />
    <glyph glyph-name="uni00A0" unicode="&#xa0;" horiz-adv-x="505" 
 />
    <glyph glyph-name="exclamdown" unicode="&#xa1;" horiz-adv-x="465" 
d="M48 -322l167 1031h85l-104 -1031h-148zM198 845l25 189h155l-25 -189h-155z" />
    <glyph glyph-name="cent" unicode="&#xa2;" horiz-adv-x="1022" 
d="M498 202q-130 0 -220.5 59t-129 177.5t-13.5 297.5q24 161 90.5 283t174.5 189.5t252 67.5q98 0 173.5 -37t119.5 -108t46 -175h-118q-1 63 -29.5 110.5t-81 74.5t-125.5 27q-140 0 -243.5 -106t-135.5 -326q-27 -194 35.5 -312.5t221.5 -118.5q73 0 133.5 27.5
t102.5 75.5t60 109h117q-31 -102 -96 -172.5t-151.5 -106.5t-182.5 -36zM406 0l38 258h97l-37 -258h-98zM594 1188l37 258h98l-37 -258h-98z" />
    <glyph glyph-name="sterling" unicode="&#xa3;" horiz-adv-x="1117" 
d="M-48 0l16 112h74q71 0 133 75t85 238q8 52 11.5 115.5t2.5 152.5h-188l14 94h173l-10 156q-9 122 24 218t96 164.5t145 104.5t168 36q83 0 150.5 -29.5t112.5 -77t59 -103.5l-113 -46q-24 68 -72.5 104t-140.5 36q-106 0 -190 -66t-102 -187q-9 -65 -7.5 -149t14.5 -160
h315l-15 -93h-302q1 -72 -1.5 -127.5t-12.5 -112.5q-16 -101 -45.5 -169.5t-60.5 -110t-51 -61.5h363q97 0 164.5 36.5t113.5 128.5l99 -35q-60 -123 -159 -183.5t-231 -60.5h-632z" />
    <glyph glyph-name="currency" unicode="&#xa4;" horiz-adv-x="985" 
d="M157 329l-55 76l120 110q-24 47 -32 100t0 113q8 56 30 105.5t54 90.5q6 9 5.5 15t-4.5 11l-78 102l77 72l88 -116q45 34 99 51.5t107 17.5q103 0 173 -61q14 -8 24 2l115 106l54 -73l-123 -115q23 -45 32.5 -97.5t1.5 -110.5q-7 -54 -28.5 -104.5t-55.5 -90.5
q-9 -16 -2 -25l85 -102l-77 -72l-91 114q-47 -34 -99.5 -53.5t-107.5 -19.5q-104 0 -177 61q-13 11 -24 -3zM487 485q64 0 119.5 33.5t93 89t46.5 120.5q9 64 -12 119.5t-67 89.5t-111 34t-121 -34t-93.5 -89.5t-46.5 -119.5q-9 -65 12.5 -120.5t68 -89t111.5 -33.5z" />
    <glyph glyph-name="yen" unicode="&#xa5;" horiz-adv-x="1095" 
d="M411 0l84 605l-343 841h155l282 -708l486 708h130l-568 -808l-91 -638h-135zM164 290l13 92l712 2l-14 -93zM204 572l13 93l712 1l-13 -92z" />
    <glyph glyph-name="brokenbar" unicode="&#xa6;" horiz-adv-x="518" 
d="M258 858l112 794h101l-114 -794h-99zM91 -322l112 794h99l-112 -794h-99z" />
    <glyph glyph-name="section" unicode="&#xa7;" horiz-adv-x="904" 
d="M377 -137q-83 0 -155 29t-124 80.5t-75 120.5l92 51q34 -78 105.5 -129.5t174.5 -51.5q97 0 167 42.5t81 120.5q9 55 -25 105.5t-143 100.5l-159 70q-112 50 -154.5 119.5t-31.5 158.5q14 93 79 159t152 100q-108 65 -135.5 129.5t-17.5 133.5q11 75 61.5 135t130.5 94.5
t180 34.5q79 0 141.5 -27t107 -71.5t68.5 -96.5l-93 -52q-37 62 -92.5 104.5t-136.5 42.5q-107 0 -173 -42.5t-76 -112.5q-6 -48 21 -94t119 -89l150 -70q131 -62 181 -139.5t35 -175.5q-13 -101 -74.5 -159t-135.5 -95q78 -51 115.5 -111.5t25.5 -143.5
q-12 -78 -63.5 -139.5t-134.5 -96.5t-188 -35zM503 450q49 -4 95.5 19.5t78.5 65t38 90.5q9 68 -16 118t-121 95l-104 46q-55 -4 -105 -32t-83.5 -70t-40.5 -88q-8 -59 19.5 -100t126.5 -88z" />
    <glyph glyph-name="dieresis" unicode="&#xa8;" horiz-adv-x="428" 
d="M395 1300l20 146h128l-20 -146h-128zM117 1300l20 146h129l-20 -146h-129z" />
    <glyph glyph-name="copyright" unicode="&#xa9;" horiz-adv-x="1515" 
d="M680 -20q-143 0 -261 57.5t-198.5 159.5t-115 237t-11.5 290q21 153 94 287.5t182.5 236.5t243 160t277.5 58q143 0 260 -58t197.5 -160t115 -236.5t12.5 -287.5q-22 -155 -95 -290t-182.5 -237t-243 -159.5t-275.5 -57.5zM731 311q-103 0 -174.5 52t-102.5 146t-13 218
q17 124 75.5 219t145 148.5t188.5 53.5q71 0 123 -27.5t87.5 -73.5t58.5 -101l-100 -38q-19 47 -44 80t-58.5 50t-74.5 17q-71 0 -131 -40t-101.5 -113t-55.5 -171q-21 -149 35 -238.5t162 -89.5q74 0 136.5 44.5t105.5 114.5l71 -38q-29 -44 -65 -82.5t-78 -68t-90 -46
t-100 -16.5zM695 83q119 0 231.5 45t206.5 129t158 202.5t85 264.5q20 144 -10 262t-100 203t-170.5 130.5t-219.5 45.5q-121 0 -234.5 -45.5t-207 -130.5t-156.5 -203t-84 -262q-27 -195 32.5 -339t183 -223t285.5 -79z" />
    <glyph glyph-name="ordfeminine" unicode="&#xaa;" horiz-adv-x="775" 
d="M351 791q-94 0 -140.5 47.5t-34.5 131.5q14 94 95.5 148t224.5 67l121 11l6 49q10 72 -25 105t-106 33q-53 0 -95.5 -21t-85.5 -80l-74 28q43 72 112 111.5t161 39.5q114 0 163.5 -59t35.5 -161q-12 -80 -19.5 -136t-12.5 -91q-3 -18 -5.5 -40t-3.5 -45.5t-2 -47.5
l-1 -78h-90l-3 93q-55 -54 -107.5 -79.5t-113.5 -25.5zM386 865q77 0 141 57q27 23 44 45t20 47l15 112l-98 -9q-114 -8 -172.5 -45.5t-67.5 -97.5q-6 -49 26.5 -79t91.5 -30z" />
    <glyph glyph-name="guillemotleft" unicode="&#xab;" horiz-adv-x="814" 
d="M587 147l-205 355l310 371h74l-259 -371l153 -355h-73zM272 147l-205 355l309 371h75l-260 -371l153 -355h-72z" />
    <glyph glyph-name="logicalnot" unicode="&#xac;" horiz-adv-x="1019" 
d="M149 673l16 105l764 1l-16 -104zM771 396l48 356h106l-52 -356h-102z" />
    <glyph glyph-name="uni00AD" unicode="&#xad;" horiz-adv-x="705" 
d="M118 463l15 107l453 2l-14 -108z" />
    <glyph glyph-name="registered" unicode="&#xae;" horiz-adv-x="997" 
d="M499 536q-120 0 -209.5 62t-132.5 167.5t-24 234.5q18 129 91 235t180 168.5t229 62.5q118 0 206.5 -62.5t132 -168.5t25.5 -235t-91.5 -234.5t-180 -167.5t-226.5 -62zM511 615q104 0 190.5 47t144 133.5t74.5 204.5q17 117 -16 204t-106 135t-177 48q-106 0 -193 -48
t-144.5 -135t-73.5 -204q-25 -176 58.5 -280.5t242.5 -104.5zM370 766l67 462h189q67 0 99.5 -29t24.5 -85q-7 -56 -40 -84t-69 -40l51 -224h-72l-44 218h-108l-31 -218h-67zM475 1045h113q34 0 60.5 12.5t32.5 48.5q3 25 -12 43.5t-68 18.5h-107z" />
    <glyph glyph-name="macron" unicode="&#xaf;" horiz-adv-x="550" 
d="M127 1252l14 99h504l-14 -99h-504z" />
    <glyph glyph-name="degree" unicode="&#xb0;" horiz-adv-x="872" 
d="M510 1069q-81 0 -138.5 38.5t-84 107t-13.5 155.5q12 89 58 157.5t115 107.5t151 39q81 0 138.5 -39t84 -107.5t14.5 -157.5q-13 -87 -59 -155.5t-115 -107t-151 -38.5zM522 1160q86 0 143.5 58t70.5 150q14 93 -27.5 151t-129.5 58q-83 0 -142 -58t-72 -151
q-12 -92 30 -150t127 -58z" />
    <glyph glyph-name="plusminus" unicode="&#xb1;" horiz-adv-x="1021" 
d="M455 462l115 818h99l-117 -818h-97zM75 142l15 104l763 2l-14 -104zM172 817l15 104l763 2l-14 -105z" />
    <glyph glyph-name="uni00B2" unicode="&#xb2;" horiz-adv-x="663" 
d="M73 768l9 60l4 32q12 82 52.5 138.5t97.5 97.5t120 75.5t120 71t96.5 84t48.5 114.5q11 79 -33.5 126.5t-130.5 47.5q-94 0 -156 -56t-79 -143h-78q18 112 103 193t224 81q121 0 183.5 -68.5t46.5 -181.5q-12 -82 -52.5 -138t-97.5 -96.5t-119 -73.5t-118 -68.5
t-95 -82.5t-49 -116l-3 -23h458l-11 -74h-541z" />
    <glyph glyph-name="uni00B3" unicode="&#xb3;" horiz-adv-x="730" 
d="M359 754q-121 2 -192 73.5t-59 191.5h79q0 -88 49.5 -140t137.5 -52q102 0 171.5 51.5t81.5 134.5q13 97 -51 145.5t-163 49.5l-75 1l11 71l72 1q62 1 114.5 26t88 65.5t41.5 86.5q9 61 -35.5 110.5t-143.5 49.5q-48 0 -97.5 -21.5t-85.5 -65.5t-46 -111h-78
q12 83 58 143t114.5 93t143.5 33q85 0 145.5 -27.5t88.5 -79t19 -122.5q-10 -68 -60 -124t-136 -87q58 -18 96 -51t54 -79.5t8 -104.5q-11 -79 -59.5 -138.5t-123.5 -91.5t-168 -31z" />
    <glyph glyph-name="acute" unicode="&#xb4;" horiz-adv-x="364" 
d="M100 1155l231 291h154l-283 -291h-102z" />
    <glyph glyph-name="uni00B5" unicode="&#xb5;" horiz-adv-x="1098" 
d="M30 -330l199 1390h122l-109 -758q-7 -54 15 -100t66.5 -74t103.5 -28q84 0 172 53.5t177 143.5l107 763h123l-153 -1060h-116l24 164q-113 -89 -188.5 -128t-155.5 -41q-63 -2 -115 15.5t-92 62.5l-57 -403h-123z" />
    <glyph glyph-name="paragraph" unicode="&#xb6;" horiz-adv-x="1019" 
d="M400 -166l107 759q-124 2 -204.5 59.5t-114 151t-17.5 201.5q15 111 76 212t164.5 165t244.5 64h343l-11 -85h-111l-217 -1527h-87l217 1527h-86l-217 -1527h-87z" />
    <glyph glyph-name="periodcentered" unicode="&#xb7;" horiz-adv-x="414" 
d="M132 637l27 183h178l-27 -183h-178z" />
    <glyph glyph-name="cedilla" unicode="&#xb8;" horiz-adv-x="391" 
d="M47 -404q-46 0 -83.5 12t-67.5 36l34 65q19 -19 44.5 -32t68.5 -13q54 0 81.5 21t33.5 58q7 45 -25 67t-105 24q-9 0 -10.5 3t2.5 8l90 165h76l-63 -122q59 -5 89.5 -26.5t40 -53t5.5 -62.5q-7 -50 -38 -83.5t-76.5 -50t-96.5 -16.5z" />
    <glyph glyph-name="uni00B9" unicode="&#xb9;" horiz-adv-x="437" 
d="M222 760l106 748h-170l8 60q116 0 156.5 24t49.5 78h58l-130 -910h-78z" />
    <glyph glyph-name="ordmasculine" unicode="&#xba;" horiz-adv-x="767" 
d="M421 794q-134 0 -193.5 93.5t-39.5 238.5q15 101 60 177t114 118.5t154 42.5q130 0 192.5 -93t41.5 -245q-13 -97 -56.5 -172t-112.5 -117.5t-160 -42.5zM432 872q91 0 148.5 70.5t73.5 189.5q16 114 -21 183t-127 69q-91 0 -147.5 -69t-73.5 -183q-17 -119 20.5 -189.5
t126.5 -70.5z" />
    <glyph glyph-name="guillemotright" unicode="&#xbb;" horiz-adv-x="810" 
d="M362 147l256 355l-156 371h73l204 -371l-305 -355h-72zM47 147l254 355l-153 371h72l204 -371l-306 -355h-71z" />
    <glyph glyph-name="onequarter" unicode="&#xbc;" horiz-adv-x="1401" 
d="M222 552l106 748h-170l8 60q116 0 156.5 24t49.5 78h58l-130 -910h-78zM194 -8l-92 1l1119 1469h89zM1059 0l35 250h-403l12 81l480 579h80l-82 -586h145l-11 -74h-146l-35 -250h-75zM777 324h325l67 471z" />
    <glyph glyph-name="onehalf" unicode="&#xbd;" horiz-adv-x="1557" 
d="M222 552l106 748h-170l8 60q116 0 156.5 24t49.5 78h58l-130 -910h-78zM194 -8l-92 1l1119 1469h89zM889 0l9 60l5 32q12 82 52.5 138.5t97.5 97.5t120 75.5t120 71t96 84t49 114.5q11 79 -33.5 126.5t-130.5 47.5q-94 0 -156 -56t-79 -143h-78q18 112 103 193t224 81
q121 0 183.5 -68.5t46.5 -181.5q-12 -82 -52.5 -138t-97.5 -96.5t-119 -73.5t-118 -68.5t-95 -82.5t-49 -116l-3 -23h458l-12 -74h-541z" />
    <glyph glyph-name="threequarters" unicode="&#xbe;" horiz-adv-x="1631" 
d="M359 544q-121 2 -192 73.5t-59 191.5h79q0 -88 49.5 -140t137.5 -52q102 0 171.5 51.5t81.5 134.5q13 97 -51 145.5t-163 49.5l-75 1l11 71l72 1q62 1 114.5 26t88 65.5t41.5 86.5q9 61 -35.5 110.5t-143.5 49.5q-48 0 -97.5 -21.5t-85.5 -65.5t-46 -111h-78
q12 83 58 143t114.5 93t143.5 33q85 0 145.5 -27.5t88.5 -79t19 -122.5q-10 -68 -60 -124t-136 -87q58 -18 96 -51t54 -79.5t8 -104.5q-11 -79 -59.5 -138.5t-123.5 -91.5t-168 -31zM425 -8l-92 1l1119 1469h89zM1290 0l35 250h-403l12 81l480 579h80l-82 -586h145l-11 -74
h-146l-35 -250h-75zM1008 324h325l67 471z" />
    <glyph glyph-name="questiondown" unicode="&#xbf;" horiz-adv-x="955" 
d="M344 -342q-125 0 -208.5 44.5t-121.5 124t-24 184.5q13 99 60.5 166.5t111 120t127 106.5t111.5 126t62 180h110q-15 -119 -62 -198t-108.5 -136.5t-122 -108t-105 -109.5t-55.5 -144q-14 -113 51.5 -180t188.5 -67q66 0 134.5 27.5t124 73.5t82.5 102l109 -45
q-76 -123 -199.5 -195t-265.5 -72zM457 845l25 189h157l-26 -189h-156z" />
    <glyph glyph-name="Agrave" unicode="&#xc0;" horiz-adv-x="1330" 
d="M29 0l696 1446h146l283 -1446h-124l-83 430h-586l-208 -430h-124zM413 553h516l-147 766zM774 1567l-224 291h146l171 -291h-93z" />
    <glyph glyph-name="Aacute" unicode="&#xc1;" horiz-adv-x="1330" 
d="M29 0l696 1446h146l283 -1446h-124l-83 430h-586l-208 -430h-124zM413 553h516l-147 766zM743 1567l231 291h154l-283 -291h-102z" />
    <glyph glyph-name="Acircumflex" unicode="&#xc2;" horiz-adv-x="1330" 
d="M29 0l696 1446h146l283 -1446h-124l-83 430h-586l-208 -430h-124zM413 553h516l-147 766zM533 1567l251 205h89l201 -205h-136l-119 124l-158 -124h-128z" />
    <glyph glyph-name="Atilde" unicode="&#xc3;" horiz-adv-x="1330" 
d="M29 0l696 1446h146l283 -1446h-124l-83 430h-586l-208 -430h-124zM413 553h516l-147 766zM597 1649l-16 78q34 30 69 49.5t83 19.5q42 0 77 -13t69.5 -26.5t75.5 -13.5q38 0 66 14t58 34l16 -88q-24 -16 -61 -34t-94 -18q-47 0 -79.5 12.5t-62.5 25t-70 12.5
q-46 0 -74.5 -17t-56.5 -35z" />
    <glyph glyph-name="Adieresis" unicode="&#xc4;" horiz-adv-x="1330" 
d="M29 0l696 1446h146l283 -1446h-124l-83 430h-586l-208 -430h-124zM413 553h516l-147 766zM911 1712l20 146h128l-20 -146h-128zM633 1712l20 146h129l-20 -146h-129z" />
    <glyph glyph-name="Aring" unicode="&#xc5;" horiz-adv-x="1330" 
d="M29 0l696 1446h146l283 -1446h-124l-83 430h-586l-208 -430h-124zM413 553h516l-147 766zM816 1576q-76 0 -122.5 58.5t-33.5 144.5q7 53 38.5 96.5t78 69.5t97.5 26q78 0 124 -57t34 -139q-7 -57 -38.5 -102t-78 -71t-99.5 -26zM827 1661q43 0 78 34.5t42 78.5
q6 50 -19 80.5t-69 30.5q-40 0 -75.5 -30.5t-43.5 -80.5q-7 -44 19.5 -78.5t67.5 -34.5z" />
    <glyph glyph-name="AE" unicode="&#xc6;" horiz-adv-x="1763" 
d="M-73 0l962 1446h848l-16 -114h-644l-77 -545h595l-15 -113h-597l-79 -560h669l-16 -114h-805l63 436h-475l-290 -436h-123zM408 553h423l112 792z" />
    <glyph glyph-name="Ccedilla" unicode="&#xc7;" horiz-adv-x="1287" 
d="M510 -404q-46 0 -83 12t-67 36l33 65q20 -19 45.5 -32t67.5 -13q54 0 81.5 21t33.5 58q8 45 -24 67t-106 24q-8 0 -10 3t2 8l90 165h76l-63 -122q59 -5 89.5 -26.5t40 -53t5.5 -62.5q-7 -50 -38 -83.5t-76.5 -50t-96.5 -16.5zM604 -20q-175 0 -286 82.5t-154.5 243
t-16.5 395.5q20 180 72 322t134.5 240.5t195 150.5t253.5 52q137 0 234.5 -61.5t148 -163.5t48.5 -222h-130q-5 90 -41 165t-104.5 120t-174.5 45q-109 0 -195 -43.5t-148.5 -126.5t-102.5 -204t-58 -277q-37 -306 48.5 -453.5t290.5 -147.5q105 0 185.5 45.5t136.5 121.5
t85 166h130q-21 -86 -68.5 -167t-118.5 -144.5t-162.5 -101t-201.5 -37.5z" />
    <glyph glyph-name="Egrave" unicode="&#xc8;" horiz-adv-x="1173" 
d="M134 0l207 1446h808l-17 -116h-689l-77 -541h631l-15 -117h-632l-79 -552l712 -2l-18 -118h-831zM702 1567l-224 291h146l171 -291h-93z" />
    <glyph glyph-name="Eacute" unicode="&#xc9;" horiz-adv-x="1173" 
d="M134 0l207 1446h808l-17 -116h-689l-77 -541h631l-15 -117h-632l-79 -552l712 -2l-18 -118h-831zM671 1567l231 291h154l-283 -291h-102z" />
    <glyph glyph-name="Ecircumflex" unicode="&#xca;" horiz-adv-x="1173" 
d="M134 0l207 1446h808l-17 -116h-689l-77 -541h631l-15 -117h-632l-79 -552l712 -2l-18 -118h-831zM472 1567l251 205h89l201 -205h-136l-119 124l-158 -124h-128z" />
    <glyph glyph-name="Edieresis" unicode="&#xcb;" horiz-adv-x="1173" 
d="M134 0l207 1446h808l-17 -116h-689l-77 -541h631l-15 -117h-632l-79 -552l712 -2l-18 -118h-831zM839 1712l20 146h128l-20 -146h-128zM561 1712l20 146h129l-20 -146h-129z" />
    <glyph glyph-name="Igrave" unicode="&#xcc;" horiz-adv-x="538" 
d="M136 0l204 1446h120l-204 -1446h-120zM378 1567l-224 291h146l171 -291h-93z" />
    <glyph glyph-name="Iacute" unicode="&#xcd;" horiz-adv-x="538" 
d="M136 0l204 1446h120l-204 -1446h-120zM347 1567l231 291h154l-283 -291h-102z" />
    <glyph glyph-name="Icircumflex" unicode="&#xce;" horiz-adv-x="538" 
d="M136 0l204 1446h120l-204 -1446h-120zM148 1567l251 205h89l201 -205h-136l-119 124l-158 -124h-128z" />
    <glyph glyph-name="Idieresis" unicode="&#xcf;" horiz-adv-x="538" 
d="M136 0l204 1446h120l-204 -1446h-120zM515 1712l20 146h128l-20 -146h-128zM237 1712l20 146h129l-20 -146h-129z" />
    <glyph glyph-name="Eth" unicode="&#xd0;" horiz-adv-x="1348" 
d="M102 671l6 110h636l-6 -110h-636zM185 0l203 1446q4 0 69 -1t145 -1q131 -1 237 -19.5t186 -58.5t134 -102.5t81.5 -151t27.5 -205.5q0 -116 -17 -228t-56 -213.5t-103 -186.5t-156.5 -147.5t-217 -97t-286.5 -34.5h-247zM327 116h112q192 0 326.5 58t217.5 163
t121 247.5t38 311.5q0 166 -60.5 260.5t-176 134t-279.5 39.5h-127z" />
    <glyph glyph-name="Ntilde" unicode="&#xd1;" horiz-adv-x="1410" 
d="M134 0l207 1446h108l592 -1217l173 1217h120l-207 -1446h-105l-594 1222l-174 -1222h-120zM636 1649l-16 78q34 30 69 49.5t83 19.5q42 0 77 -13t69.5 -26.5t75.5 -13.5q38 0 66 14t58 34l16 -88q-24 -16 -61 -34t-94 -18q-47 0 -79.5 12.5t-62.5 25t-70 12.5
q-46 0 -74.5 -17t-56.5 -35z" />
    <glyph glyph-name="Ograve" unicode="&#xd2;" horiz-adv-x="1364" 
d="M607 -20q-176 0 -290.5 85t-159 249.5t-10.5 402.5q34 241 126.5 408t232 254t314.5 87q174 0 287 -86t157 -253t10 -407q-34 -238 -125 -403.5t-229 -251t-313 -85.5zM626 97q138 0 243.5 67t174.5 205t99 350q30 214 -0.5 353.5t-116.5 208t-224 68.5
q-206 0 -341 -155.5t-181 -474.5q-30 -211 1.5 -349t119 -205.5t225.5 -67.5zM791 1567l-224 291h146l171 -291h-93z" />
    <glyph glyph-name="Oacute" unicode="&#xd3;" horiz-adv-x="1364" 
d="M607 -20q-176 0 -290.5 85t-159 249.5t-10.5 402.5q34 241 126.5 408t232 254t314.5 87q174 0 287 -86t157 -253t10 -407q-34 -238 -125 -403.5t-229 -251t-313 -85.5zM626 97q138 0 243.5 67t174.5 205t99 350q30 214 -0.5 353.5t-116.5 208t-224 68.5
q-206 0 -341 -155.5t-181 -474.5q-30 -211 1.5 -349t119 -205.5t225.5 -67.5zM760 1567l231 291h154l-283 -291h-102z" />
    <glyph glyph-name="Ocircumflex" unicode="&#xd4;" horiz-adv-x="1364" 
d="M607 -20q-176 0 -290.5 85t-159 249.5t-10.5 402.5q34 241 126.5 408t232 254t314.5 87q174 0 287 -86t157 -253t10 -407q-34 -238 -125 -403.5t-229 -251t-313 -85.5zM626 97q138 0 243.5 67t174.5 205t99 350q30 214 -0.5 353.5t-116.5 208t-224 68.5
q-206 0 -341 -155.5t-181 -474.5q-30 -211 1.5 -349t119 -205.5t225.5 -67.5zM562 1567l251 205h89l201 -205h-136l-119 124l-158 -124h-128z" />
    <glyph glyph-name="Otilde" unicode="&#xd5;" horiz-adv-x="1364" 
d="M607 -20q-176 0 -290.5 85t-159 249.5t-10.5 402.5q34 241 126.5 408t232 254t314.5 87q174 0 287 -86t157 -253t10 -407q-34 -238 -125 -403.5t-229 -251t-313 -85.5zM626 97q138 0 243.5 67t174.5 205t99 350q30 214 -0.5 353.5t-116.5 208t-224 68.5
q-206 0 -341 -155.5t-181 -474.5q-30 -211 1.5 -349t119 -205.5t225.5 -67.5zM615 1649l-16 78q34 30 69 49.5t83 19.5q42 0 77 -13t69.5 -26.5t75.5 -13.5q38 0 66 14t58 34l16 -88q-24 -16 -61 -34t-94 -18q-47 0 -79.5 12.5t-62.5 25t-70 12.5q-46 0 -74.5 -17t-56.5 -35
z" />
    <glyph glyph-name="Odieresis" unicode="&#xd6;" horiz-adv-x="1364" 
d="M607 -20q-176 0 -290.5 85t-159 249.5t-10.5 402.5q34 241 126.5 408t232 254t314.5 87q174 0 287 -86t157 -253t10 -407q-34 -238 -125 -403.5t-229 -251t-313 -85.5zM626 97q138 0 243.5 67t174.5 205t99 350q30 214 -0.5 353.5t-116.5 208t-224 68.5
q-206 0 -341 -155.5t-181 -474.5q-30 -211 1.5 -349t119 -205.5t225.5 -67.5zM929 1712l20 146h128l-20 -146h-128zM651 1712l20 146h129l-20 -146h-129z" />
    <glyph glyph-name="multiply" unicode="&#xd7;" horiz-adv-x="988" 
d="M173 335l-60 76l760 708l60 -73zM761 335l-560 707l83 74l560 -705z" />
    <glyph glyph-name="Oslash" unicode="&#xd8;" horiz-adv-x="1384" 
d="M66 -26l-67 78l188 196q-37 89 -45 206.5t13 262.5q34 241 126 408t231 254t314 87q125 0 219 -44.5t154 -131.5l174 180l69 -76l-192 -200q36 -90 44.5 -209t-12.5 -265q-33 -238 -124.5 -403.5t-230.5 -251t-313 -85.5q-126 0 -220 44t-153 129zM634 97q201 0 324 145
t168 445q19 117 20 215t-17 179l-789 -830q85 -154 294 -154zM308 363l789 830q-41 80 -112.5 118.5t-175.5 38.5q-203 0 -329 -149.5t-173 -454.5q-16 -115 -16 -210.5t17 -172.5z" />
    <glyph glyph-name="Ugrave" unicode="&#xd9;" horiz-adv-x="1309" 
d="M598 -20q-163 0 -258 57t-127.5 172t-7.5 287l134 950h126l-139 -981q-18 -122 8.5 -205t96.5 -124.5t183 -41.5q171 0 273 92.5t128 278.5l139 981h119l-138 -975q-22 -162 -88 -271t-177 -164.5t-272 -55.5zM783 1567l-224 291h146l171 -291h-93z" />
    <glyph glyph-name="Uacute" unicode="&#xda;" horiz-adv-x="1309" 
d="M598 -20q-163 0 -258 57t-127.5 172t-7.5 287l134 950h126l-139 -981q-18 -122 8.5 -205t96.5 -124.5t183 -41.5q171 0 273 92.5t128 278.5l139 981h119l-138 -975q-22 -162 -88 -271t-177 -164.5t-272 -55.5zM752 1567l231 291h154l-283 -291h-102z" />
    <glyph glyph-name="Ucircumflex" unicode="&#xdb;" horiz-adv-x="1309" 
d="M598 -20q-163 0 -258 57t-127.5 172t-7.5 287l134 950h126l-139 -981q-18 -122 8.5 -205t96.5 -124.5t183 -41.5q171 0 273 92.5t128 278.5l139 981h119l-138 -975q-22 -162 -88 -271t-177 -164.5t-272 -55.5zM554 1567l251 205h89l201 -205h-136l-119 124l-158 -124
h-128z" />
    <glyph glyph-name="Udieresis" unicode="&#xdc;" horiz-adv-x="1309" 
d="M598 -20q-163 0 -258 57t-127.5 172t-7.5 287l134 950h126l-139 -981q-18 -122 8.5 -205t96.5 -124.5t183 -41.5q171 0 273 92.5t128 278.5l139 981h119l-138 -975q-22 -162 -88 -271t-177 -164.5t-272 -55.5zM921 1712l20 146h128l-20 -146h-128zM643 1712l20 146h129
l-20 -146h-129z" />
    <glyph glyph-name="Yacute" unicode="&#xdd;" horiz-adv-x="1076" 
d="M407 0l86 621l-335 825h130l283 -709l477 709h132l-566 -827l-89 -619h-118zM611 1570l231 291h154l-283 -291h-102z" />
    <glyph glyph-name="Thorn" unicode="&#xde;" horiz-adv-x="1209" 
d="M135 0l203 1446h126l-42 -308h322q146 0 251.5 -40t157 -125t31.5 -218q-20 -146 -95.5 -237t-191 -133.5t-255.5 -42.5h-332l-49 -342h-126zM326 459h332q104 0 189 29t141 94t71 173q14 99 -25 157.5t-119 84t-188 25.5h-322z" />
    <glyph glyph-name="germandbls" unicode="&#xdf;" horiz-adv-x="1069" 
d="M547 -20q-64 0 -132.5 19t-111.5 52l63 91q38 -26 78.5 -44.5t104.5 -18.5q113 0 189 59t91 165q12 81 -18 128.5t-83 75.5t-114 50q-43 17 -85 38.5t-66.5 61t-15.5 109.5q11 74 59.5 122t142.5 98q40 23 79.5 46.5t68 58t36.5 90.5q10 76 -34.5 121t-140.5 45
q-112 0 -195.5 -75t-103.5 -228l-148 -1044h-115l143 1024q15 96 52 173t95 133t134 86t168 30q110 0 169 -39t78 -100.5t10 -126.5q-11 -78 -47 -125.5t-88.5 -78.5t-111.5 -61q-76 -41 -108 -65t-38 -68q-5 -42 19 -60.5t90 -42.5q45 -18 98.5 -42.5t100 -64t71 -101.5
t11.5 -157q-15 -109 -73 -183.5t-142 -112.5t-180 -38z" />
    <glyph glyph-name="agrave" unicode="&#xe0;" horiz-adv-x="1078" 
d="M353 -20q-95 0 -160.5 35t-95 100t-17.5 156q24 173 144 254.5t364 89.5l199 7l14 91q15 114 -45.5 176.5t-172.5 62.5q-94 -1 -173 -51.5t-109 -149.5h-113q16 80 71 149.5t142.5 111.5t201.5 42q113 0 188.5 -41t108 -116t17.5 -179l-102 -718h-104l19 195
q-78 -126 -175.5 -170.5t-201.5 -44.5zM396 80q55 0 113 21.5t109.5 58.5t86 82.5t41.5 93.5l27 192l-165 -4q-134 -2 -219.5 -27.5t-130.5 -78t-58 -136.5q-12 -95 42 -148.5t154 -53.5zM582 1155l-224 291h146l171 -291h-93z" />
    <glyph glyph-name="aacute" unicode="&#xe1;" horiz-adv-x="1076" 
d="M351 -20q-95 0 -160.5 35t-95 100t-17.5 156q24 173 144 254.5t364 89.5l199 7l14 91q15 114 -45.5 176.5t-172.5 62.5q-94 -1 -173 -51.5t-109 -149.5h-113q16 80 71 149.5t142.5 111.5t201.5 42q113 0 188.5 -41t108 -116t17.5 -179l-102 -718h-104l19 195
q-78 -126 -175.5 -170.5t-201.5 -44.5zM394 80q55 0 113 21.5t109.5 58.5t86 82.5t41.5 93.5l27 192l-165 -4q-134 -2 -219.5 -27.5t-130.5 -78t-58 -136.5q-12 -95 42 -148.5t154 -53.5zM564 1155l231 291h154l-283 -291h-102z" />
    <glyph glyph-name="acircumflex" unicode="&#xe2;" horiz-adv-x="1076" 
d="M351 -20q-95 0 -160.5 35t-95 100t-17.5 156q24 173 144 254.5t364 89.5l199 7l14 91q15 114 -45.5 176.5t-172.5 62.5q-94 -1 -173 -51.5t-109 -149.5h-113q16 80 71 149.5t142.5 111.5t201.5 42q113 0 188.5 -41t108 -116t17.5 -179l-102 -718h-104l19 195
q-78 -126 -175.5 -170.5t-201.5 -44.5zM394 80q55 0 113 21.5t109.5 58.5t86 82.5t41.5 93.5l27 192l-165 -4q-134 -2 -219.5 -27.5t-130.5 -78t-58 -136.5q-12 -95 42 -148.5t154 -53.5zM348 1155l251 205h89l201 -205h-136l-119 124l-158 -124h-128z" />
    <glyph glyph-name="atilde" unicode="&#xe3;" horiz-adv-x="1076" 
d="M351 -20q-95 0 -160.5 35t-95 100t-17.5 156q24 173 144 254.5t364 89.5l199 7l14 91q15 114 -45.5 176.5t-172.5 62.5q-94 -1 -173 -51.5t-109 -149.5h-113q16 80 71 149.5t142.5 111.5t201.5 42q113 0 188.5 -41t108 -116t17.5 -179l-102 -718h-104l19 195
q-78 -126 -175.5 -170.5t-201.5 -44.5zM394 80q55 0 113 21.5t109.5 58.5t86 82.5t41.5 93.5l27 192l-165 -4q-134 -2 -219.5 -27.5t-130.5 -78t-58 -136.5q-12 -95 42 -148.5t154 -53.5zM402 1237l-16 78q34 30 69 49.5t83 19.5q42 0 77 -13t69.5 -26.5t75.5 -13.5
q38 0 66 14t58 34l16 -88q-24 -16 -61 -34t-94 -18q-47 0 -79.5 12.5t-62.5 25t-70 12.5q-46 0 -74.5 -17t-56.5 -35z" />
    <glyph glyph-name="adieresis" unicode="&#xe4;" horiz-adv-x="1076" 
d="M351 -20q-95 0 -160.5 35t-95 100t-17.5 156q24 173 144 254.5t364 89.5l199 7l14 91q15 114 -45.5 176.5t-172.5 62.5q-94 -1 -173 -51.5t-109 -149.5h-113q16 80 71 149.5t142.5 111.5t201.5 42q113 0 188.5 -41t108 -116t17.5 -179l-102 -718h-104l19 195
q-78 -126 -175.5 -170.5t-201.5 -44.5zM394 80q55 0 113 21.5t109.5 58.5t86 82.5t41.5 93.5l27 192l-165 -4q-134 -2 -219.5 -27.5t-130.5 -78t-58 -136.5q-12 -95 42 -148.5t154 -53.5zM710 1299l20 146h128l-20 -146h-128zM432 1299l20 146h129l-20 -146h-129z" />
    <glyph glyph-name="aring" unicode="&#xe5;" horiz-adv-x="1076" 
d="M788 1498l-72 -135q51 -20 78.5 -69t18.5 -113q-12 -86 -73.5 -142t-140.5 -56q-78 0 -121.5 57.5t-32.5 144.5q10 72 63 125t121 61l47 127h112zM728 1178q8 49 -17.5 80.5t-69.5 31.5q-41 0 -77 -31.5t-42 -80.5q-6 -44 20.5 -78.5t67.5 -34.5q43 0 77 34.5t41 78.5z
M351 -20q-95 0 -160.5 35t-95 100t-17.5 156q24 173 144 254.5t364 89.5l199 7l14 91q15 114 -45.5 176.5t-172.5 62.5q-94 -1 -173 -51.5t-109 -149.5h-113q16 80 71 149.5t142.5 111.5t201.5 42q113 0 188.5 -41t108 -116t17.5 -179l-102 -718h-104l19 195
q-78 -126 -175.5 -170.5t-201.5 -44.5zM394 80q55 0 113 21.5t109.5 58.5t86 82.5t41.5 93.5l27 192l-165 -4q-134 -2 -219.5 -27.5t-130.5 -78t-58 -136.5q-12 -95 42 -148.5t154 -53.5z" />
    <glyph glyph-name="ae" unicode="&#xe6;" horiz-adv-x="1737" 
d="M351 -20q-94 0 -160 35t-96 100t-17 156q24 173 144 255t366 89l201 7l13 91q16 114 -44 176.5t-173 62.5q-95 -1 -172 -51.5t-107 -149.5h-114q17 80 70.5 149.5t140.5 111.5t202 42q127 0 207 -57t98 -159q65 104 162 160t218 56q131 0 214 -60.5t115 -173.5t9 -271
l-9 -62h-716q-16 -108 4.5 -199.5t83.5 -147t172 -55.5q105 0 187.5 53.5t113.5 148.5h118q-33 -102 -101 -170.5t-155 -102.5t-177 -34q-139 0 -232.5 71t-125.5 205q-27 -84 -96 -146t-159 -96t-185 -34zM397 80q96 0 173 47.5t126 117t59 133.5l21 150l-168 -4
q-135 -2 -221 -27.5t-131 -78t-57 -136.5q-13 -95 42 -148.5t156 -53.5zM917 585h597q15 103 -5 186t-78 131t-157 48q-106 0 -181 -54.5t-119.5 -138.5t-56.5 -172z" />
    <glyph glyph-name="ccedilla" unicode="&#xe7;" horiz-adv-x="1029" 
d="M374 -404q-46 0 -83.5 12t-67.5 36l34 65q19 -19 44.5 -32t67.5 -13q55 0 82.5 21t33.5 58q7 45 -25 67t-106 24q-8 0 -9.5 3t2.5 8l89 165h77l-63 -122q58 -5 89 -26.5t40.5 -53t5.5 -62.5q-8 -50 -38.5 -83.5t-76 -50t-96.5 -16.5zM459 -20q-128 0 -217 59t-127 177.5
t-13 297.5q23 161 89 283t172 189.5t249 67.5q96 0 170.5 -37t118 -108t45.5 -175h-114q-1 63 -29.5 110.5t-80.5 74.5t-124 27q-140 0 -243 -106t-134 -326q-27 -194 35 -312.5t220 -118.5q72 0 132 27.5t102.5 75.5t60.5 109h112q-30 -102 -94 -172.5t-149 -106.5
t-181 -36z" />
    <glyph glyph-name="egrave" unicode="&#xe8;" horiz-adv-x="1067" 
d="M479 -20q-131 0 -222 62t-130 180t-15 285q23 168 91.5 291t174 189.5t242.5 66.5q130 0 213 -60.5t115 -173.5t9 -271l-8 -62h-717q-15 -108 5.5 -199.5t83.5 -147t172 -55.5q105 0 187 53.5t114 148.5h117q-33 -102 -100.5 -170.5t-154.5 -102.5t-177 -34zM247 585h597
q15 103 -5 186t-78 131t-157 48q-107 0 -182 -54.5t-119 -138.5t-56 -172zM593 1155l-224 291h146l171 -291h-93z" />
    <glyph glyph-name="eacute" unicode="&#xe9;" horiz-adv-x="1067" 
d="M479 -20q-131 0 -222 62t-130 180t-15 285q23 168 91.5 291t174 189.5t242.5 66.5q130 0 213 -60.5t115 -173.5t9 -271l-8 -62h-717q-15 -108 5.5 -199.5t83.5 -147t172 -55.5q105 0 187 53.5t114 148.5h117q-33 -102 -100.5 -170.5t-154.5 -102.5t-177 -34zM247 585h597
q15 103 -5 186t-78 131t-157 48q-107 0 -182 -54.5t-119 -138.5t-56 -172zM562 1155l231 291h154l-283 -291h-102z" />
    <glyph glyph-name="ecircumflex" unicode="&#xea;" horiz-adv-x="1067" 
d="M479 -20q-131 0 -222 62t-130 180t-15 285q23 168 91.5 291t174 189.5t242.5 66.5q130 0 213 -60.5t115 -173.5t9 -271l-8 -62h-717q-15 -108 5.5 -199.5t83.5 -147t172 -55.5q105 0 187 53.5t114 148.5h117q-33 -102 -100.5 -170.5t-154.5 -102.5t-177 -34zM247 585h597
q15 103 -5 186t-78 131t-157 48q-107 0 -182 -54.5t-119 -138.5t-56 -172zM364 1155l251 205h89l201 -205h-136l-119 124l-158 -124h-128z" />
    <glyph glyph-name="edieresis" unicode="&#xeb;" horiz-adv-x="1067" 
d="M479 -20q-131 0 -222 62t-130 180t-15 285q23 168 91.5 291t174 189.5t242.5 66.5q130 0 213 -60.5t115 -173.5t9 -271l-8 -62h-717q-15 -108 5.5 -199.5t83.5 -147t172 -55.5q105 0 187 53.5t114 148.5h117q-33 -102 -100.5 -170.5t-154.5 -102.5t-177 -34zM247 585h597
q15 103 -5 186t-78 131t-157 48q-107 0 -182 -54.5t-119 -138.5t-56 -172zM730 1300l20 146h128l-20 -146h-128zM452 1300l20 146h129l-20 -146h-129z" />
    <glyph glyph-name="igrave" unicode="&#xec;" horiz-adv-x="458" 
d="M96 0l147 1034h120l-148 -1034h-119zM262 1155l-153 291h140l105 -291h-92z" />
    <glyph glyph-name="iacute" unicode="&#xed;" horiz-adv-x="458" 
d="M96 0l147 1034h120l-148 -1034h-119zM367 1155h-97l169 291h151z" />
    <glyph glyph-name="icircumflex" unicode="&#xee;" horiz-adv-x="458" 
d="M96 0l147 1034h120l-148 -1034h-119zM49 1155l251 205h89l201 -205h-136l-119 124l-158 -124h-128z" />
    <glyph glyph-name="idieresis" unicode="&#xef;" horiz-adv-x="458" 
d="M96 0l147 1034h120l-148 -1034h-119zM415 1300l20 146h128l-20 -146h-128zM137 1300l20 146h129l-20 -146h-129z" />
    <glyph glyph-name="eth" unicode="&#xf0;" horiz-adv-x="1066" 
d="M472 -20q-122 0 -205.5 54t-127 151.5t-43.5 224.5q0 101 26 212t84.5 207.5t154.5 157.5t235 61q150 0 227 -83.5t105 -228.5l-92 145q-19 138 -77.5 251t-131 200.5t-134.5 147.5h126q97 -82 177.5 -194t129 -262t48.5 -346q0 -119 -25 -241.5t-82.5 -226t-154 -167
t-240.5 -63.5zM485 85q106 0 176.5 53.5t112 137t59 177.5t17.5 174q0 156 -68 236t-195 80q-104 0 -175 -50.5t-113 -131t-61 -171.5t-19 -171q0 -145 64 -239.5t202 -94.5zM415 1160l-14 78l613 181l11 -80z" />
    <glyph glyph-name="ntilde" unicode="&#xf1;" horiz-adv-x="1084" 
d="M96 0l147 1034h112l-18 -149q31 46 80 84t113.5 60.5t142.5 22.5q95 0 165.5 -41.5t103 -125.5t14.5 -211l-96 -674h-119l95 666q20 134 -36 205t-164 71q-76 0 -145.5 -25.5t-116.5 -77t-58 -130.5l-102 -709h-118zM441 1237l-16 78q34 30 69 49.5t83 19.5q42 0 77 -13
t69.5 -26.5t75.5 -13.5q38 0 66 14t58 34l16 -88q-24 -16 -61 -34t-94 -18q-47 0 -79.5 12.5t-62.5 25t-70 12.5q-46 0 -74.5 -17t-56.5 -35z" />
    <glyph glyph-name="ograve" unicode="&#xf2;" horiz-adv-x="1062" 
d="M461 -20q-129 0 -218 59.5t-127 178t-14 295.5q22 163 86 284.5t169.5 189t247.5 67.5q129 0 216.5 -60.5t124.5 -180.5t13 -300q-21 -159 -84.5 -279t-166.5 -187t-247 -67zM477 85q94 0 169 49t125 145t68 237q17 126 -2.5 223.5t-79.5 153t-166 55.5
q-97 0 -172.5 -48.5t-125.5 -145t-69 -238.5q-17 -126 3 -223t81.5 -152.5t168.5 -55.5zM551 1155l-224 291h146l171 -291h-93z" />
    <glyph glyph-name="oacute" unicode="&#xf3;" horiz-adv-x="1062" 
d="M461 -20q-129 0 -218 59.5t-127 178t-14 295.5q22 163 86 284.5t169.5 189t247.5 67.5q129 0 216.5 -60.5t124.5 -180.5t13 -300q-21 -159 -84.5 -279t-166.5 -187t-247 -67zM477 85q94 0 169 49t125 145t68 237q17 126 -2.5 223.5t-79.5 153t-166 55.5
q-97 0 -172.5 -48.5t-125.5 -145t-69 -238.5q-17 -126 3 -223t81.5 -152.5t168.5 -55.5zM520 1155l231 291h154l-283 -291h-102z" />
    <glyph glyph-name="ocircumflex" unicode="&#xf4;" horiz-adv-x="1062" 
d="M461 -20q-129 0 -218 59.5t-127 178t-14 295.5q22 163 86 284.5t169.5 189t247.5 67.5q129 0 216.5 -60.5t124.5 -180.5t13 -300q-21 -159 -84.5 -279t-166.5 -187t-247 -67zM477 85q94 0 169 49t125 145t68 237q17 126 -2.5 223.5t-79.5 153t-166 55.5
q-97 0 -172.5 -48.5t-125.5 -145t-69 -238.5q-17 -126 3 -223t81.5 -152.5t168.5 -55.5zM322 1155l251 205h89l201 -205h-136l-119 124l-158 -124h-128z" />
    <glyph glyph-name="otilde" unicode="&#xf5;" horiz-adv-x="1062" 
d="M461 -20q-129 0 -218 59.5t-127 178t-14 295.5q22 163 86 284.5t169.5 189t247.5 67.5q129 0 216.5 -60.5t124.5 -180.5t13 -300q-21 -159 -84.5 -279t-166.5 -187t-247 -67zM477 85q94 0 169 49t125 145t68 237q17 126 -2.5 223.5t-79.5 153t-166 55.5
q-97 0 -172.5 -48.5t-125.5 -145t-69 -238.5q-17 -126 3 -223t81.5 -152.5t168.5 -55.5zM375 1237l-16 78q34 30 69 49.5t83 19.5q42 0 77 -13t69.5 -26.5t75.5 -13.5q38 0 66 14t58 34l16 -88q-24 -16 -61 -34t-94 -18q-47 0 -79.5 12.5t-62.5 25t-70 12.5q-46 0 -74.5 -17
t-56.5 -35z" />
    <glyph glyph-name="odieresis" unicode="&#xf6;" horiz-adv-x="1062" 
d="M461 -20q-129 0 -218 59.5t-127 178t-14 295.5q22 163 86 284.5t169.5 189t247.5 67.5q129 0 216.5 -60.5t124.5 -180.5t13 -300q-21 -159 -84.5 -279t-166.5 -187t-247 -67zM477 85q94 0 169 49t125 145t68 237q17 126 -2.5 223.5t-79.5 153t-166 55.5
q-97 0 -172.5 -48.5t-125.5 -145t-69 -238.5q-17 -126 3 -223t81.5 -152.5t168.5 -55.5zM688 1300l20 146h128l-20 -146h-128zM410 1300l20 146h129l-20 -146h-129z" />
    <glyph glyph-name="divide" unicode="&#xf7;" horiz-adv-x="1018" 
d="M149 673l15 105l764 1l-15 -104zM389 307l27 184h179l-25 -184h-181zM484 963l25 185h181l-27 -185h-179z" />
    <glyph glyph-name="oslash" unicode="&#xf8;" horiz-adv-x="1019" 
d="M33 -10l-63 67l1007 983l63 -66zM400 -20q-130 0 -219 59.5t-126.5 178t-14.5 295.5q22 163 86.5 284.5t169.5 189t247 67.5q129 0 216.5 -60.5t124.5 -180.5t13 -300q-21 -159 -84.5 -279t-166.5 -187t-246 -67zM415 85q94 0 169 49t125 145t69 237q16 126 -3.5 223.5
t-79.5 153t-166 55.5q-96 0 -172 -48.5t-126 -145t-69 -238.5q-17 -126 3 -223t81.5 -152.5t168.5 -55.5z" />
    <glyph glyph-name="ugrave" unicode="&#xf9;" horiz-adv-x="1096" 
d="M448 -20q-80 1 -145 23.5t-109 67t-62.5 112t-5.5 157.5l96 694h121l-97 -686q-17 -117 39.5 -189.5t192.5 -72.5q122 0 205.5 68t102.5 208l95 672h119l-145 -1034h-100l16 193q-27 -70 -74.5 -117.5t-110.5 -72t-138 -23.5zM588 1155l-224 291h146l171 -291h-93z" />
    <glyph glyph-name="uacute" unicode="&#xfa;" horiz-adv-x="1096" 
d="M448 -20q-80 1 -145 23.5t-109 67t-62.5 112t-5.5 157.5l96 694h121l-97 -686q-17 -117 39.5 -189.5t192.5 -72.5q122 0 205.5 68t102.5 208l95 672h119l-145 -1034h-100l16 193q-27 -70 -74.5 -117.5t-110.5 -72t-138 -23.5zM557 1155l231 291h154l-283 -291h-102z" />
    <glyph glyph-name="ucircumflex" unicode="&#xfb;" horiz-adv-x="1096" 
d="M448 -20q-80 1 -145 23.5t-109 67t-62.5 112t-5.5 157.5l96 694h121l-97 -686q-17 -117 39.5 -189.5t192.5 -72.5q122 0 205.5 68t102.5 208l95 672h119l-145 -1034h-100l16 193q-27 -70 -74.5 -117.5t-110.5 -72t-138 -23.5zM358 1155l251 205h89l201 -205h-136
l-119 124l-158 -124h-128z" />
    <glyph glyph-name="udieresis" unicode="&#xfc;" horiz-adv-x="1096" 
d="M448 -20q-80 1 -145 23.5t-109 67t-62.5 112t-5.5 157.5l96 694h121l-97 -686q-17 -117 39.5 -189.5t192.5 -72.5q122 0 205.5 68t102.5 208l95 672h119l-145 -1034h-100l16 193q-27 -70 -74.5 -117.5t-110.5 -72t-138 -23.5zM725 1300l20 146h128l-20 -146h-128z
M447 1300l20 146h129l-20 -146h-129z" />
    <glyph glyph-name="yacute" unicode="&#xfd;" horiz-adv-x="978" 
d="M106 -330q-76 0 -102 10l-26 10l13 83l101 -1q65 -1 106 16.5t66 45.5t41 60l59 120l-232 1020h123l190 -868l431 868h116l-577 -1152q-42 -80 -90 -126.5t-102.5 -66t-116.5 -19.5zM509 1155l231 291h154l-283 -291h-102z" />
    <glyph glyph-name="thorn" unicode="&#xfe;" horiz-adv-x="1106" 
d="M51 -322l251 1768h117l-78 -561q21 23 62.5 63.5t108.5 73t162 32.5q114 0 197.5 -57.5t121 -173t13.5 -289.5q-23 -171 -94 -295t-176 -191.5t-233 -67.5q-89 0 -150 30.5t-99 67.5q-13 15 -19 11.5t-10 -24.5l-54 -387h-120zM492 78q96 0 177 52.5t137 153t77 245.5
q20 148 -10.5 242t-96 138.5t-149.5 44.5q-81 0 -148.5 -38.5t-110.5 -95t-52 -110.5l-68 -494q50 -62 108.5 -100t135.5 -38z" />
    <glyph glyph-name="ydieresis" unicode="&#xff;" horiz-adv-x="978" 
d="M106 -330q-76 0 -102 10l-26 10l13 83l101 -1q65 -1 106 16.5t66 45.5t41 60l59 120l-232 1020h123l190 -868l431 868h116l-577 -1152q-42 -80 -90 -126.5t-102.5 -66t-116.5 -19.5zM678 1300l20 146h128l-20 -146h-128zM400 1300l20 146h129l-20 -146h-129z" />
    <glyph glyph-name="Amacron" unicode="&#x100;" horiz-adv-x="1330" 
d="M29 0l696 1446h146l283 -1446h-124l-83 430h-586l-208 -430h-124zM413 553h516l-147 766zM579 1664l14 99h504l-14 -99h-504z" />
    <glyph glyph-name="amacron" unicode="&#x101;" horiz-adv-x="1076" 
d="M351 -20q-95 0 -160.5 35t-95 100t-17.5 156q24 173 144 254.5t364 89.5l199 7l14 91q15 114 -45.5 176.5t-172.5 62.5q-94 -1 -173 -51.5t-109 -149.5h-113q16 80 71 149.5t142.5 111.5t201.5 42q113 0 188.5 -41t108 -116t17.5 -179l-102 -718h-104l19 195
q-78 -126 -175.5 -170.5t-201.5 -44.5zM394 80q55 0 113 21.5t109.5 58.5t86 82.5t41.5 93.5l27 192l-165 -4q-134 -2 -219.5 -27.5t-130.5 -78t-58 -136.5q-12 -95 42 -148.5t154 -53.5zM382 1252l14 99h504l-14 -99h-504z" />
    <glyph glyph-name="Abreve" unicode="&#x102;" horiz-adv-x="1330" 
d="M29 0l696 1446h146l283 -1446h-124l-83 430h-586l-208 -430h-124zM413 553h516l-147 766zM811 1567q-73 0 -122 28.5t-74.5 73t-30.5 93.5h106q7 -17 20.5 -41t40.5 -42t74 -18q64 0 104.5 35t63.5 66h108q-18 -44 -58 -89t-98.5 -75.5t-133.5 -30.5z" />
    <glyph glyph-name="abreve" unicode="&#x103;" horiz-adv-x="1076" 
d="M351 -20q-95 0 -160.5 35t-95 100t-17.5 156q24 173 144 254.5t364 89.5l199 7l14 91q15 114 -45.5 176.5t-172.5 62.5q-94 -1 -173 -51.5t-109 -149.5h-113q16 80 71 149.5t142.5 111.5t201.5 42q113 0 188.5 -41t108 -116t17.5 -179l-102 -718h-104l19 195
q-78 -126 -175.5 -170.5t-201.5 -44.5zM394 80q55 0 113 21.5t109.5 58.5t86 82.5t41.5 93.5l27 192l-165 -4q-134 -2 -219.5 -27.5t-130.5 -78t-58 -136.5q-12 -95 42 -148.5t154 -53.5zM613 1152q-73 0 -122 28.5t-74.5 73t-30.5 93.5h106q7 -17 20.5 -41t40.5 -42t74 -18
q64 0 104.5 35t63.5 66h108q-18 -44 -58 -89t-98.5 -75.5t-133.5 -30.5z" />
    <glyph glyph-name="Aogonek" unicode="&#x104;" horiz-adv-x="1330" 
d="M29 0l696 1446h146l283 -1446h-124l-83 430h-586l-208 -430h-124zM413 553h516l-147 766zM984 -332q-89 0 -126 43t-27 112q8 63 57 111t166 84l91 -15q-99 -43 -148.5 -82.5t-58.5 -92.5q-4 -39 15 -58.5t70 -19.5q47 0 84.5 11.5t54.5 21.5l-13 -78q-23 -13 -68.5 -25
t-96.5 -12z" />
    <glyph glyph-name="aogonek" unicode="&#x105;" horiz-adv-x="1037" 
d="M351 -20q-95 0 -160.5 35t-95 100t-17.5 156q24 173 144 254.5t364 89.5l199 7l14 91q15 114 -45.5 176.5t-172.5 62.5q-94 -1 -173 -51.5t-109 -149.5h-113q16 80 71 149.5t142.5 111.5t201.5 42q113 0 188.5 -41t108 -116t17.5 -179l-102 -718h-104l19 195
q-78 -126 -175.5 -170.5t-201.5 -44.5zM394 80q55 0 113 21.5t109.5 58.5t86 82.5t41.5 93.5l27 192l-165 -4q-134 -2 -219.5 -27.5t-130.5 -78t-58 -136.5q-12 -95 42 -148.5t154 -53.5zM650 -327q-89 0 -126 43t-27 112q8 63 57 111t166 84l91 -15q-99 -43 -148.5 -82.5
t-58.5 -92.5q-4 -39 15 -58.5t70 -19.5q47 0 84.5 11.5t54.5 21.5l-13 -78q-23 -13 -68.5 -25t-96.5 -12z" />
    <glyph glyph-name="Cacute" unicode="&#x106;" horiz-adv-x="1287" 
d="M604 -20q-175 0 -286 82.5t-154.5 243t-16.5 395.5q20 180 72 322t134.5 240.5t195 150.5t253.5 52q137 0 234.5 -61.5t148 -163.5t48.5 -222h-130q-5 90 -41 165t-104.5 120t-174.5 45q-109 0 -195 -43.5t-148.5 -126.5t-102.5 -204t-58 -277q-37 -306 48.5 -453.5
t290.5 -147.5q105 0 185.5 45.5t136.5 121.5t85 166h130q-21 -86 -68.5 -167t-118.5 -144.5t-162.5 -101t-201.5 -37.5zM743 1567l231 291h154l-283 -291h-102z" />
    <glyph glyph-name="cacute" unicode="&#x107;" horiz-adv-x="1026" 
d="M459 -20q-128 0 -217 59t-127 177.5t-13 297.5q23 161 89 283t172 189.5t249 67.5q96 0 170.5 -37t118 -108t45.5 -175h-114q-1 63 -29.5 110.5t-80.5 74.5t-124 27q-140 0 -243 -106t-134 -326q-27 -194 35 -312.5t220 -118.5q72 0 132 27.5t102.5 75.5t60.5 109h112
q-30 -102 -94 -172.5t-149 -106.5t-181 -36zM549 1155l231 291h154l-283 -291h-102z" />
    <glyph glyph-name="Ccircumflex" unicode="&#x108;" horiz-adv-x="1287" 
d="M604 -20q-175 0 -286 82.5t-154.5 243t-16.5 395.5q20 180 72 322t134.5 240.5t195 150.5t253.5 52q137 0 234.5 -61.5t148 -163.5t48.5 -222h-130q-5 90 -41 165t-104.5 120t-174.5 45q-109 0 -195 -43.5t-148.5 -126.5t-102.5 -204t-58 -277q-37 -306 48.5 -453.5
t290.5 -147.5q105 0 185.5 45.5t136.5 121.5t85 166h130q-21 -86 -68.5 -167t-118.5 -144.5t-162.5 -101t-201.5 -37.5zM545 1567l251 205h89l201 -205h-136l-119 124l-158 -124h-128z" />
    <glyph glyph-name="ccircumflex" unicode="&#x109;" horiz-adv-x="1029" 
d="M459 -20q-128 0 -217 59t-127 177.5t-13 297.5q23 161 89 283t172 189.5t249 67.5q96 0 170.5 -37t118 -108t45.5 -175h-114q-1 63 -29.5 110.5t-80.5 74.5t-124 27q-140 0 -243 -106t-134 -326q-27 -194 35 -312.5t220 -118.5q72 0 132 27.5t102.5 75.5t60.5 109h112
q-30 -102 -94 -172.5t-149 -106.5t-181 -36zM354 1155l251 205h89l201 -205h-136l-119 124l-158 -124h-128z" />
    <glyph glyph-name="Cdotaccent" unicode="&#x10a;" horiz-adv-x="1287" 
d="M604 -20q-175 0 -286 82.5t-154.5 243t-16.5 395.5q20 180 72 322t134.5 240.5t195 150.5t253.5 52q137 0 234.5 -61.5t148 -163.5t48.5 -222h-130q-5 90 -41 165t-104.5 120t-174.5 45q-109 0 -195 -43.5t-148.5 -126.5t-102.5 -204t-58 -277q-37 -306 48.5 -453.5
t290.5 -147.5q105 0 185.5 45.5t136.5 121.5t85 166h130q-21 -86 -68.5 -167t-118.5 -144.5t-162.5 -101t-201.5 -37.5zM773 1712l20 146h129l-20 -146h-129z" />
    <glyph glyph-name="cdotaccent" unicode="&#x10b;" horiz-adv-x="1029" 
d="M459 -20q-128 0 -217 59t-127 177.5t-13 297.5q23 161 89 283t172 189.5t249 67.5q96 0 170.5 -37t118 -108t45.5 -175h-114q-1 63 -29.5 110.5t-80.5 74.5t-124 27q-140 0 -243 -106t-134 -326q-27 -194 35 -312.5t220 -118.5q72 0 132 27.5t102.5 75.5t60.5 109h112
q-30 -102 -94 -172.5t-149 -106.5t-181 -36zM581 1300l20 146h129l-20 -146h-129z" />
    <glyph glyph-name="Ccaron" unicode="&#x10c;" horiz-adv-x="1287" 
d="M604 -20q-175 0 -286 82.5t-154.5 243t-16.5 395.5q20 180 72 322t134.5 240.5t195 150.5t253.5 52q137 0 234.5 -61.5t148 -163.5t48.5 -222h-130q-5 90 -41 165t-104.5 120t-174.5 45q-109 0 -195 -43.5t-148.5 -126.5t-102.5 -204t-58 -277q-37 -306 48.5 -453.5
t290.5 -147.5q105 0 185.5 45.5t136.5 121.5t85 166h130q-21 -86 -68.5 -167t-118.5 -144.5t-162.5 -101t-201.5 -37.5zM771 1566l-200 206h130l125 -127l153 127h135l-252 -206h-91z" />
    <glyph glyph-name="ccaron" unicode="&#x10d;" horiz-adv-x="1029" 
d="M459 -20q-128 0 -217 59t-127 177.5t-13 297.5q23 161 89 283t172 189.5t249 67.5q96 0 170.5 -37t118 -108t45.5 -175h-114q-1 63 -29.5 110.5t-80.5 74.5t-124 27q-140 0 -243 -106t-134 -326q-27 -194 35 -312.5t220 -118.5q72 0 132 27.5t102.5 75.5t60.5 109h112
q-30 -102 -94 -172.5t-149 -106.5t-181 -36zM580 1154l-200 206h130l125 -127l153 127h135l-252 -206h-91z" />
    <glyph glyph-name="Dcaron" unicode="&#x10e;" horiz-adv-x="1299" 
d="M137 0l202 1446q4 0 69.5 -1t144.5 -1q132 -1 238 -19.5t186 -58.5t134 -102.5t81.5 -151t27.5 -205.5q0 -116 -17.5 -228t-56.5 -213.5t-102.5 -186.5t-156 -147.5t-217.5 -97t-286 -34.5h-247zM279 116h112q192 0 326 58t217.5 163t121.5 247.5t38 311.5
q0 166 -60.5 260.5t-176 134t-279.5 39.5h-128zM842 1566l-200 206h130l125 -127l153 127h135l-252 -206h-91z" />
    <glyph glyph-name="dcaron" unicode="&#x10f;" horiz-adv-x="1096" 
d="M439 -20q-186 0 -278.5 135t-57.5 406q32 240 150.5 386.5t320.5 146.5q79 0 134.5 -22.5t91 -55t55 -65.5t25.5 -54l83 629h121l-196 -1486h-97l16 212q-10 -23 -34.5 -61.5t-67.5 -78t-108 -66t-158 -26.5zM468 84q170 0 254 106t115 342q16 129 -2 222.5t-77.5 143.5
t-171.5 50q-135 0 -232.5 -101t-124.5 -315q-27 -206 31.5 -327t207.5 -121zM1121 1125l92 174l-40 9l24 178h119l-26 -187l-95 -174h-74z" />
    <glyph glyph-name="Dcroat" unicode="&#x110;" horiz-adv-x="1348" 
d="M102 671l6 110h636l-6 -110h-636zM185 0l203 1446q4 0 69 -1t145 -1q131 -1 237 -19.5t186 -58.5t134 -102.5t81.5 -151t27.5 -205.5q0 -116 -17 -228t-56 -213.5t-103 -186.5t-156.5 -147.5t-217 -97t-286.5 -34.5h-247zM327 116h112q192 0 326.5 58t217.5 163
t121 247.5t38 311.5q0 166 -60.5 260.5t-176 134t-279.5 39.5h-127z" />
    <glyph glyph-name="dcroat" unicode="&#x111;" horiz-adv-x="1122" 
d="M573 1208l4 90h586l-4 -90h-586zM439 -20q-186 0 -278.5 135t-57.5 406q32 240 150.5 386.5t320.5 146.5q79 0 134.5 -22.5t91 -55t55 -65.5t25.5 -54l83 629h121l-196 -1486h-97l16 212q-10 -23 -34.5 -61.5t-67.5 -78t-108 -66t-158 -26.5zM468 84q170 0 254 106
t115 342q16 129 -2 222.5t-77.5 143.5t-171.5 50q-135 0 -232.5 -101t-124.5 -315q-27 -206 31.5 -327t207.5 -121z" />
    <glyph glyph-name="Emacron" unicode="&#x112;" horiz-adv-x="1173" 
d="M134 0l207 1446h808l-17 -116h-689l-77 -541h631l-15 -117h-632l-79 -552l712 -2l-18 -118h-831zM507 1664l14 99h504l-14 -99h-504z" />
    <glyph glyph-name="emacron" unicode="&#x113;" horiz-adv-x="1067" 
d="M479 -20q-131 0 -222 62t-130 180t-15 285q23 168 91.5 291t174 189.5t242.5 66.5q130 0 213 -60.5t115 -173.5t9 -271l-8 -62h-717q-15 -108 5.5 -199.5t83.5 -147t172 -55.5q105 0 187 53.5t114 148.5h117q-33 -102 -100.5 -170.5t-154.5 -102.5t-177 -34zM247 585h597
q15 103 -5 186t-78 131t-157 48q-107 0 -182 -54.5t-119 -138.5t-56 -172zM399 1252l14 99h504l-14 -99h-504z" />
    <glyph glyph-name="Ebreve" unicode="&#x114;" horiz-adv-x="1173" 
d="M134 0l207 1446h808l-17 -116h-689l-77 -541h631l-15 -117h-632l-79 -552l712 -2l-18 -118h-831zM739 1567q-73 0 -122 28.5t-74.5 73t-30.5 93.5h106q7 -17 20.5 -41t40.5 -42t74 -18q64 0 104.5 35t63.5 66h108q-18 -44 -58 -89t-98.5 -75.5t-133.5 -30.5z" />
    <glyph glyph-name="ebreve" unicode="&#x115;" horiz-adv-x="1067" 
d="M479 -20q-131 0 -222 62t-130 180t-15 285q23 168 91.5 291t174 189.5t242.5 66.5q130 0 213 -60.5t115 -173.5t9 -271l-8 -62h-717q-15 -108 5.5 -199.5t83.5 -147t172 -55.5q105 0 187 53.5t114 148.5h117q-33 -102 -100.5 -170.5t-154.5 -102.5t-177 -34zM247 585h597
q15 103 -5 186t-78 131t-157 48q-107 0 -182 -54.5t-119 -138.5t-56 -172zM630 1155q-73 0 -122 28.5t-74.5 73t-30.5 93.5h106q7 -17 20.5 -41t40.5 -42t74 -18q64 0 104.5 35t63.5 66h108q-18 -44 -58 -89t-98.5 -75.5t-133.5 -30.5z" />
    <glyph glyph-name="Edotaccent" unicode="&#x116;" horiz-adv-x="1173" 
d="M134 0l207 1446h808l-17 -116h-689l-77 -541h631l-15 -117h-632l-79 -552l712 -2l-18 -118h-831zM700 1712l20 146h129l-20 -146h-129z" />
    <glyph glyph-name="edotaccent" unicode="&#x117;" horiz-adv-x="1067" 
d="M479 -20q-131 0 -222 62t-130 180t-15 285q23 168 91.5 291t174 189.5t242.5 66.5q130 0 213 -60.5t115 -173.5t9 -271l-8 -62h-717q-15 -108 5.5 -199.5t83.5 -147t172 -55.5q105 0 187 53.5t114 148.5h117q-33 -102 -100.5 -170.5t-154.5 -102.5t-177 -34zM247 585h597
q15 103 -5 186t-78 131t-157 48q-107 0 -182 -54.5t-119 -138.5t-56 -172zM591 1300l20 146h129l-20 -146h-129z" />
    <glyph glyph-name="Eogonek" unicode="&#x118;" horiz-adv-x="1173" 
d="M134 0l207 1446h808l-17 -116h-689l-77 -541h631l-15 -117h-632l-79 -552l712 -2l-18 -118h-831zM805 -333q-89 0 -126 43t-27 112q8 63 57 111t166 84l91 -15q-99 -43 -148.5 -82.5t-58.5 -92.5q-4 -39 15 -58.5t70 -19.5q47 0 84.5 11.5t54.5 21.5l-13 -78
q-23 -13 -68.5 -25t-96.5 -12z" />
    <glyph glyph-name="eogonek" unicode="&#x119;" horiz-adv-x="1067" 
d="M620 1054q130 0 212.5 -60.5t114 -173t10.5 -271.5l-8 -62h-717q-15 -108 5.5 -199.5t83.5 -147t172 -55.5q105 0 187 53.5t114 148.5h117q-32 -99 -95.5 -165t-145.5 -103q-92 -40 -142 -80.5t-59 -94.5q-4 -38 15.5 -58t69.5 -20q47 0 84.5 12t54.5 21l-12 -77
q-24 -13 -69.5 -25t-96.5 -12q-89 0 -126 42.5t-27 112.5q6 41 37 79.5t63 61.5q-126 4 -213 67t-124 179.5t-13 279.5q23 168 91.5 291t174 189.5t242.5 66.5zM247 585h597q15 103 -5 186t-78 131t-157 48q-107 0 -182 -54.5t-119 -138.5t-56 -172z" />
    <glyph glyph-name="Ecaron" unicode="&#x11a;" horiz-adv-x="1173" 
d="M134 0l207 1446h808l-17 -116h-689l-77 -541h631l-15 -117h-632l-79 -552l712 -2l-18 -118h-831zM699 1566l-200 206h130l125 -127l153 127h135l-252 -206h-91z" />
    <glyph glyph-name="ecaron" unicode="&#x11b;" horiz-adv-x="1063" 
d="M479 -20q-131 0 -222 62t-130 180t-15 285q23 168 91.5 291t174 189.5t242.5 66.5q130 0 213 -60.5t115 -173.5t9 -271l-8 -62h-717q-15 -108 5.5 -199.5t83.5 -147t172 -55.5q105 0 187 53.5t114 148.5h117q-33 -102 -100.5 -170.5t-154.5 -102.5t-177 -34zM247 585h597
q15 103 -5 186t-78 131t-157 48q-107 0 -182 -54.5t-119 -138.5t-56 -172zM589 1154l-200 206h130l125 -127l153 127h135l-252 -206h-91z" />
    <glyph glyph-name="Gcircumflex" unicode="&#x11c;" horiz-adv-x="1372" 
d="M599 -20q-174 0 -286.5 85.5t-155.5 250t-9 404.5q34 238 125 405t229 254t312 87q125 0 222.5 -63t152.5 -165t47 -219h-130q-1 86 -40 161.5t-108.5 121.5t-162.5 46q-130 0 -236.5 -68.5t-179 -207t-103.5 -350.5q-23 -162 -9 -280t61 -194.5t121.5 -113.5t171.5 -37
t174.5 37.5t133 97.5t89 128.5t43.5 130.5l24 151h-356l15 99l478 -1l-105 -740h-100l34 238q-47 -70 -112 -128.5t-149.5 -94t-190.5 -35.5zM543 1567l251 205h89l201 -205h-136l-119 124l-158 -124h-128z" />
    <glyph glyph-name="gcircumflex" unicode="&#x11d;" horiz-adv-x="1166" 
d="M437 -342q-213 0 -327.5 72t-96.5 213q8 58 36.5 98.5t65 69t67 46t42.5 26.5q-15 11 -34 25t-31.5 36.5t-7.5 57.5q5 44 49 81t126 58q-74 45 -111 118.5t-25 165.5q13 97 67 170.5t148 114t227 40.5q93 0 154.5 -24t109.5 -71q14 7 47 21t73 30.5t74 31t49 20.5
l-18 -141l-177 -39q28 -75 18 -160q-12 -91 -63.5 -162.5t-142 -112t-219.5 -40.5h-19.5t-18.5 1q-125 -3 -174.5 -28t-53.5 -55q-3 -31 37 -45.5t145 -22.5q39 -3 93 -6t120 -8q138 -8 209.5 -77.5t54.5 -196.5q-18 -137 -140 -222t-353 -85zM467 -248q146 0 237.5 51.5
t104.5 156.5q9 69 -31.5 113.5t-137.5 51.5l-296 20q-32 2 -78.5 -22t-84.5 -68.5t-47 -102.5q-11 -91 69.5 -145.5t263.5 -54.5zM548 496q121 0 202 57t96 173q16 117 -49 175t-183 58q-123 0 -206 -60.5t-99 -179.5q-14 -108 48 -165.5t191 -57.5zM357 1155l251 205h89
l201 -205h-136l-119 124l-158 -124h-128z" />
    <glyph glyph-name="Gbreve" unicode="&#x11e;" horiz-adv-x="1372" 
d="M599 -20q-174 0 -286.5 85.5t-155.5 250t-9 404.5q34 238 125 405t229 254t312 87q125 0 222.5 -63t152.5 -165t47 -219h-130q-1 86 -40 161.5t-108.5 121.5t-162.5 46q-130 0 -236.5 -68.5t-179 -207t-103.5 -350.5q-23 -162 -9 -280t61 -194.5t121.5 -113.5t171.5 -37
t174.5 37.5t133 97.5t89 128.5t43.5 130.5l24 151h-356l15 99l478 -1l-105 -740h-100l34 238q-47 -70 -112 -128.5t-149.5 -94t-190.5 -35.5zM810 1567q-73 0 -122 28.5t-74.5 73t-30.5 93.5h106q7 -17 20.5 -41t40.5 -42t74 -18q64 0 104.5 35t63.5 66h108q-18 -44 -58 -89
t-98.5 -75.5t-133.5 -30.5z" />
    <glyph glyph-name="gbreve" unicode="&#x11f;" horiz-adv-x="1166" 
d="M437 -342q-213 0 -327.5 72t-96.5 213q8 58 36.5 98.5t65 69t67 46t42.5 26.5q-15 11 -34 25t-31.5 36.5t-7.5 57.5q5 44 49 81t126 58q-74 45 -111 118.5t-25 165.5q13 97 67 170.5t148 114t227 40.5q93 0 154.5 -24t109.5 -71q14 7 47 21t73 30.5t74 31t49 20.5
l-18 -141l-177 -39q28 -75 18 -160q-12 -91 -63.5 -162.5t-142 -112t-219.5 -40.5h-19.5t-18.5 1q-125 -3 -174.5 -28t-53.5 -55q-3 -31 37 -45.5t145 -22.5q39 -3 93 -6t120 -8q138 -8 209.5 -77.5t54.5 -196.5q-18 -137 -140 -222t-353 -85zM467 -248q146 0 237.5 51.5
t104.5 156.5q9 69 -31.5 113.5t-137.5 51.5l-296 20q-32 2 -78.5 -22t-84.5 -68.5t-47 -102.5q-11 -91 69.5 -145.5t263.5 -54.5zM548 496q121 0 202 57t96 173q16 117 -49 175t-183 58q-123 0 -206 -60.5t-99 -179.5q-14 -108 48 -165.5t191 -57.5zM624 1155
q-73 0 -122 28.5t-74.5 73t-30.5 93.5h106q7 -17 20.5 -41t40.5 -42t74 -18q64 0 104.5 35t63.5 66h108q-18 -44 -58 -89t-98.5 -75.5t-133.5 -30.5z" />
    <glyph glyph-name="Gdotaccent" unicode="&#x120;" horiz-adv-x="1372" 
d="M599 -20q-174 0 -286.5 85.5t-155.5 250t-9 404.5q34 238 125 405t229 254t312 87q125 0 222.5 -63t152.5 -165t47 -219h-130q-1 86 -40 161.5t-108.5 121.5t-162.5 46q-130 0 -236.5 -68.5t-179 -207t-103.5 -350.5q-23 -162 -9 -280t61 -194.5t121.5 -113.5t171.5 -37
t174.5 37.5t133 97.5t89 128.5t43.5 130.5l24 151h-356l15 99l478 -1l-105 -740h-100l34 238q-47 -70 -112 -128.5t-149.5 -94t-190.5 -35.5zM771 1712l20 146h129l-20 -146h-129z" />
    <glyph glyph-name="gdotaccent" unicode="&#x121;" horiz-adv-x="1166" 
d="M437 -342q-213 0 -327.5 72t-96.5 213q8 58 36.5 98.5t65 69t67 46t42.5 26.5q-15 11 -34 25t-31.5 36.5t-7.5 57.5q5 44 49 81t126 58q-74 45 -111 118.5t-25 165.5q13 97 67 170.5t148 114t227 40.5q93 0 154.5 -24t109.5 -71q14 7 47 21t73 30.5t74 31t49 20.5
l-18 -141l-177 -39q28 -75 18 -160q-12 -91 -63.5 -162.5t-142 -112t-219.5 -40.5h-19.5t-18.5 1q-125 -3 -174.5 -28t-53.5 -55q-3 -31 37 -45.5t145 -22.5q39 -3 93 -6t120 -8q138 -8 209.5 -77.5t54.5 -196.5q-18 -137 -140 -222t-353 -85zM467 -248q146 0 237.5 51.5
t104.5 156.5q9 69 -31.5 113.5t-137.5 51.5l-296 20q-32 2 -78.5 -22t-84.5 -68.5t-47 -102.5q-11 -91 69.5 -145.5t263.5 -54.5zM548 496q121 0 202 57t96 173q16 117 -49 175t-183 58q-123 0 -206 -60.5t-99 -179.5q-14 -108 48 -165.5t191 -57.5zM585 1300l20 146h129
l-20 -146h-129z" />
    <glyph glyph-name="uni0122" unicode="&#x122;" horiz-adv-x="1372" 
d="M599 -20q-174 0 -286.5 85.5t-155.5 250t-9 404.5q34 238 125 405t229 254t312 87q125 0 222.5 -63t152.5 -165t47 -219h-130q-1 86 -40 161.5t-108.5 121.5t-162.5 46q-130 0 -236.5 -68.5t-179 -207t-103.5 -350.5q-23 -162 -9 -280t61 -194.5t121.5 -113.5t171.5 -37
t174.5 37.5t133 97.5t89 128.5t43.5 130.5l24 151h-356l15 99l478 -1l-105 -740h-100l34 238q-47 -70 -112 -128.5t-149.5 -94t-190.5 -35.5zM445 -346l86 110l-49 2l19 135h145l-17 -114l-127 -133h-57z" />
    <glyph glyph-name="uni0123" unicode="&#x123;" horiz-adv-x="1166" 
d="M437 -342q-213 0 -327.5 72t-96.5 213q8 58 36.5 98.5t65 69t67 46t42.5 26.5q-15 11 -34 25t-31.5 36.5t-7.5 57.5q5 44 49 81t126 58q-74 45 -111 118.5t-25 165.5q13 97 67 170.5t148 114t227 40.5q93 0 154.5 -24t109.5 -71q14 7 47 21t73 30.5t74 31t49 20.5
l-18 -141l-177 -39q28 -75 18 -160q-12 -91 -63.5 -162.5t-142 -112t-219.5 -40.5h-19.5t-18.5 1q-125 -3 -174.5 -28t-53.5 -55q-3 -31 37 -45.5t145 -22.5q39 -3 93 -6t120 -8q138 -8 209.5 -77.5t54.5 -196.5q-18 -137 -140 -222t-353 -85zM467 -248q146 0 237.5 51.5
t104.5 156.5q9 69 -31.5 113.5t-137.5 51.5l-296 20q-32 2 -78.5 -22t-84.5 -68.5t-47 -102.5q-11 -91 69.5 -145.5t263.5 -54.5zM548 496q121 0 202 57t96 173q16 117 -49 175t-183 58q-123 0 -206 -60.5t-99 -179.5q-14 -108 48 -165.5t191 -57.5zM558 1155l25 177l98 136
h73l-96 -145h58l-25 -168h-133z" />
    <glyph glyph-name="Hcircumflex" unicode="&#x124;" horiz-adv-x="1459" 
d="M135 0l203 1446h120l-90 -636h806l89 636h119l-203 -1446h-119l97 692h-805l-97 -692h-120zM614 1567l251 205h89l201 -205h-136l-119 124l-158 -124h-128z" />
    <glyph glyph-name="hcircumflex" unicode="&#x125;" horiz-adv-x="1100" 
d="M109 0l198 1486h115l-80 -602q46 70 132.5 118.5t204.5 48.5q95 0 166.5 -37.5t107.5 -104t24 -154.5l-100 -755h-121l97 722q14 104 -44.5 162t-168.5 58q-77 0 -145.5 -25.5t-115 -77.5t-56.5 -131l-95 -708h-119zM121 1567l251 205h89l201 -205h-136l-119 124
l-158 -124h-128z" />
    <glyph glyph-name="Hbar" unicode="&#x126;" horiz-adv-x="1519" 
d="M108 1121l15 97h1472l-15 -97h-1472zM180 0l203 1446h120l-90 -636h806l89 636h119l-203 -1446h-120l98 692h-805l-98 -692h-119z" />
    <glyph glyph-name="hbar" unicode="&#x127;" horiz-adv-x="1200" 
d="M139 1208l11 90h588l-11 -90h-588zM209 0l198 1486h115l-80 -602q46 70 132.5 118.5t204.5 48.5q95 0 166.5 -37.5t107.5 -104t24 -154.5l-100 -755h-121l97 722q14 104 -44.5 162t-168.5 58q-77 0 -145.5 -25.5t-115 -77.5t-56.5 -131l-95 -708h-119z" />
    <glyph glyph-name="Itilde" unicode="&#x128;" horiz-adv-x="538" 
d="M136 0l204 1446h120l-204 -1446h-120zM201 1649l-16 78q34 30 69 49.5t83 19.5q42 0 77 -13t69.5 -26.5t75.5 -13.5q38 0 66 14t58 34l16 -88q-24 -16 -61 -34t-94 -18q-47 0 -79.5 12.5t-62.5 25t-70 12.5q-46 0 -74.5 -17t-56.5 -35z" />
    <glyph glyph-name="itilde" unicode="&#x129;" horiz-adv-x="458" 
d="M96 0l147 1034h120l-148 -1034h-119zM102 1237l-16 78q34 30 69 49.5t83 19.5q42 0 77 -13t69.5 -26.5t75.5 -13.5q38 0 66 14t58 34l16 -88q-24 -16 -61 -34t-94 -18q-47 0 -79.5 12.5t-62.5 25t-70 12.5q-46 0 -74.5 -17t-56.5 -35z" />
    <glyph glyph-name="Imacron" unicode="&#x12a;" horiz-adv-x="538" 
d="M136 0l204 1446h120l-204 -1446h-120zM183 1664l14 99h504l-14 -99h-504z" />
    <glyph glyph-name="imacron" unicode="&#x12b;" horiz-adv-x="458" 
d="M96 0l147 1034h120l-148 -1034h-119zM83 1252l14 99h504l-14 -99h-504z" />
    <glyph glyph-name="Ibreve" unicode="&#x12c;" horiz-adv-x="538" 
d="M136 0l204 1446h120l-204 -1446h-120zM415 1567q-73 0 -122 28.5t-74.5 73t-30.5 93.5h106q7 -17 20.5 -41t40.5 -42t74 -18q64 0 104.5 35t63.5 66h108q-18 -44 -58 -89t-98.5 -75.5t-133.5 -30.5z" />
    <glyph glyph-name="ibreve" unicode="&#x12d;" horiz-adv-x="458" 
d="M96 0l147 1034h120l-148 -1034h-119zM315 1155q-73 0 -122 28.5t-74.5 73t-30.5 93.5h106q7 -17 20.5 -41t40.5 -42t74 -18q64 0 104.5 35t63.5 66h108q-18 -44 -58 -89t-98.5 -75.5t-133.5 -30.5z" />
    <glyph glyph-name="Iogonek" unicode="&#x12e;" horiz-adv-x="538" 
d="M136 0l204 1446h120l-204 -1446h-120zM94 -335q-89 0 -126 43t-27 112q8 63 57 111t166 84l91 -15q-99 -43 -148.5 -82.5t-58.5 -92.5q-4 -39 15 -58.5t70 -19.5q47 0 84.5 11.5t54.5 21.5l-13 -78q-23 -13 -68.5 -25t-96.5 -12z" />
    <glyph glyph-name="iogonek" unicode="&#x12f;" horiz-adv-x="467" 
d="M102 0l146 1034h117l-145 -1034h-118zM278 1295l21 151h130l-20 -151h-131zM51 -329q-89 0 -126 43t-27 112q8 63 57 111t166 84l91 -15q-99 -43 -148.5 -82.5t-58.5 -92.5q-4 -39 15 -58.5t70 -19.5q47 0 84.5 11.5t54.5 21.5l-13 -78q-23 -13 -68.5 -25t-96.5 -12z" />
    <glyph glyph-name="Idotaccent" unicode="&#x130;" horiz-adv-x="538" 
d="M136 0l204 1446h120l-204 -1446h-120zM376 1712l20 146h129l-20 -146h-129z" />
    <glyph glyph-name="dotlessi" unicode="&#x131;" horiz-adv-x="458" 
d="M96 0l147 1034h120l-148 -1034h-119z" />
    <glyph glyph-name="Jcircumflex" unicode="&#x134;" horiz-adv-x="735" 
d="M238 -20q-76 0 -133 21.5t-71 30.5l34 126q28 -13 64.5 -33.5t100.5 -20.5q89 0 131.5 54.5t60.5 187.5l157 1100h118l-162 -1139q-14 -102 -46.5 -175.5t-93.5 -112.5t-160 -39zM385 1567l251 205h89l201 -205h-136l-119 124l-158 -124h-128z" />
    <glyph glyph-name="jcircumflex" unicode="&#x135;" horiz-adv-x="451" 
d="M-52 -332q-81 0 -100.5 5t-18.5 15l13 84l107 3q69 3 103 38t46 119l157 1102h119l-158 -1111q-18 -130 -76 -192.5t-192 -62.5zM52 1155l251 205h89l201 -205h-136l-119 124l-158 -124h-128z" />
    <glyph glyph-name="uni0136" unicode="&#x136;" horiz-adv-x="1264" 
d="M134 0l207 1446h123l-112 -796l776 796h149l-548 -567l378 -879h-142l-344 783l-294 -305l-68 -478h-125zM426 -346l86 110l-49 2l19 135h145l-17 -114l-127 -133h-57z" />
    <glyph glyph-name="uni0137" unicode="&#x137;" horiz-adv-x="1048" 
d="M95 0l212 1486h119l-144 -1019l586 567h147l-401 -384l281 -650h-134l-242 560l-261 -248l-43 -312h-120zM305 -346l86 110l-49 2l19 135h145l-17 -114l-127 -133h-57z" />
    <glyph glyph-name="kgreenlandic" unicode="&#x138;" horiz-adv-x="1056" 
d="M95 0l149 1034h119l-82 -574l595 574h142l-390 -370l277 -664h-144l-232 566l-271 -254l-43 -312h-120z" />
    <glyph glyph-name="Lacute" unicode="&#x139;" horiz-adv-x="1102" 
d="M134 0l207 1446h124l-189 -1325h664l-17 -121h-789zM347 1567l231 291h154l-283 -291h-102z" />
    <glyph glyph-name="lacute" unicode="&#x13a;" horiz-adv-x="564" 
d="M303 -10q-62 0 -99.5 20.5t-56 57t-21.5 84t4 101.5l177 1233h119l-176 -1226q-12 -90 14 -131t70 -42l56 -1l-12 -84q-21 -6 -41.5 -9t-33.5 -3zM311 1646l231 291h154l-283 -291h-102z" />
    <glyph glyph-name="uni013B" unicode="&#x13b;" horiz-adv-x="1102" 
d="M134 0l207 1446h124l-189 -1325h664l-17 -121h-789zM376 -346l86 110l-49 2l19 135h145l-17 -114l-127 -133h-57z" />
    <glyph glyph-name="uni013C" unicode="&#x13c;" horiz-adv-x="561" 
d="M303 -10q-62 0 -99.5 20.5t-56 57t-21.5 84t4 101.5l177 1233h119l-176 -1226q-12 -90 14 -131t70 -42l56 -1l-12 -84q-21 -6 -41.5 -9t-33.5 -3zM41 -344l86 110l-49 2l19 135h145l-17 -114l-127 -133h-57z" />
    <glyph glyph-name="Lcaron" unicode="&#x13d;" horiz-adv-x="1102" 
d="M134 0l207 1446h124l-189 -1325h664l-17 -121h-789zM769 1085l92 174l-40 9l24 178h119l-26 -187l-95 -174h-74z" />
    <glyph glyph-name="lcaron" unicode="&#x13e;" horiz-adv-x="561" 
d="M303 -10q-62 0 -99.5 20.5t-56 57t-21.5 84t4 101.5l177 1233h119l-176 -1226q-12 -90 14 -131t70 -42l56 -1l-12 -84q-21 -6 -41.5 -9t-33.5 -3zM483 1125l92 174l-40 9l24 178h119l-26 -187l-95 -174h-74z" />
    <glyph glyph-name="Ldot" unicode="&#x13f;" horiz-adv-x="1130" 
d="M134 0l207 1446h124l-189 -1325h664l-17 -121h-789zM780 689l27 183h178l-27 -183h-178z" />
    <glyph glyph-name="ldot" unicode="&#x140;" horiz-adv-x="635" 
d="M303 -10q-62 0 -99.5 20.5t-56 57t-21.5 84t4 101.5l177 1233h119l-176 -1226q-12 -90 14 -131t70 -42l56 -1l-12 -84q-21 -6 -41.5 -9t-33.5 -3zM470 689l27 183h178l-27 -183h-178z" />
    <glyph glyph-name="Lslash" unicode="&#x141;" horiz-adv-x="1131" 
d="M81 620v112l619 159v-107zM163 0l206 1446h125l-189 -1325h664l-18 -121h-788z" />
    <glyph glyph-name="lslash" unicode="&#x142;" horiz-adv-x="670" 
d="M63 344v125l518 436v-119zM385 -10q-61 0 -99 20.5t-56 57t-21 84t4 101.5l176 1233h119l-176 -1226q-12 -90 14 -131t71 -42l55 -1l-11 -84q-22 -6 -42.5 -9t-33.5 -3z" />
    <glyph glyph-name="Nacute" unicode="&#x143;" horiz-adv-x="1410" 
d="M134 0l207 1446h108l592 -1217l173 1217h120l-207 -1446h-105l-594 1222l-174 -1222h-120zM781 1567l231 291h154l-283 -291h-102z" />
    <glyph glyph-name="nacute" unicode="&#x144;" horiz-adv-x="1084" 
d="M96 0l147 1034h112l-18 -149q31 46 80 84t113.5 60.5t142.5 22.5q95 0 165.5 -41.5t103 -125.5t14.5 -211l-96 -674h-119l95 666q20 134 -36 205t-164 71q-76 0 -145.5 -25.5t-116.5 -77t-58 -130.5l-102 -709h-118zM586 1155l231 291h154l-283 -291h-102z" />
    <glyph glyph-name="uni0145" unicode="&#x145;" horiz-adv-x="1410" 
d="M134 0l207 1446h108l592 -1217l173 1217h120l-207 -1446h-105l-594 1222l-174 -1222h-120zM451 -346l86 110l-49 2l19 135h145l-17 -114l-127 -133h-57z" />
    <glyph glyph-name="uni0146" unicode="&#x146;" horiz-adv-x="1084" 
d="M96 0l147 1034h112l-18 -149q31 46 80 84t113.5 60.5t142.5 22.5q95 0 165.5 -41.5t103 -125.5t14.5 -211l-96 -674h-119l95 666q20 134 -36 205t-164 71q-76 0 -145.5 -25.5t-116.5 -77t-58 -130.5l-102 -709h-118zM339 -346l86 110l-49 2l19 135h145l-17 -114
l-127 -133h-57z" />
    <glyph glyph-name="Ncaron" unicode="&#x147;" horiz-adv-x="1410" 
d="M134 0l207 1446h108l592 -1217l173 1217h120l-207 -1446h-105l-594 1222l-174 -1222h-120zM810 1566l-200 206h130l125 -127l153 127h135l-252 -206h-91z" />
    <glyph glyph-name="ncaron" unicode="&#x148;" horiz-adv-x="1084" 
d="M96 0l147 1034h112l-18 -149q31 46 80 84t113.5 60.5t142.5 22.5q95 0 165.5 -41.5t103 -125.5t14.5 -211l-96 -674h-119l95 666q20 134 -36 205t-164 71q-76 0 -145.5 -25.5t-116.5 -77t-58 -130.5l-102 -709h-118zM615 1154l-200 206h130l125 -127l153 127h135
l-252 -206h-91z" />
    <glyph glyph-name="Eng" unicode="&#x14a;" horiz-adv-x="1410" 
d="M804 -480q-75 0 -132 21.5t-71 30.5l31 120q25 -13 67 -30.5t100 -17.5q87 0 130.5 52t61.5 180l21 144l-584 1202l-174 -1222h-120l207 1446h108l592 -1217l173 1217h120l-229 -1599q-15 -105 -48 -178t-94 -111t-159 -38z" />
    <glyph glyph-name="eng" unicode="&#x14b;" horiz-adv-x="1090" 
d="M576 -332q-72 0 -89 4.5t-16 14.5l13 82l92 2q68 3 102.5 39t47.5 121l109 787q15 103 -22 167.5t-153 64.5q-78 0 -164 -46.5t-175 -124.5l-109 -779h-117l148 1034h108l-22 -157q85 67 148 105.5t117.5 55t113.5 16.5q137 0 202 -81t46 -211l-116 -822
q-11 -86 -44.5 -147t-88.5 -93t-131 -32z" />
    <glyph glyph-name="Omacron" unicode="&#x14c;" horiz-adv-x="1364" 
d="M607 -20q-176 0 -290.5 85t-159 249.5t-10.5 402.5q34 241 126.5 408t232 254t314.5 87q174 0 287 -86t157 -253t10 -407q-34 -238 -125 -403.5t-229 -251t-313 -85.5zM626 97q138 0 243.5 67t174.5 205t99 350q30 214 -0.5 353.5t-116.5 208t-224 68.5
q-206 0 -341 -155.5t-181 -474.5q-30 -211 1.5 -349t119 -205.5t225.5 -67.5zM597 1664l14 99h504l-14 -99h-504z" />
    <glyph glyph-name="omacron" unicode="&#x14d;" horiz-adv-x="1062" 
d="M461 -20q-129 0 -218 59.5t-127 178t-14 295.5q22 163 86 284.5t169.5 189t247.5 67.5q129 0 216.5 -60.5t124.5 -180.5t13 -300q-21 -159 -84.5 -279t-166.5 -187t-247 -67zM477 85q94 0 169 49t125 145t68 237q17 126 -2.5 223.5t-79.5 153t-166 55.5
q-97 0 -172.5 -48.5t-125.5 -145t-69 -238.5q-17 -126 3 -223t81.5 -152.5t168.5 -55.5zM357 1252l14 99h504l-14 -99h-504z" />
    <glyph glyph-name="Obreve" unicode="&#x14e;" horiz-adv-x="1364" 
d="M607 -20q-176 0 -290.5 85t-159 249.5t-10.5 402.5q34 241 126.5 408t232 254t314.5 87q174 0 287 -86t157 -253t10 -407q-34 -238 -125 -403.5t-229 -251t-313 -85.5zM626 97q138 0 243.5 67t174.5 205t99 350q30 214 -0.5 353.5t-116.5 208t-224 68.5
q-206 0 -341 -155.5t-181 -474.5q-30 -211 1.5 -349t119 -205.5t225.5 -67.5zM829 1567q-73 0 -122 28.5t-74.5 73t-30.5 93.5h106q7 -17 20.5 -41t40.5 -42t74 -18q64 0 104.5 35t63.5 66h108q-18 -44 -58 -89t-98.5 -75.5t-133.5 -30.5z" />
    <glyph glyph-name="obreve" unicode="&#x14f;" horiz-adv-x="1062" 
d="M461 -20q-129 0 -218 59.5t-127 178t-14 295.5q22 163 86 284.5t169.5 189t247.5 67.5q129 0 216.5 -60.5t124.5 -180.5t13 -300q-21 -159 -84.5 -279t-166.5 -187t-247 -67zM477 85q94 0 169 49t125 145t68 237q17 126 -2.5 223.5t-79.5 153t-166 55.5
q-97 0 -172.5 -48.5t-125.5 -145t-69 -238.5q-17 -126 3 -223t81.5 -152.5t168.5 -55.5zM589 1155q-73 0 -122 28.5t-74.5 73t-30.5 93.5h106q7 -17 20.5 -41t40.5 -42t74 -18q64 0 104.5 35t63.5 66h108q-18 -44 -58 -89t-98.5 -75.5t-133.5 -30.5z" />
    <glyph glyph-name="Ohungarumlaut" unicode="&#x150;" horiz-adv-x="1364" 
d="M607 -20q-176 0 -290.5 85t-159 249.5t-10.5 402.5q34 241 126.5 408t232 254t314.5 87q174 0 287 -86t157 -253t10 -407q-34 -238 -125 -403.5t-229 -251t-313 -85.5zM626 97q138 0 243.5 67t174.5 205t99 350q30 214 -0.5 353.5t-116.5 208t-224 68.5
q-206 0 -341 -155.5t-181 -474.5q-30 -211 1.5 -349t119 -205.5t225.5 -67.5zM892 1567l179 291h143l-224 -291h-98zM668 1567l143 291h142l-188 -291h-97z" />
    <glyph glyph-name="ohungarumlaut" unicode="&#x151;" horiz-adv-x="1045" 
d="M461 -20q-129 0 -218 59.5t-127 178t-14 295.5q22 163 86 284.5t169.5 189t247.5 67.5q129 0 216.5 -60.5t124.5 -180.5t13 -300q-21 -159 -84.5 -279t-166.5 -187t-247 -67zM477 85q94 0 169 49t125 145t68 237q17 126 -2.5 223.5t-79.5 153t-166 55.5
q-97 0 -172.5 -48.5t-125.5 -145t-69 -238.5q-17 -126 3 -223t81.5 -152.5t168.5 -55.5zM649 1155l179 291h143l-224 -291h-98zM425 1155l143 291h142l-188 -291h-97z" />
    <glyph glyph-name="OE" unicode="&#x152;" horiz-adv-x="2101" 
d="M2077 1446l-18 -116h-688l-77 -541h631l-16 -117h-631l-79 -552l712 -2l-18 -118h-831l40 283q-84 -149 -210 -226t-285 -77q-176 0 -290.5 85t-159 249.5t-10.5 402.5q34 241 126.5 408t232 254t314.5 87q158 0 262.5 -77.5t145.5 -228.5l41 286h808zM626 97
q138 0 243.5 67t174.5 205t99 350q30 214 -0.5 353.5t-116.5 208t-224 68.5q-206 0 -341 -155.5t-181 -474.5q-30 -211 1.5 -349t119 -205.5t225.5 -67.5z" />
    <glyph glyph-name="oe" unicode="&#x153;" horiz-adv-x="1800" 
d="M1353 1054q131 0 213 -60.5t113.5 -173t11.5 -271.5l-9 -62h-716q-16 -108 5 -199.5t83.5 -147t171.5 -55.5q105 0 187.5 53.5t113.5 148.5h118q-33 -102 -101 -170.5t-155 -102.5t-177 -34q-131 0 -222 66t-124 191q-61 -120 -162 -188.5t-243 -68.5q-129 0 -218 59.5
t-127 178t-14 295.5q22 163 86 284.5t169.5 189t247.5 67.5q132 0 219.5 -66t117.5 -200q65 127 170 196.5t241 69.5zM477 85q94 0 169 49t125 145t68 237q17 126 -2.5 223.5t-79.5 153t-166 55.5q-97 0 -172.5 -48.5t-125.5 -145t-69 -238.5q-17 -126 3 -223t81.5 -152.5
t168.5 -55.5zM980 585h597q15 103 -5 186t-78 131t-157 48q-106 0 -181 -54.5t-119.5 -138.5t-56.5 -172z" />
    <glyph glyph-name="Racute" unicode="&#x154;" horiz-adv-x="1270" 
d="M134 0l206 1446h496q138 0 227 -43.5t126 -126.5t20 -204q-17 -120 -70 -198t-123 -123t-138 -67l175 -684h-129l-166 659h-410l-94 -659h-120zM363 773h319q116 0 201 30t135.5 93.5t64.5 162.5q19 143 -51 209.5t-219 66.5h-370zM696 1567l231 291h154l-283 -291h-102z
" />
    <glyph glyph-name="racute" unicode="&#x155;" horiz-adv-x="710" 
d="M95 0l146 1034h113l-24 -174q35 72 85 114.5t107 61t111 18.5q26 0 50 -4t38 -13l-17 -123q-16 8 -43.5 11.5t-45.5 3.5q-59 3 -124.5 -18t-115 -75t-63.5 -150l-96 -686h-121zM428 1155l231 291h154l-283 -291h-102z" />
    <glyph glyph-name="uni0156" unicode="&#x156;" horiz-adv-x="1270" 
d="M134 0l206 1446h496q138 0 227 -43.5t126 -126.5t20 -204q-17 -120 -70 -198t-123 -123t-138 -67l175 -684h-129l-166 659h-410l-94 -659h-120zM363 773h319q116 0 201 30t135.5 93.5t64.5 162.5q19 143 -51 209.5t-219 66.5h-370zM417 -346l86 110l-49 2l19 135h145
l-17 -114l-127 -133h-57z" />
    <glyph glyph-name="uni0157" unicode="&#x157;" horiz-adv-x="727" 
d="M95 0l146 1034h113l-24 -174q35 72 85 114.5t107 61t111 18.5q26 0 50 -4t38 -13l-17 -123q-16 8 -43.5 11.5t-45.5 3.5q-59 3 -124.5 -18t-115 -75t-63.5 -150l-96 -686h-121zM3 -346l86 110l-49 2l19 135h145l-17 -114l-127 -133h-57z" />
    <glyph glyph-name="Rcaron" unicode="&#x158;" horiz-adv-x="1270" 
d="M134 0l206 1446h496q138 0 227 -43.5t126 -126.5t20 -204q-17 -120 -70 -198t-123 -123t-138 -67l175 -684h-129l-166 659h-410l-94 -659h-120zM363 773h319q116 0 201 30t135.5 93.5t64.5 162.5q19 143 -51 209.5t-219 66.5h-370zM724 1566l-200 206h130l125 -127
l153 127h135l-252 -206h-91z" />
    <glyph glyph-name="rcaron" unicode="&#x159;" horiz-adv-x="727" 
d="M95 0l146 1034h113l-24 -174q35 72 85 114.5t107 61t111 18.5q26 0 50 -4t38 -13l-17 -123q-16 8 -43.5 11.5t-45.5 3.5q-59 3 -124.5 -18t-115 -75t-63.5 -150l-96 -686h-121zM395 1154l-200 206h130l125 -127l153 127h135l-252 -206h-91z" />
    <glyph glyph-name="Sacute" unicode="&#x15a;" horiz-adv-x="1271" 
d="M569 -20q-93 0 -176 25t-146.5 73.5t-100 120.5t-37.5 168h129q7 -91 54.5 -152.5t123.5 -92.5t168 -31q107 0 193.5 33.5t141.5 94t66 140.5q9 72 -10 126.5t-67 92.5t-126 59l-272 73q-144 38 -215 122.5t-53 222.5q16 118 86.5 210.5t182.5 145.5t249 53
q153 0 250 -60.5t139.5 -154t30.5 -193.5h-128q4 110 -38 174t-114 91.5t-157 27.5q-78 0 -159.5 -30.5t-140.5 -94t-73 -160.5q-11 -87 38 -141.5t188 -94.5l262 -74q87 -22 140.5 -63.5t80.5 -94.5t33 -113t-2 -121q-14 -105 -81.5 -191.5t-183.5 -138.5t-276 -52z
M705 1567l231 291h154l-283 -291h-102z" />
    <glyph glyph-name="sacute" unicode="&#x15b;" horiz-adv-x="948" 
d="M416 -20q-102 0 -180.5 33t-121.5 101t-41 173h115q3 -64 32 -109.5t82 -70t128 -24.5q108 0 181 46t86 142q9 65 -18.5 104.5t-91.5 58.5l-208 61q-107 31 -164 91.5t-42 169.5q12 88 60 155t131 105t200 38q146 0 228 -71t67 -213h-113q2 82 -47 132t-150 50
q-104 0 -175.5 -46.5t-84.5 -144.5q-9 -64 29.5 -100t116.5 -58l204 -62q57 -17 93.5 -45.5t56 -63.5t24 -75t-1.5 -79q-12 -91 -61.5 -157.5t-133.5 -103.5t-200 -37zM513 1155l231 291h154l-283 -291h-102z" />
    <glyph glyph-name="Scircumflex" unicode="&#x15c;" horiz-adv-x="1271" 
d="M569 -20q-93 0 -176 25t-146.5 73.5t-100 120.5t-37.5 168h129q7 -91 54.5 -152.5t123.5 -92.5t168 -31q107 0 193.5 33.5t141.5 94t66 140.5q9 72 -10 126.5t-67 92.5t-126 59l-272 73q-144 38 -215 122.5t-53 222.5q16 118 86.5 210.5t182.5 145.5t249 53
q153 0 250 -60.5t139.5 -154t30.5 -193.5h-128q4 110 -38 174t-114 91.5t-157 27.5q-78 0 -159.5 -30.5t-140.5 -94t-73 -160.5q-11 -87 38 -141.5t188 -94.5l262 -74q87 -22 140.5 -63.5t80.5 -94.5t33 -113t-2 -121q-14 -105 -81.5 -191.5t-183.5 -138.5t-276 -52z
M506 1567l251 205h89l201 -205h-136l-119 124l-158 -124h-128z" />
    <glyph glyph-name="scircumflex" unicode="&#x15d;" horiz-adv-x="943" 
d="M416 -20q-102 0 -180.5 33t-121.5 101t-41 173h115q3 -64 32 -109.5t82 -70t128 -24.5q108 0 181 46t86 142q9 65 -18.5 104.5t-91.5 58.5l-208 61q-107 31 -164 91.5t-42 169.5q12 88 60 155t131 105t200 38q146 0 228 -71t67 -213h-113q2 82 -47 132t-150 50
q-104 0 -175.5 -46.5t-84.5 -144.5q-9 -64 29.5 -100t116.5 -58l204 -62q57 -17 93.5 -45.5t56 -63.5t24 -75t-1.5 -79q-12 -91 -61.5 -157.5t-133.5 -103.5t-200 -37zM307 1155l251 205h89l201 -205h-136l-119 124l-158 -124h-128z" />
    <glyph glyph-name="Scedilla" unicode="&#x15e;" horiz-adv-x="1271" 
d="M450 -404q-47 0 -84 12t-67 36l34 65q19 -19 44.5 -32t67.5 -13q55 0 82.5 21t32.5 58q8 45 -24 67t-106 24q-8 0 -10 3t3 8l89 165h76l-63 -122q59 -5 89.5 -26.5t40.5 -53t5 -62.5q-7 -50 -38 -83.5t-76 -50t-96 -16.5zM569 -20q-93 0 -176 25t-146.5 73.5t-100 120.5
t-37.5 168h129q7 -91 54.5 -152.5t123.5 -92.5t168 -31q107 0 193.5 33.5t141.5 94t66 140.5q9 72 -10 126.5t-67 92.5t-126 59l-272 73q-144 38 -215 122.5t-53 222.5q16 118 86.5 210.5t182.5 145.5t249 53q153 0 250 -60.5t139.5 -154t30.5 -193.5h-128q4 110 -38 174
t-114 91.5t-157 27.5q-78 0 -159.5 -30.5t-140.5 -94t-73 -160.5q-11 -87 38 -141.5t188 -94.5l262 -74q87 -22 140.5 -63.5t80.5 -94.5t33 -113t-2 -121q-14 -105 -81.5 -191.5t-183.5 -138.5t-276 -52z" />
    <glyph glyph-name="scedilla" unicode="&#x15f;" horiz-adv-x="943" 
d="M324 -404q-46 0 -83 12t-67 36l33 65q20 -19 45.5 -32t67.5 -13q54 0 81.5 21t33.5 58q8 45 -24 67t-106 24q-8 0 -10 3t2 8l90 165h76l-63 -122q59 -5 89.5 -26.5t40 -53t5.5 -62.5q-7 -50 -38 -83.5t-76.5 -50t-96.5 -16.5zM416 -20q-102 0 -180.5 33t-121.5 101
t-41 173h115q3 -64 32 -109.5t82 -70t128 -24.5q108 0 181 46t86 142q9 65 -18.5 104.5t-91.5 58.5l-208 61q-107 31 -164 91.5t-42 169.5q12 88 60 155t131 105t200 38q146 0 228 -71t67 -213h-113q2 82 -47 132t-150 50q-104 0 -175.5 -46.5t-84.5 -144.5
q-9 -64 29.5 -100t116.5 -58l204 -62q57 -17 93.5 -45.5t56 -63.5t24 -75t-1.5 -79q-12 -91 -61.5 -157.5t-133.5 -103.5t-200 -37z" />
    <glyph glyph-name="Scaron" unicode="&#x160;" horiz-adv-x="1271" 
d="M569 -20q-93 0 -176 25t-146.5 73.5t-100 120.5t-37.5 168h129q7 -91 54.5 -152.5t123.5 -92.5t168 -31q107 0 193.5 33.5t141.5 94t66 140.5q9 72 -10 126.5t-67 92.5t-126 59l-272 73q-144 38 -215 122.5t-53 222.5q16 118 86.5 210.5t182.5 145.5t249 53
q153 0 250 -60.5t139.5 -154t30.5 -193.5h-128q4 110 -38 174t-114 91.5t-157 27.5q-78 0 -159.5 -30.5t-140.5 -94t-73 -160.5q-11 -87 38 -141.5t188 -94.5l262 -74q87 -22 140.5 -63.5t80.5 -94.5t33 -113t-2 -121q-14 -105 -81.5 -191.5t-183.5 -138.5t-276 -52z
M733 1566l-200 206h130l125 -127l153 127h135l-252 -206h-91z" />
    <glyph glyph-name="scaron" unicode="&#x161;" horiz-adv-x="940" 
d="M416 -20q-102 0 -180.5 33t-121.5 101t-41 173h115q3 -64 32 -109.5t82 -70t128 -24.5q108 0 181 46t86 142q9 65 -18.5 104.5t-91.5 58.5l-208 61q-107 31 -164 91.5t-42 169.5q12 88 60 155t131 105t200 38q146 0 228 -71t67 -213h-113q2 82 -47 132t-150 50
q-104 0 -175.5 -46.5t-84.5 -144.5q-9 -64 29.5 -100t116.5 -58l204 -62q57 -17 93.5 -45.5t56 -63.5t24 -75t-1.5 -79q-12 -91 -61.5 -157.5t-133.5 -103.5t-200 -37zM543 1154l-200 206h130l125 -127l153 127h135l-252 -206h-91z" />
    <glyph glyph-name="uni0162" unicode="&#x162;" horiz-adv-x="1096" 
d="M399 -401q-46 0 -83 12t-67 36l33 66q20 -19 45.5 -32.5t67.5 -13.5q54 0 81.5 21t33.5 58q8 46 -24 67.5t-106 24.5q-8 0 -10 2.5t2 7.5l90 165h76l-63 -122q59 -4 89.5 -26t40 -53t5.5 -63q-7 -49 -38 -82.5t-76.5 -50.5t-96.5 -17zM428 0l189 1327h-449l16 119h987
l-15 -119h-420l-188 -1327h-120z" />
    <glyph glyph-name="uni0163" unicode="&#x163;" horiz-adv-x="718" 
d="M266 -401q-46 0 -83 12t-67 35l33 66q20 -19 45.5 -32t67.5 -13q54 0 81.5 20.5t33.5 58.5q8 45 -24.5 67t-105.5 24q-9 0 -10.5 3t2.5 8l90 165h76l-63 -123q59 -4 89.5 -25.5t40 -53t5.5 -63.5q-7 -49 -38 -82.5t-76.5 -50t-96.5 -16.5zM414 -2q-85 0 -129 26t-56 79.5
t0 136.5l98 697h-157l15 97h157l68 295h94l-41 -295h220l-14 -97h-221l-97 -686q-14 -97 13.5 -122.5t101.5 -25.5h92l-13 -92q-18 -7 -52.5 -10t-78.5 -3z" />
    <glyph glyph-name="Tcaron" unicode="&#x164;" horiz-adv-x="1096" 
d="M428 0l189 1327h-449l16 119h987l-15 -119h-420l-188 -1327h-120zM672 1566l-200 206h130l125 -127l153 127h135l-252 -206h-91z" />
    <glyph glyph-name="tcaron" unicode="&#x165;" horiz-adv-x="728" 
d="M414 -2q-85 0 -129 26t-56 79.5t0 136.5l98 697h-157l15 97h157l68 295h94l-41 -295h220l-14 -97h-221l-97 -686q-14 -97 13.5 -122.5t101.5 -25.5h92l-13 -92q-18 -7 -52.5 -10t-78.5 -3zM583 1140l92 174l-40 9l24 178h119l-26 -187l-95 -174h-74z" />
    <glyph glyph-name="Tbar" unicode="&#x166;" horiz-adv-x="1096" 
d="M203 679l15 111h735l-15 -111h-735zM428 0l189 1327h-449l16 119h987l-15 -119h-420l-188 -1327h-120z" />
    <glyph glyph-name="tbar" unicode="&#x167;" horiz-adv-x="686" 
d="M126 532l13 89h487l-13 -89h-487zM425 -2q-85 0 -129.5 26t-56 79.5t-0.5 136.5l99 697h-157l15 97h157l68 295h94l-42 -295h221l-14 -97h-221l-97 -686q-14 -97 13.5 -122.5t101.5 -25.5h92l-14 -92q-17 -7 -51.5 -10t-78.5 -3z" />
    <glyph glyph-name="Utilde" unicode="&#x168;" horiz-adv-x="1309" 
d="M598 -20q-163 0 -258 57t-127.5 172t-7.5 287l134 950h126l-139 -981q-18 -122 8.5 -205t96.5 -124.5t183 -41.5q171 0 273 92.5t128 278.5l139 981h119l-138 -975q-22 -162 -88 -271t-177 -164.5t-272 -55.5zM607 1649l-16 78q34 30 69 49.5t83 19.5q42 0 77 -13
t69.5 -26.5t75.5 -13.5q38 0 66 14t58 34l16 -88q-24 -16 -61 -34t-94 -18q-47 0 -79.5 12.5t-62.5 25t-70 12.5q-46 0 -74.5 -17t-56.5 -35z" />
    <glyph glyph-name="utilde" unicode="&#x169;" horiz-adv-x="1096" 
d="M448 -20q-80 1 -145 23.5t-109 67t-62.5 112t-5.5 157.5l96 694h121l-97 -686q-17 -117 39.5 -189.5t192.5 -72.5q122 0 205.5 68t102.5 208l95 672h119l-145 -1034h-100l16 193q-27 -70 -74.5 -117.5t-110.5 -72t-138 -23.5zM412 1237l-16 78q34 30 69 49.5t83 19.5
q42 0 77 -13t69.5 -26.5t75.5 -13.5q38 0 66 14t58 34l16 -88q-24 -16 -61 -34t-94 -18q-47 0 -79.5 12.5t-62.5 25t-70 12.5q-46 0 -74.5 -17t-56.5 -35z" />
    <glyph glyph-name="Umacron" unicode="&#x16a;" horiz-adv-x="1309" 
d="M598 -20q-163 0 -258 57t-127.5 172t-7.5 287l134 950h126l-139 -981q-18 -122 8.5 -205t96.5 -124.5t183 -41.5q171 0 273 92.5t128 278.5l139 981h119l-138 -975q-22 -162 -88 -271t-177 -164.5t-272 -55.5zM589 1664l14 99h504l-14 -99h-504z" />
    <glyph glyph-name="umacron" unicode="&#x16b;" horiz-adv-x="1096" 
d="M448 -20q-80 1 -145 23.5t-109 67t-62.5 112t-5.5 157.5l96 694h121l-97 -686q-17 -117 39.5 -189.5t192.5 -72.5q122 0 205.5 68t102.5 208l95 672h119l-145 -1034h-100l16 193q-27 -70 -74.5 -117.5t-110.5 -72t-138 -23.5zM393 1252l14 99h504l-14 -99h-504z" />
    <glyph glyph-name="Ubreve" unicode="&#x16c;" horiz-adv-x="1309" 
d="M598 -20q-163 0 -258 57t-127.5 172t-7.5 287l134 950h126l-139 -981q-18 -122 8.5 -205t96.5 -124.5t183 -41.5q171 0 273 92.5t128 278.5l139 981h119l-138 -975q-22 -162 -88 -271t-177 -164.5t-272 -55.5zM821 1567q-73 0 -122 28.5t-74.5 73t-30.5 93.5h106
q7 -17 20.5 -41t40.5 -42t74 -18q64 0 104.5 35t63.5 66h108q-18 -44 -58 -89t-98.5 -75.5t-133.5 -30.5z" />
    <glyph glyph-name="ubreve" unicode="&#x16d;" horiz-adv-x="1096" 
d="M448 -20q-80 1 -145 23.5t-109 67t-62.5 112t-5.5 157.5l96 694h121l-97 -686q-17 -117 39.5 -189.5t192.5 -72.5q122 0 205.5 68t102.5 208l95 672h119l-145 -1034h-100l16 193q-27 -70 -74.5 -117.5t-110.5 -72t-138 -23.5zM625 1155q-73 0 -122 28.5t-74.5 73
t-30.5 93.5h106q7 -17 20.5 -41t40.5 -42t74 -18q64 0 104.5 35t63.5 66h108q-18 -44 -58 -89t-98.5 -75.5t-133.5 -30.5z" />
    <glyph glyph-name="Uring" unicode="&#x16e;" horiz-adv-x="1309" 
d="M598 -20q-163 0 -258 57t-127.5 172t-7.5 287l134 950h126l-139 -981q-18 -122 8.5 -205t96.5 -124.5t183 -41.5q171 0 273 92.5t128 278.5l139 981h119l-138 -975q-22 -162 -88 -271t-177 -164.5t-272 -55.5zM826 1576q-76 0 -122.5 58.5t-33.5 144.5q7 53 38.5 96.5
t78 69.5t97.5 26q78 0 124 -57t34 -139q-7 -57 -38.5 -102t-78 -71t-99.5 -26zM837 1661q43 0 78 34.5t42 78.5q6 50 -19 80.5t-69 30.5q-40 0 -75.5 -30.5t-43.5 -80.5q-7 -44 19.5 -78.5t67.5 -34.5z" />
    <glyph glyph-name="uring" unicode="&#x16f;" horiz-adv-x="1096" 
d="M448 -20q-80 1 -145 23.5t-109 67t-62.5 112t-5.5 157.5l96 694h121l-97 -686q-17 -117 39.5 -189.5t192.5 -72.5q122 0 205.5 68t102.5 208l95 672h119l-145 -1034h-100l16 193q-27 -70 -74.5 -117.5t-110.5 -72t-138 -23.5zM630 1164q-76 0 -122.5 58.5t-33.5 144.5
q7 53 38.5 96.5t78 69.5t97.5 26q78 0 124 -57t34 -139q-7 -57 -38.5 -102t-78 -71t-99.5 -26zM641 1249q43 0 78 34.5t42 78.5q6 50 -19 80.5t-69 30.5q-40 0 -75.5 -30.5t-43.5 -80.5q-7 -44 19.5 -78.5t67.5 -34.5z" />
    <glyph glyph-name="Uhungarumlaut" unicode="&#x170;" horiz-adv-x="1302" 
d="M598 -20q-163 0 -258 57t-127.5 172t-7.5 287l134 950h126l-139 -981q-18 -122 8.5 -205t96.5 -124.5t183 -41.5q171 0 273 92.5t128 278.5l139 981h119l-138 -975q-22 -162 -88 -271t-177 -164.5t-272 -55.5zM883 1567l179 291h143l-224 -291h-98zM659 1567l143 291h142
l-188 -291h-97z" />
    <glyph glyph-name="uhungarumlaut" unicode="&#x171;" horiz-adv-x="1040" 
d="M448 -20q-80 1 -145 23.5t-109 67t-62.5 112t-5.5 157.5l96 694h121l-97 -686q-17 -117 39.5 -189.5t192.5 -72.5q122 0 205.5 68t102.5 208l95 672h119l-145 -1034h-100l16 193q-27 -70 -74.5 -117.5t-110.5 -72t-138 -23.5zM690 1155l179 291h143l-224 -291h-98z
M466 1155l143 291h142l-188 -291h-97z" />
    <glyph glyph-name="Uogonek" unicode="&#x172;" horiz-adv-x="1309" 
d="M583 -338q-89 0 -126 43t-27 112q9 63 57.5 111t165.5 84l91 -15q-99 -44 -148.5 -83t-58.5 -92q-4 -39 15.5 -59t69.5 -20q47 0 84.5 12t54.5 21l-12 -77q-24 -13 -69.5 -25t-96.5 -12zM598 -20q-163 0 -258 57t-127.5 172t-7.5 287l134 950h126l-139 -981
q-18 -122 8.5 -205t96.5 -124.5t183 -41.5q171 0 273 92.5t128 278.5l139 981h119l-138 -975q-22 -162 -88 -271t-177 -164.5t-272 -55.5z" />
    <glyph glyph-name="uogonek" unicode="&#x173;" horiz-adv-x="1096" 
d="M448 -20q-80 1 -145 23.5t-109 67t-62.5 112t-5.5 157.5l96 694h121l-97 -686q-17 -117 39.5 -189.5t192.5 -72.5q122 0 205.5 68t102.5 208l95 672h119l-145 -1034h-100l16 193q-27 -70 -74.5 -117.5t-110.5 -72t-138 -23.5zM694 -332q-89 0 -126 43t-27 112
q8 63 57 111t166 84l91 -15q-99 -43 -148.5 -82.5t-58.5 -92.5q-4 -39 15 -58.5t70 -19.5q47 0 84.5 11.5t54.5 21.5l-13 -78q-23 -13 -68.5 -25t-96.5 -12z" />
    <glyph glyph-name="Wcircumflex" unicode="&#x174;" horiz-adv-x="1774" 
d="M361 0l-176 1446h126l144 -1262l510 1262h101l152 -1262l510 1262h123l-596 -1446h-127l-146 1219l-496 -1219h-125zM764 1567l251 205h89l201 -205h-136l-119 124l-158 -124h-128z" />
    <glyph glyph-name="wcircumflex" unicode="&#x175;" horiz-adv-x="1453" 
d="M280 0l-142 1034h117l114 -881h19l364 881h96l127 -878h18l354 878h114l-425 -1034h-143l-122 840l-344 -840h-147zM553 1155l251 205h89l201 -205h-136l-119 124l-158 -124h-128z" />
    <glyph glyph-name="Ycircumflex" unicode="&#x176;" horiz-adv-x="1076" 
d="M407 0l86 621l-335 825h130l283 -709l477 709h132l-566 -827l-89 -619h-118zM413 1570l251 205h89l201 -205h-136l-119 124l-158 -124h-128z" />
    <glyph glyph-name="ycircumflex" unicode="&#x177;" horiz-adv-x="978" 
d="M106 -330q-76 0 -102 10l-26 10l13 83l101 -1q65 -1 106 16.5t66 45.5t41 60l59 120l-232 1020h123l190 -868l431 868h116l-577 -1152q-42 -80 -90 -126.5t-102.5 -66t-116.5 -19.5zM311 1155l251 205h89l201 -205h-136l-119 124l-158 -124h-128z" />
    <glyph glyph-name="Ydieresis" unicode="&#x178;" horiz-adv-x="1076" 
d="M407 0l86 621l-335 825h130l283 -709l477 709h132l-566 -827l-89 -619h-118zM779 1715l20 146h128l-20 -146h-128zM501 1715l20 146h129l-20 -146h-129z" />
    <glyph glyph-name="Zacute" unicode="&#x179;" horiz-adv-x="1175" 
d="M65 0l13 79l943 1253h-742l16 114h907l-11 -77l-950 -1254h770l-18 -115h-928zM695 1567l231 291h154l-283 -291h-102z" />
    <glyph glyph-name="zacute" unicode="&#x17a;" horiz-adv-x="916" 
d="M13 0l11 89l703 847h-542l14 98h682l-12 -89l-701 -847h587l-14 -98h-728zM510 1155l231 291h154l-283 -291h-102z" />
    <glyph glyph-name="Zdotaccent" unicode="&#x17b;" horiz-adv-x="1175" 
d="M65 0l13 79l943 1253h-742l16 114h907l-11 -77l-950 -1254h770l-18 -115h-928zM725 1712l20 146h129l-20 -146h-129z" />
    <glyph glyph-name="zdotaccent" unicode="&#x17c;" horiz-adv-x="898" 
d="M13 0l11 89l703 847h-542l14 98h682l-12 -89l-701 -847h587l-14 -98h-728zM522 1300l20 146h129l-20 -146h-129z" />
    <glyph glyph-name="Zcaron" unicode="&#x17d;" horiz-adv-x="1175" 
d="M65 0l13 79l943 1253h-742l16 114h907l-11 -77l-950 -1254h770l-18 -115h-928zM724 1566l-200 206h130l125 -127l153 127h135l-252 -206h-91z" />
    <glyph glyph-name="zcaron" unicode="&#x17e;" horiz-adv-x="908" 
d="M13 0l11 89l703 847h-542l14 98h682l-12 -89l-701 -847h587l-14 -98h-728zM540 1154l-200 206h130l125 -127l153 127h135l-252 -206h-91z" />
    <glyph glyph-name="uni018F" unicode="&#x18f;" horiz-adv-x="1371" 
d="M613 -20q-174 0 -289 85.5t-160 257.5t-9 432h991q40 278 -47 432t-296 154q-105 0 -189.5 -35t-146.5 -91.5t-99 -122t-45 -126.5h-141q11 81 63 168.5t137 162.5t196.5 122t243.5 47q176 0 290 -88.5t158 -255t11 -399.5q-34 -243 -126 -408.5t-230 -250t-312 -84.5z
M630 102q140 0 243 71t168 193.5t89 277.5h-845q-21 -155 9 -278t114 -193.5t222 -70.5z" />
    <glyph glyph-name="florin" unicode="&#x192;" horiz-adv-x="780" 
d="M-303 -333l27 95l106 1q69 2 109 39t67 128l306 1007h-155l30 97h156l50 167q38 121 113.5 183t181.5 62h159l-29 -96h-142q-55 0 -99.5 -42t-66.5 -112l-51 -162h254l-30 -97h-252l-307 -1014q-37 -121 -111 -188.5t-187 -67.5h-129z" />
    <glyph glyph-name="Ohorn" unicode="&#x1a0;" horiz-adv-x="1466" 
d="M607 -20q-176 0 -290.5 85t-159 249.5t-10.5 402.5q34 241 126.5 408t232 254t314.5 87q127 0 222 -46.5t155 -136.5q51 0 85 15t56 56.5t36 118.5h109q-13 -91 -43 -152.5t-78.5 -93.5t-118.5 -35q35 -90 43.5 -208t-12.5 -264q-34 -238 -125 -403.5t-229 -251
t-313 -85.5zM626 97q138 0 243.5 67t174.5 205t99 350q30 214 -0.5 353.5t-116.5 208t-224 68.5q-206 0 -341 -155.5t-181 -474.5q-30 -211 1.5 -349t119 -205.5t225.5 -67.5z" />
    <glyph glyph-name="ohorn" unicode="&#x1a1;" horiz-adv-x="1120" 
d="M461 -20q-129 0 -218 59.5t-127 178t-14 295.5q22 163 86 284.5t169.5 189t247.5 67.5q94 0 167.5 -32.5t119.5 -97.5q69 2 106 41.5t56 148.5h109q-19 -133 -73.5 -202.5t-151.5 -78.5q23 -61 28.5 -140.5t-7.5 -179.5q-21 -159 -84.5 -279t-166.5 -187t-247 -67z
M477 85q94 0 169 49t125 145t68 237q17 126 -2.5 223.5t-79.5 153t-166 55.5q-97 0 -172.5 -48.5t-125.5 -145t-69 -238.5q-17 -126 3 -223t81.5 -152.5t168.5 -55.5z" />
    <glyph glyph-name="Uhorn" unicode="&#x1af;" horiz-adv-x="1482" 
d="M598 -20q-163 0 -258 57t-127.5 172t-7.5 287l134 950h126l-139 -981q-18 -122 8.5 -205t96.5 -124.5t183 -41.5q171 0 273 92.5t128 278.5l139 981h119l-23 -163q43 3 72 20.5t48 58t32 110.5h109q-14 -98 -47.5 -162t-89.5 -93t-137 -26l-102 -720q-22 -162 -88 -271
t-177 -164.5t-272 -55.5z" />
    <glyph glyph-name="uhorn" unicode="&#x1b0;" horiz-adv-x="1172" 
d="M449 -20q-80 1 -145 23.5t-109.5 67t-62.5 112t-6 157.5l97 694h121l-97 -686q-17 -117 39 -189.5t193 -72.5q122 0 205.5 68t102.5 208l95 672h119l-15 -111q44 2 74.5 19.5t50 58t32.5 113.5h109q-14 -99 -48 -163.5t-91 -94t-140 -24.5l-118 -832h-99l16 193
q-27 -70 -74.5 -117.5t-110.5 -72t-138 -23.5z" />
    <glyph glyph-name="uni01D4" unicode="&#x1d4;" horiz-adv-x="1096" 
d="M448 -20q-80 1 -145 23.5t-109 67t-62.5 112t-5.5 157.5l96 694h121l-97 -686q-17 -117 39.5 -189.5t192.5 -72.5q122 0 205.5 68t102.5 208l95 672h119l-145 -1034h-100l16 193q-27 -70 -74.5 -117.5t-110.5 -72t-138 -23.5zM585 1154l-200 206h130l125 -127l153 127
h135l-252 -206h-91z" />
    <glyph glyph-name="uni01EA" unicode="&#x1ea;" horiz-adv-x="1364" 
d="M602 -335q-89 0 -126 43t-27 112q9 63 57.5 111t165.5 84l91 -15q-99 -44 -148.5 -83t-58.5 -92q-3 -39 16 -59t70 -20q46 0 83.5 12t54.5 21l-12 -77q-24 -13 -69.5 -25t-96.5 -12zM607 -20q-176 0 -290.5 85t-159 249.5t-10.5 402.5q34 241 126.5 408t232 254t314.5 87
q174 0 287 -86t157 -253t10 -407q-34 -238 -125 -403.5t-229 -251t-313 -85.5zM626 97q138 0 243.5 67t174.5 205t99 350q30 214 -0.5 353.5t-116.5 208t-224 68.5q-206 0 -341 -155.5t-181 -474.5q-30 -211 1.5 -349t119 -205.5t225.5 -67.5z" />
    <glyph glyph-name="uni01EB" unicode="&#x1eb;" horiz-adv-x="1062" 
d="M402 -333q-89 0 -125.5 42.5t-27.5 112.5q9 62 57.5 110t166.5 85l90 -15q-98 -44 -148 -83t-58 -93q-4 -38 15 -58t70 -20q46 0 83.5 12t54.5 21l-12 -77q-24 -13 -69.5 -25t-96.5 -12zM461 -20q-129 0 -218 59.5t-127 178t-14 295.5q22 163 86 284.5t169.5 189
t247.5 67.5q129 0 216.5 -60.5t124.5 -180.5t13 -300q-21 -159 -84.5 -279t-166.5 -187t-247 -67zM477 85q94 0 169 49t125 145t68 237q17 126 -2.5 223.5t-79.5 153t-166 55.5q-97 0 -172.5 -48.5t-125.5 -145t-69 -238.5q-17 -126 3 -223t81.5 -152.5t168.5 -55.5z" />
    <glyph glyph-name="Aringacute" unicode="&#x1fa;" horiz-adv-x="1330" 
d="M987 1910l-72 -135q51 -20 78.5 -69t18.5 -113q-12 -86 -73.5 -142t-140.5 -56q-77 0 -121 57.5t-32 144.5q9 72 62 125t121 61l47 127h112zM927 1590q8 49 -17.5 80.5t-69.5 31.5q-41 0 -77 -31.5t-42 -80.5q-6 -44 20.5 -78.5t67.5 -34.5q43 0 77 34.5t41 78.5zM29 0
l696 1446h146l283 -1446h-124l-83 430h-586l-208 -430h-124zM413 553h516l-147 766z" />
    <glyph glyph-name="aringacute" unicode="&#x1fb;" horiz-adv-x="1037" 
d="M788 1498l-72 -135q51 -20 78.5 -69t18.5 -113q-12 -86 -73.5 -142t-140.5 -56q-78 0 -121.5 57.5t-32.5 144.5q10 72 63 125t121 61l47 127h112zM728 1178q8 49 -17.5 80.5t-69.5 31.5q-41 0 -77 -31.5t-42 -80.5q-6 -44 20.5 -78.5t67.5 -34.5q43 0 77 34.5t41 78.5z
M351 -20q-95 0 -160.5 35t-95 100t-17.5 156q24 173 144 254.5t364 89.5l199 7l14 91q15 114 -45.5 176.5t-172.5 62.5q-94 -1 -173 -51.5t-109 -149.5h-113q16 80 71 149.5t142.5 111.5t201.5 42q113 0 188.5 -41t108 -116t17.5 -179l-102 -718h-104l19 195
q-78 -126 -175.5 -170.5t-201.5 -44.5zM394 80q55 0 113 21.5t109.5 58.5t86 82.5t41.5 93.5l27 192l-165 -4q-134 -2 -219.5 -27.5t-130.5 -78t-58 -136.5q-12 -95 42 -148.5t154 -53.5z" />
    <glyph glyph-name="AEacute" unicode="&#x1fc;" horiz-adv-x="1763" 
d="M-73 0l962 1446h848l-16 -114h-644l-77 -545h595l-15 -113h-597l-79 -560h669l-16 -114h-805l63 436h-475l-290 -436h-123zM408 553h423l112 792zM1247 1567l231 291h154l-283 -291h-102z" />
    <glyph glyph-name="aeacute" unicode="&#x1fd;" horiz-adv-x="1737" 
d="M351 -20q-94 0 -160 35t-96 100t-17 156q24 173 144 255t366 89l201 7l13 91q16 114 -44 176.5t-173 62.5q-95 -1 -172 -51.5t-107 -149.5h-114q17 80 70.5 149.5t140.5 111.5t202 42q127 0 207 -57t98 -159q65 104 162 160t218 56q131 0 214 -60.5t115 -173.5t9 -271
l-9 -62h-716q-16 -108 4.5 -199.5t83.5 -147t172 -55.5q105 0 187.5 53.5t113.5 148.5h118q-33 -102 -101 -170.5t-155 -102.5t-177 -34q-139 0 -232.5 71t-125.5 205q-27 -84 -96 -146t-159 -96t-185 -34zM397 80q96 0 173 47.5t126 117t59 133.5l21 150l-168 -4
q-135 -2 -221 -27.5t-131 -78t-57 -136.5q-13 -95 42 -148.5t156 -53.5zM917 585h597q15 103 -5 186t-78 131t-157 48q-106 0 -181 -54.5t-119.5 -138.5t-56.5 -172zM896 1155l231 291h154l-283 -291h-102z" />
    <glyph glyph-name="Oslashacute" unicode="&#x1fe;" horiz-adv-x="1384" 
d="M66 -26l-67 78l188 196q-37 89 -45 206.5t13 262.5q34 241 126 408t231 254t314 87q125 0 219 -44.5t154 -131.5l174 180l69 -76l-192 -200q36 -90 44.5 -209t-12.5 -265q-33 -238 -124.5 -403.5t-230.5 -251t-313 -85.5q-126 0 -220 44t-153 129zM634 97q201 0 324 145
t168 445q19 117 20 215t-17 179l-789 -830q85 -154 294 -154zM308 363l789 830q-41 80 -112.5 118.5t-175.5 38.5q-203 0 -329 -149.5t-173 -454.5q-16 -115 -16 -210.5t17 -172.5zM768 1567l231 291h154l-283 -291h-102z" />
    <glyph glyph-name="oslashacute" unicode="&#x1ff;" horiz-adv-x="1019" 
d="M33 -10l-63 67l1007 983l63 -66zM400 -20q-130 0 -219 59.5t-126.5 178t-14.5 295.5q22 163 86.5 284.5t169.5 189t247 67.5q129 0 216.5 -60.5t124.5 -180.5t13 -300q-21 -159 -84.5 -279t-166.5 -187t-246 -67zM415 85q94 0 169 49t125 145t69 237q16 126 -3.5 223.5
t-79.5 153t-166 55.5q-96 0 -172 -48.5t-126 -145t-69 -238.5q-17 -126 3 -223t81.5 -152.5t168.5 -55.5zM451 1155l231 291h154l-283 -291h-102z" />
    <glyph glyph-name="uni0200" unicode="&#x200;" horiz-adv-x="1330" 
d="M29 0l696 1446h146l283 -1446h-124l-83 430h-586l-208 -430h-124zM413 553h516l-147 766zM633 1567l-224 291h144l178 -291h-98zM858 1567l-188 291h143l143 -291h-98z" />
    <glyph glyph-name="uni0201" unicode="&#x201;" horiz-adv-x="1099" 
d="M374 -20q-95 0 -160.5 35t-95 100t-17.5 156q24 173 144 254.5t364 89.5l199 7l14 91q15 114 -45.5 176.5t-172.5 62.5q-94 -1 -173 -51.5t-109 -149.5h-113q16 80 71 149.5t142.5 111.5t201.5 42q113 0 188.5 -41t108 -116t17.5 -179l-102 -718h-104l19 195
q-78 -126 -175.5 -170.5t-201.5 -44.5zM417 80q55 0 113 21.5t109.5 58.5t86 82.5t41.5 93.5l27 192l-165 -4q-134 -2 -219.5 -27.5t-130.5 -78t-58 -136.5q-12 -95 42 -148.5t154 -53.5zM479 1155l-224 291h144l178 -291h-98zM704 1155l-188 291h143l143 -291h-98z" />
    <glyph glyph-name="uni0202" unicode="&#x202;" horiz-adv-x="1330" 
d="M29 0l696 1446h146l283 -1446h-124l-83 430h-586l-208 -430h-124zM413 553h516l-147 766zM545 1587q19 50 57.5 94t95 72.5t129.5 28.5q76 0 125.5 -30.5t77 -75.5t32.5 -89h-108q-14 33 -44.5 67t-94.5 34q-47 0 -79 -18t-52 -42t-32 -41h-107z" />
    <glyph glyph-name="uni0203" unicode="&#x203;" horiz-adv-x="1076" 
d="M351 -20q-95 0 -160.5 35t-95 100t-17.5 156q24 173 144 254.5t364 89.5l199 7l14 91q15 114 -45.5 176.5t-172.5 62.5q-94 -1 -173 -51.5t-109 -149.5h-113q16 80 71 149.5t142.5 111.5t201.5 42q113 0 188.5 -41t108 -116t17.5 -179l-102 -718h-104l19 195
q-78 -126 -175.5 -170.5t-201.5 -44.5zM394 80q55 0 113 21.5t109.5 58.5t86 82.5t41.5 93.5l27 192l-165 -4q-134 -2 -219.5 -27.5t-130.5 -78t-58 -136.5q-12 -95 42 -148.5t154 -53.5zM348 1175q19 50 57.5 94t95 72.5t129.5 28.5q76 0 125.5 -30.5t77 -75.5t32.5 -89
h-108q-14 33 -44.5 67t-94.5 34q-47 0 -79 -18t-52 -42t-32 -41h-107z" />
    <glyph glyph-name="uni0204" unicode="&#x204;" horiz-adv-x="1173" 
d="M134 0l207 1446h808l-17 -116h-689l-77 -541h631l-15 -117h-632l-79 -552l712 -2l-18 -118h-831zM561 1567l-224 291h144l178 -291h-98zM786 1567l-188 291h143l143 -291h-98z" />
    <glyph glyph-name="uni0205" unicode="&#x205;" horiz-adv-x="1067" 
d="M479 -20q-131 0 -222 62t-130 180t-15 285q23 168 91.5 291t174 189.5t242.5 66.5q130 0 213 -60.5t115 -173.5t9 -271l-8 -62h-717q-15 -108 5.5 -199.5t83.5 -147t172 -55.5q105 0 187 53.5t114 148.5h117q-33 -102 -100.5 -170.5t-154.5 -102.5t-177 -34zM247 585h597
q15 103 -5 186t-78 131t-157 48q-107 0 -182 -54.5t-119 -138.5t-56 -172zM453 1155l-224 291h144l178 -291h-98zM678 1155l-188 291h143l143 -291h-98z" />
    <glyph glyph-name="uni0206" unicode="&#x206;" horiz-adv-x="1173" 
d="M134 0l207 1446h808l-17 -116h-689l-77 -541h631l-15 -117h-632l-79 -552l712 -2l-18 -118h-831zM473 1587q19 50 57.5 94t95 72.5t129.5 28.5q76 0 125.5 -30.5t77 -75.5t32.5 -89h-108q-14 33 -44.5 67t-94.5 34q-47 0 -79 -18t-52 -42t-32 -41h-107z" />
    <glyph glyph-name="uni0207" unicode="&#x207;" horiz-adv-x="1067" 
d="M479 -20q-131 0 -222 62t-130 180t-15 285q23 168 91.5 291t174 189.5t242.5 66.5q130 0 213 -60.5t115 -173.5t9 -271l-8 -62h-717q-15 -108 5.5 -199.5t83.5 -147t172 -55.5q105 0 187 53.5t114 148.5h117q-33 -102 -100.5 -170.5t-154.5 -102.5t-177 -34zM247 585h597
q15 103 -5 186t-78 131t-157 48q-107 0 -182 -54.5t-119 -138.5t-56 -172zM364 1175q19 50 57.5 94t95 72.5t129.5 28.5q76 0 125.5 -30.5t77 -75.5t32.5 -89h-108q-14 33 -44.5 67t-94.5 34q-47 0 -79 -18t-52 -42t-32 -41h-107z" />
    <glyph glyph-name="uni0208" unicode="&#x208;" horiz-adv-x="538" 
d="M136 0l204 1446h120l-204 -1446h-120zM237 1567l-224 291h144l178 -291h-98zM462 1567l-188 291h143l143 -291h-98z" />
    <glyph glyph-name="uni0209" unicode="&#x209;" horiz-adv-x="458" 
d="M96 0l147 1034h120l-148 -1034h-119zM137 1155l-224 291h144l178 -291h-98zM362 1155l-188 291h143l143 -291h-98z" />
    <glyph glyph-name="uni020A" unicode="&#x20a;" horiz-adv-x="538" 
d="M136 0l204 1446h120l-204 -1446h-120zM148 1587q19 50 57.5 94t95 72.5t129.5 28.5q76 0 125.5 -30.5t77 -75.5t32.5 -89h-108q-14 33 -44.5 67t-94.5 34q-47 0 -79 -18t-52 -42t-32 -41h-107z" />
    <glyph glyph-name="uni020B" unicode="&#x20b;" horiz-adv-x="458" 
d="M96 0l147 1034h120l-148 -1034h-119zM49 1175q19 50 57.5 94t95 72.5t129.5 28.5q76 0 125.5 -30.5t77 -75.5t32.5 -89h-108q-14 33 -44.5 67t-94.5 34q-47 0 -79 -18t-52 -42t-32 -41h-107z" />
    <glyph glyph-name="uni020C" unicode="&#x20c;" horiz-adv-x="1364" 
d="M607 -20q-176 0 -290.5 85t-159 249.5t-10.5 402.5q34 241 126.5 408t232 254t314.5 87q174 0 287 -86t157 -253t10 -407q-34 -238 -125 -403.5t-229 -251t-313 -85.5zM626 97q138 0 243.5 67t174.5 205t99 350q30 214 -0.5 353.5t-116.5 208t-224 68.5
q-206 0 -341 -155.5t-181 -474.5q-30 -211 1.5 -349t119 -205.5t225.5 -67.5zM651 1567l-224 291h144l178 -291h-98zM876 1567l-188 291h143l143 -291h-98z" />
    <glyph glyph-name="uni020D" unicode="&#x20d;" horiz-adv-x="1062" 
d="M461 -20q-129 0 -218 59.5t-127 178t-14 295.5q22 163 86 284.5t169.5 189t247.5 67.5q129 0 216.5 -60.5t124.5 -180.5t13 -300q-21 -159 -84.5 -279t-166.5 -187t-247 -67zM477 85q94 0 169 49t125 145t68 237q17 126 -2.5 223.5t-79.5 153t-166 55.5
q-97 0 -172.5 -48.5t-125.5 -145t-69 -238.5q-17 -126 3 -223t81.5 -152.5t168.5 -55.5zM411 1155l-224 291h144l178 -291h-98zM636 1155l-188 291h143l143 -291h-98z" />
    <glyph glyph-name="uni020E" unicode="&#x20e;" horiz-adv-x="1364" 
d="M607 -20q-176 0 -290.5 85t-159 249.5t-10.5 402.5q34 241 126.5 408t232 254t314.5 87q174 0 287 -86t157 -253t10 -407q-34 -238 -125 -403.5t-229 -251t-313 -85.5zM626 97q138 0 243.5 67t174.5 205t99 350q30 214 -0.5 353.5t-116.5 208t-224 68.5
q-206 0 -341 -155.5t-181 -474.5q-30 -211 1.5 -349t119 -205.5t225.5 -67.5zM562 1587q19 50 57.5 94t95 72.5t129.5 28.5q76 0 125.5 -30.5t77 -75.5t32.5 -89h-108q-14 33 -44.5 67t-94.5 34q-47 0 -79 -18t-52 -42t-32 -41h-107z" />
    <glyph glyph-name="uni020F" unicode="&#x20f;" horiz-adv-x="1062" 
d="M461 -20q-129 0 -218 59.5t-127 178t-14 295.5q22 163 86 284.5t169.5 189t247.5 67.5q129 0 216.5 -60.5t124.5 -180.5t13 -300q-21 -159 -84.5 -279t-166.5 -187t-247 -67zM477 85q94 0 169 49t125 145t68 237q17 126 -2.5 223.5t-79.5 153t-166 55.5
q-97 0 -172.5 -48.5t-125.5 -145t-69 -238.5q-17 -126 3 -223t81.5 -152.5t168.5 -55.5zM322 1175q19 50 57.5 94t95 72.5t129.5 28.5q76 0 125.5 -30.5t77 -75.5t32.5 -89h-108q-14 33 -44.5 67t-94.5 34q-47 0 -79 -18t-52 -42t-32 -41h-107z" />
    <glyph glyph-name="uni0210" unicode="&#x210;" horiz-adv-x="1270" 
d="M134 0l206 1446h496q138 0 227 -43.5t126 -126.5t20 -204q-17 -120 -70 -198t-123 -123t-138 -67l175 -684h-129l-166 659h-410l-94 -659h-120zM363 773h319q116 0 201 30t135.5 93.5t64.5 162.5q19 143 -51 209.5t-219 66.5h-370zM586 1567l-224 291h144l178 -291h-98z
M811 1567l-188 291h143l143 -291h-98z" />
    <glyph glyph-name="uni0211" unicode="&#x211;" horiz-adv-x="727" 
d="M95 0l146 1034h113l-24 -174q35 72 85 114.5t107 61t111 18.5q26 0 50 -4t38 -13l-17 -123q-16 8 -43.5 11.5t-45.5 3.5q-59 3 -124.5 -18t-115 -75t-63.5 -150l-96 -686h-121zM257 1155l-224 291h144l178 -291h-98zM482 1155l-188 291h143l143 -291h-98z" />
    <glyph glyph-name="uni0212" unicode="&#x212;" horiz-adv-x="1270" 
d="M134 0l206 1446h496q138 0 227 -43.5t126 -126.5t20 -204q-17 -120 -70 -198t-123 -123t-138 -67l175 -684h-129l-166 659h-410l-94 -659h-120zM363 773h319q116 0 201 30t135.5 93.5t64.5 162.5q19 143 -51 209.5t-219 66.5h-370zM472 1587q19 50 57.5 94t95 72.5
t129.5 28.5q76 0 125.5 -30.5t77 -75.5t32.5 -89h-108q-14 33 -44.5 67t-94.5 34q-47 0 -79 -18t-52 -42t-32 -41h-107z" />
    <glyph glyph-name="uni0213" unicode="&#x213;" horiz-adv-x="727" 
d="M95 0l146 1034h113l-24 -174q35 72 85 114.5t107 61t111 18.5q26 0 50 -4t38 -13l-17 -123q-16 8 -43.5 11.5t-45.5 3.5q-59 3 -124.5 -18t-115 -75t-63.5 -150l-96 -686h-121zM169 1175q19 50 57.5 94t95 72.5t129.5 28.5q76 0 125.5 -30.5t77 -75.5t32.5 -89h-108
q-14 33 -44.5 67t-94.5 34q-47 0 -79 -18t-52 -42t-32 -41h-107z" />
    <glyph glyph-name="uni0214" unicode="&#x214;" horiz-adv-x="1309" 
d="M598 -20q-163 0 -258 57t-127.5 172t-7.5 287l134 950h126l-139 -981q-18 -122 8.5 -205t96.5 -124.5t183 -41.5q171 0 273 92.5t128 278.5l139 981h119l-138 -975q-22 -162 -88 -271t-177 -164.5t-272 -55.5zM643 1567l-224 291h144l178 -291h-98zM868 1567l-188 291
h143l143 -291h-98z" />
    <glyph glyph-name="uni0215" unicode="&#x215;" horiz-adv-x="1096" 
d="M448 -20q-80 1 -145 23.5t-109 67t-62.5 112t-5.5 157.5l96 694h121l-97 -686q-17 -117 39.5 -189.5t192.5 -72.5q122 0 205.5 68t102.5 208l95 672h119l-145 -1034h-100l16 193q-27 -70 -74.5 -117.5t-110.5 -72t-138 -23.5zM447 1155l-224 291h144l178 -291h-98z
M672 1155l-188 291h143l143 -291h-98z" />
    <glyph glyph-name="uni0216" unicode="&#x216;" horiz-adv-x="1309" 
d="M598 -20q-163 0 -258 57t-127.5 172t-7.5 287l134 950h126l-139 -981q-18 -122 8.5 -205t96.5 -124.5t183 -41.5q171 0 273 92.5t128 278.5l139 981h119l-138 -975q-22 -162 -88 -271t-177 -164.5t-272 -55.5zM554 1587q19 50 57.5 94t95 72.5t129.5 28.5
q76 0 125.5 -30.5t77 -75.5t32.5 -89h-108q-14 33 -44.5 67t-94.5 34q-47 0 -79 -18t-52 -42t-32 -41h-107z" />
    <glyph glyph-name="uni0217" unicode="&#x217;" horiz-adv-x="1096" 
d="M448 -20q-80 1 -145 23.5t-109 67t-62.5 112t-5.5 157.5l96 694h121l-97 -686q-17 -117 39.5 -189.5t192.5 -72.5q122 0 205.5 68t102.5 208l95 672h119l-145 -1034h-100l16 193q-27 -70 -74.5 -117.5t-110.5 -72t-138 -23.5zM359 1175q19 50 57.5 94t95 72.5t129.5 28.5
q76 0 125.5 -30.5t77 -75.5t32.5 -89h-108q-14 33 -44.5 67t-94.5 34q-47 0 -79 -18t-52 -42t-32 -41h-107z" />
    <glyph glyph-name="uni0218" unicode="&#x218;" horiz-adv-x="1271" 
d="M569 -20q-93 0 -176 25t-146.5 73.5t-100 120.5t-37.5 168h129q7 -91 54.5 -152.5t123.5 -92.5t168 -31q107 0 193.5 33.5t141.5 94t66 140.5q9 72 -10 126.5t-67 92.5t-126 59l-272 73q-144 38 -215 122.5t-53 222.5q16 118 86.5 210.5t182.5 145.5t249 53
q153 0 250 -60.5t139.5 -154t30.5 -193.5h-128q4 110 -38 174t-114 91.5t-157 27.5q-78 0 -159.5 -30.5t-140.5 -94t-73 -160.5q-11 -87 38 -141.5t188 -94.5l262 -74q87 -22 140.5 -63.5t80.5 -94.5t33 -113t-2 -121q-14 -105 -81.5 -191.5t-183.5 -138.5t-276 -52z
M402 -346l86 110l-49 2l19 135h145l-17 -114l-127 -133h-57z" />
    <glyph glyph-name="uni0219" unicode="&#x219;" horiz-adv-x="943" 
d="M416 -20q-102 0 -180.5 33t-121.5 101t-41 173h115q3 -64 32 -109.5t82 -70t128 -24.5q108 0 181 46t86 142q9 65 -18.5 104.5t-91.5 58.5l-208 61q-107 31 -164 91.5t-42 169.5q12 88 60 155t131 105t200 38q146 0 228 -71t67 -213h-113q2 82 -47 132t-150 50
q-104 0 -175.5 -46.5t-84.5 -144.5q-9 -64 29.5 -100t116.5 -58l204 -62q57 -17 93.5 -45.5t56 -63.5t24 -75t-1.5 -79q-12 -91 -61.5 -157.5t-133.5 -103.5t-200 -37zM277 -346l86 110l-49 2l19 135h145l-17 -114l-127 -133h-57z" />
    <glyph glyph-name="uni021A" unicode="&#x21a;" horiz-adv-x="1096" 
d="M428 0l189 1327h-449l16 119h987l-15 -119h-420l-188 -1327h-120zM352 -343l86 110l-49 2l19 135h145l-17 -114l-127 -133h-57z" />
    <glyph glyph-name="uni021B" unicode="&#x21b;" horiz-adv-x="718" 
d="M414 -2q-85 0 -129 26t-56 79.5t0 136.5l98 697h-157l15 97h157l68 295h94l-41 -295h220l-14 -97h-221l-97 -686q-14 -97 13.5 -122.5t101.5 -25.5h92l-13 -92q-18 -7 -52.5 -10t-78.5 -3zM219 -343l86 110l-49 2l19 135h145l-17 -114l-127 -133h-57z" />
    <glyph glyph-name="uni0237" unicode="&#x237;" horiz-adv-x="469" 
d="M-52 -332q-81 0 -100.5 5t-18.5 15l13 84l107 3q69 3 103 38t46 119l157 1102h119l-158 -1111q-18 -130 -76 -192.5t-192 -62.5z" />
    <glyph glyph-name="uni0259" unicode="&#x259;" horiz-adv-x="1067" 
d="M447 -20q-130 0 -213 60.5t-115 173.5t-10 271l9 62h716q17 108 -4 200t-83.5 147t-172.5 55q-105 0 -187 -53.5t-114 -148.5h-118q33 103 101 171t155 102t177 34q131 0 222 -62t130 -180t15 -285q-24 -168 -91.5 -291t-173.5 -189.5t-243 -66.5zM463 84
q106 0 181.5 54.5t119.5 138.5t56 172h-597q-14 -103 5.5 -186t77.5 -131t157 -48z" />
    <glyph glyph-name="uni02BB" unicode="&#x2bb;" horiz-adv-x="387" 
d="M172 1033l24 162q8 52 30.5 96.5t54 76t66 46t64.5 7.5l-9 -61h-13q-34 -1 -65.5 -42.5t-38.5 -88.5l-2 -10l97 -3l-26 -183h-182z" />
    <glyph glyph-name="uni02BC" unicode="&#x2bc;" horiz-adv-x="428" 
d="M173 1035l17 61l12 1q32 1 67.5 42.5t48.5 88.5l4 10l-91 3l51 183h171l-46 -162q-14 -52 -41.5 -96.5t-61.5 -76t-68.5 -46.5t-62.5 -8z" />
    <glyph glyph-name="circumflex" unicode="&#x2c6;" horiz-adv-x="552" 
d="M95 1155l251 205h89l201 -205h-136l-119 124l-158 -124h-128z" />
    <glyph glyph-name="caron" unicode="&#x2c7;" horiz-adv-x="557" 
d="M324 1154l-200 206h130l125 -127l153 127h135l-252 -206h-91z" />
    <glyph glyph-name="breve" unicode="&#x2d8;" horiz-adv-x="545" 
d="M359 1155q-73 0 -122 28.5t-74.5 73t-30.5 93.5h106q7 -17 20.5 -41t40.5 -42t74 -18q64 0 104.5 35t63.5 66h108q-18 -44 -58 -89t-98.5 -75.5t-133.5 -30.5z" />
    <glyph glyph-name="dotaccent" unicode="&#x2d9;" horiz-adv-x="150" 
d="M121 1300l20 146h129l-20 -146h-129z" />
    <glyph glyph-name="ring" unicode="&#x2da;" horiz-adv-x="417" 
d="M297 1161q-76 0 -122.5 58.5t-33.5 144.5q7 53 38.5 96.5t78 69.5t97.5 26q78 0 124 -57t34 -139q-7 -57 -38.5 -102t-78 -71t-99.5 -26zM308 1246q43 0 78 34.5t42 78.5q6 50 -19 80.5t-69 30.5q-40 0 -75.5 -30.5t-43.5 -80.5q-7 -44 19.5 -78.5t67.5 -34.5z" />
    <glyph glyph-name="ogonek" unicode="&#x2db;" horiz-adv-x="383" 
d="M78 -330q-89 0 -126 43t-27 112q8 63 57 111t166 84l91 -15q-99 -43 -148.5 -82.5t-58.5 -92.5q-4 -39 15 -58.5t70 -19.5q47 0 84.5 11.5t54.5 21.5l-13 -78q-23 -13 -68.5 -25t-96.5 -12z" />
    <glyph glyph-name="tilde" unicode="&#x2dc;" horiz-adv-x="574" 
d="M155 1237l-16 78q34 30 69 49.5t83 19.5q42 0 77 -13t69.5 -26.5t75.5 -13.5q38 0 66 14t58 34l16 -88q-24 -16 -61 -34t-94 -18q-47 0 -79.5 12.5t-62.5 25t-70 12.5q-46 0 -74.5 -17t-56.5 -35z" />
    <glyph glyph-name="hungarumlaut" unicode="&#x2dd;" horiz-adv-x="526" 
d="M325 1155l179 291h143l-224 -291h-98zM101 1155l143 291h142l-188 -291h-97z" />
    <glyph glyph-name="gravecomb" unicode="&#x300;" 
d="M433 1155l-224 291h146l171 -291h-93z" />
    <glyph glyph-name="acutecomb" unicode="&#x301;" 
d="M100 1155l231 291h154l-283 -291h-102z" />
    <glyph glyph-name="uni0302" unicode="&#x302;" 
d="M95 1155l251 205h89l201 -205h-136l-119 124l-158 -124h-128z" />
    <glyph glyph-name="tildecomb" unicode="&#x303;" 
d="M155 1237l-16 78q34 30 69 49.5t83 19.5q42 0 77 -13t69.5 -26.5t75.5 -13.5q38 0 66 14t58 34l16 -88q-24 -16 -61 -34t-94 -18q-47 0 -79.5 12.5t-62.5 25t-70 12.5q-46 0 -74.5 -17t-56.5 -35z" />
    <glyph glyph-name="uni0304" unicode="&#x304;" 
d="M127 1252l14 99h504l-14 -99h-504z" />
    <glyph glyph-name="uni0306" unicode="&#x306;" 
d="M359 1155q-73 0 -122 28.5t-74.5 73t-30.5 93.5h106q7 -17 20.5 -41t40.5 -42t74 -18q64 0 104.5 35t63.5 66h108q-18 -44 -58 -89t-98.5 -75.5t-133.5 -30.5z" />
    <glyph glyph-name="uni0307" unicode="&#x307;" 
d="M121 1300l20 146h129l-20 -146h-129z" />
    <glyph glyph-name="uni0308" unicode="&#x308;" 
d="M395 1300l20 146h128l-20 -146h-128zM117 1300l20 146h129l-20 -146h-129z" />
    <glyph glyph-name="hookabovecomb" unicode="&#x309;" 
d="M741 1153l-34 70q46 29 69 67t9 72t-55 32t-87 -30l-33 71q84 52 153.5 43.5t97.5 -67.5q34 -70 -1 -139t-119 -119z" />
    <glyph glyph-name="uni030A" unicode="&#x30a;" 
d="M297 1161q-76 0 -122.5 58.5t-33.5 144.5q7 53 38.5 96.5t78 69.5t97.5 26q78 0 124 -57t34 -139q-7 -57 -38.5 -102t-78 -71t-99.5 -26zM308 1246q43 0 78 34.5t42 78.5q6 50 -19 80.5t-69 30.5q-40 0 -75.5 -30.5t-43.5 -80.5q-7 -44 19.5 -78.5t67.5 -34.5z" />
    <glyph glyph-name="uni030B" unicode="&#x30b;" 
d="M325 1155l179 291h143l-224 -291h-98zM101 1155l143 291h142l-188 -291h-97z" />
    <glyph glyph-name="uni030C" unicode="&#x30c;" 
d="M324 1154l-200 206h130l125 -127l153 127h135l-252 -206h-91z" />
    <glyph glyph-name="uni030F" unicode="&#x30f;" 
d="M365 1155l-224 291h144l178 -291h-98zM590 1155l-188 291h143l143 -291h-98z" />
    <glyph glyph-name="uni0311" unicode="&#x311;" 
d="M95 1175q19 50 57.5 94t95 72.5t129.5 28.5q76 0 125.5 -30.5t77 -75.5t32.5 -89h-108q-14 33 -44.5 67t-94.5 34q-47 0 -79 -18t-52 -42t-32 -41h-107z" />
    <glyph glyph-name="uni0312" unicode="&#x312;" 
d="M543 1155l25 177l98 136h73l-96 -145h58l-25 -168h-133z" />
    <glyph glyph-name="uni031B" unicode="&#x31b;" 
d="M63 965l14 96q40 -1 69 5.5t49.5 25.5t35 55.5t24.5 96.5h115q-15 -105 -52 -170.5t-100 -92.5t-155 -16z" />
    <glyph glyph-name="dotbelowcomb" unicode="&#x323;" 
d="M-110 -337l21 146h128l-20 -146h-129z" />
    <glyph glyph-name="uni0326" unicode="&#x326;" 
d="M-124 -346l86 110l-49 2l19 135h145l-17 -114l-127 -133h-57z" />
    <glyph glyph-name="uni0327" unicode="&#x327;" 
d="M47 -404q-46 0 -83.5 12t-67.5 36l34 65q19 -19 44.5 -32t68.5 -13q54 0 81.5 21t33.5 58q7 45 -25 67t-105 24q-9 0 -10.5 3t2.5 8l90 165h76l-63 -122q59 -5 89.5 -26.5t40 -53t5.5 -62.5q-7 -50 -38 -83.5t-76.5 -50t-96.5 -16.5z" />
    <glyph glyph-name="uni0328" unicode="&#x328;" 
d="M78 -330q-89 0 -126 43t-27 112q8 63 57 111t166 84l91 -15q-99 -43 -148.5 -82.5t-58.5 -92.5q-4 -39 15 -58.5t70 -19.5q47 0 84.5 11.5t54.5 21.5l-13 -78q-23 -13 -68.5 -25t-96.5 -12z" />
    <glyph glyph-name="pi" unicode="&#x3c0;" horiz-adv-x="1308" 
d="M206 0q24 83 46 186.5t40 223t29 248t12 259.5q1 20 -15 20h-193l5 97h1183l-6 -97h-246l-16 -937h-122l14 937h-486q-1 -138 -13 -274.5t-30 -261t-41.5 -227.5t-49.5 -174h-111z" />
    <glyph glyph-name="uni1E0C" unicode="&#x1e0c;" horiz-adv-x="1299" 
d="M137 0l202 1446q4 0 69.5 -1t144.5 -1q132 -1 238 -19.5t186 -58.5t134 -102.5t81.5 -151t27.5 -205.5q0 -116 -17.5 -228t-56.5 -213.5t-102.5 -186.5t-156 -147.5t-217.5 -97t-286 -34.5h-247zM279 116h112q192 0 326 58t217.5 163t121.5 247.5t38 311.5
q0 166 -60.5 260.5t-176 134t-279.5 39.5h-128zM394 -337l21 146h128l-20 -146h-129z" />
    <glyph glyph-name="uni1E0D" unicode="&#x1e0d;" horiz-adv-x="1129" 
d="M439 -20q-186 0 -278.5 135t-57.5 406q32 240 150.5 386.5t320.5 146.5q79 0 134.5 -22.5t91 -55t55 -65.5t25.5 -54l83 629h121l-196 -1486h-97l16 212q-10 -23 -34.5 -61.5t-67.5 -78t-108 -66t-158 -26.5zM468 84q170 0 254 106t115 342q16 129 -2 222.5t-77.5 143.5
t-171.5 50q-135 0 -232.5 -101t-124.5 -315q-27 -206 31.5 -327t207.5 -121zM353 -337l21 146h128l-20 -146h-129z" />
    <glyph glyph-name="uni1E24" unicode="&#x1e24;" horiz-adv-x="1459" 
d="M135 0l203 1446h120l-90 -636h806l89 636h119l-203 -1446h-119l97 692h-805l-97 -692h-120zM550 -337l21 146h128l-20 -146h-129z" />
    <glyph glyph-name="uni1E25" unicode="&#x1e25;" horiz-adv-x="1100" 
d="M109 0l198 1486h115l-80 -602q46 70 132.5 118.5t204.5 48.5q95 0 166.5 -37.5t107.5 -104t24 -154.5l-100 -755h-121l97 722q14 104 -44.5 162t-168.5 58q-77 0 -145.5 -25.5t-115 -77.5t-56.5 -131l-95 -708h-119zM395 -337l21 146h128l-20 -146h-129z" />
    <glyph glyph-name="uni1E44" unicode="&#x1e44;" horiz-adv-x="1410" 
d="M134 0l207 1446h108l592 -1217l173 1217h120l-207 -1446h-105l-594 1222l-174 -1222h-120zM811 1712l20 146h129l-20 -146h-129z" />
    <glyph glyph-name="uni1E45" unicode="&#x1e45;" horiz-adv-x="1084" 
d="M96 0l147 1034h112l-18 -149q31 46 80 84t113.5 60.5t142.5 22.5q95 0 165.5 -41.5t103 -125.5t14.5 -211l-96 -674h-119l95 666q20 134 -36 205t-164 71q-76 0 -145.5 -25.5t-116.5 -77t-58 -130.5l-102 -709h-118zM616 1300l20 146h129l-20 -146h-129z" />
    <glyph glyph-name="uni1E5A" unicode="&#x1e5a;" horiz-adv-x="1270" 
d="M134 0l206 1446h496q138 0 227 -43.5t126 -126.5t20 -204q-17 -120 -70 -198t-123 -123t-138 -67l175 -684h-129l-166 659h-410l-94 -659h-120zM363 773h319q116 0 201 30t135.5 93.5t64.5 162.5q19 143 -51 209.5t-219 66.5h-370zM448 -337l21 146h128l-20 -146h-129z
" />
    <glyph glyph-name="uni1E5B" unicode="&#x1e5b;" horiz-adv-x="727" 
d="M95 0l146 1034h113l-24 -174q35 72 85 114.5t107 61t111 18.5q26 0 50 -4t38 -13l-17 -123q-16 8 -43.5 11.5t-45.5 3.5q-59 3 -124.5 -18t-115 -75t-63.5 -150l-96 -686h-121zM34 -337l21 146h128l-20 -146h-129z" />
    <glyph glyph-name="uni1E62" unicode="&#x1e62;" horiz-adv-x="1271" 
d="M569 -20q-93 0 -176 25t-146.5 73.5t-100 120.5t-37.5 168h129q7 -91 54.5 -152.5t123.5 -92.5t168 -31q107 0 193.5 33.5t141.5 94t66 140.5q9 72 -10 126.5t-67 92.5t-126 59l-272 73q-144 38 -215 122.5t-53 222.5q16 118 86.5 210.5t182.5 145.5t249 53
q153 0 250 -60.5t139.5 -154t30.5 -193.5h-128q4 110 -38 174t-114 91.5t-157 27.5q-78 0 -159.5 -30.5t-140.5 -94t-73 -160.5q-11 -87 38 -141.5t188 -94.5l262 -74q87 -22 140.5 -63.5t80.5 -94.5t33 -113t-2 -121q-14 -105 -81.5 -191.5t-183.5 -138.5t-276 -52z
M433 -337l21 146h128l-20 -146h-129z" />
    <glyph glyph-name="uni1E63" unicode="&#x1e63;" horiz-adv-x="943" 
d="M416 -20q-102 0 -180.5 33t-121.5 101t-41 173h115q3 -64 32 -109.5t82 -70t128 -24.5q108 0 181 46t86 142q9 65 -18.5 104.5t-91.5 58.5l-208 61q-107 31 -164 91.5t-42 169.5q12 88 60 155t131 105t200 38q146 0 228 -71t67 -213h-113q2 82 -47 132t-150 50
q-104 0 -175.5 -46.5t-84.5 -144.5q-9 -64 29.5 -100t116.5 -58l204 -62q57 -17 93.5 -45.5t56 -63.5t24 -75t-1.5 -79q-12 -91 -61.5 -157.5t-133.5 -103.5t-200 -37zM308 -337l21 146h128l-20 -146h-129z" />
    <glyph glyph-name="uni1E6C" unicode="&#x1e6c;" horiz-adv-x="1096" 
d="M428 0l189 1327h-449l16 119h987l-15 -119h-420l-188 -1327h-120zM383 -334l21 146h128l-20 -146h-129z" />
    <glyph glyph-name="uni1E6D" unicode="&#x1e6d;" horiz-adv-x="718" 
d="M414 -2q-85 0 -129 26t-56 79.5t0 136.5l98 697h-157l15 97h157l68 295h94l-41 -295h220l-14 -97h-221l-97 -686q-14 -97 13.5 -122.5t101.5 -25.5h92l-13 -92q-18 -7 -52.5 -10t-78.5 -3zM250 -334l21 146h128l-20 -146h-129z" />
    <glyph glyph-name="Wgrave" unicode="&#x1e80;" horiz-adv-x="1774" 
d="M361 0l-176 1446h126l144 -1262l510 1262h101l152 -1262l510 1262h123l-596 -1446h-127l-146 1219l-496 -1219h-125zM993 1567l-224 291h146l171 -291h-93z" />
    <glyph glyph-name="wgrave" unicode="&#x1e81;" horiz-adv-x="1453" 
d="M280 0l-142 1034h117l114 -881h19l364 881h96l127 -878h18l354 878h114l-425 -1034h-143l-122 840l-344 -840h-147zM783 1155l-224 291h146l171 -291h-93z" />
    <glyph glyph-name="Wacute" unicode="&#x1e82;" horiz-adv-x="1774" 
d="M361 0l-176 1446h126l144 -1262l510 1262h101l152 -1262l510 1262h123l-596 -1446h-127l-146 1219l-496 -1219h-125zM962 1567l231 291h154l-283 -291h-102z" />
    <glyph glyph-name="wacute" unicode="&#x1e83;" horiz-adv-x="1453" 
d="M280 0l-142 1034h117l114 -881h19l364 881h96l127 -878h18l354 878h114l-425 -1034h-143l-122 840l-344 -840h-147zM752 1155l231 291h154l-283 -291h-102z" />
    <glyph glyph-name="Wdieresis" unicode="&#x1e84;" horiz-adv-x="1774" 
d="M361 0l-176 1446h126l144 -1262l510 1262h101l152 -1262l510 1262h123l-596 -1446h-127l-146 1219l-496 -1219h-125zM1130 1712l20 146h128l-20 -146h-128zM852 1712l20 146h129l-20 -146h-129z" />
    <glyph glyph-name="wdieresis" unicode="&#x1e85;" horiz-adv-x="1453" 
d="M280 0l-142 1034h117l114 -881h19l364 881h96l127 -878h18l354 878h114l-425 -1034h-143l-122 840l-344 -840h-147zM920 1300l20 146h128l-20 -146h-128zM642 1300l20 146h129l-20 -146h-129z" />
    <glyph glyph-name="uni1E92" unicode="&#x1e92;" horiz-adv-x="1175" 
d="M65 0l13 79l943 1253h-742l16 114h907l-11 -77l-950 -1254h770l-18 -115h-928zM438 -337l21 146h128l-20 -146h-129z" />
    <glyph glyph-name="uni1E93" unicode="&#x1e93;" horiz-adv-x="898" 
d="M13 0l11 89l703 847h-542l14 98h682l-12 -89l-701 -847h587l-14 -98h-728zM254 -337l21 146h128l-20 -146h-129z" />
    <glyph glyph-name="uni1EA0" unicode="&#x1ea0;" horiz-adv-x="1330" 
d="M29 0l696 1446h146l283 -1446h-124l-83 430h-586l-208 -430h-124zM413 553h516l-147 766zM480 -337l21 146h128l-20 -146h-129z" />
    <glyph glyph-name="uni1EA1" unicode="&#x1ea1;" horiz-adv-x="1076" 
d="M351 -20q-95 0 -160.5 35t-95 100t-17.5 156q24 173 144 254.5t364 89.5l199 7l14 91q15 114 -45.5 176.5t-172.5 62.5q-94 -1 -173 -51.5t-109 -149.5h-113q16 80 71 149.5t142.5 111.5t201.5 42q113 0 188.5 -41t108 -116t17.5 -179l-102 -718h-104l19 195
q-78 -126 -175.5 -170.5t-201.5 -44.5zM394 80q55 0 113 21.5t109.5 58.5t86 82.5t41.5 93.5l27 192l-165 -4q-134 -2 -219.5 -27.5t-130.5 -78t-58 -136.5q-12 -95 42 -148.5t154 -53.5zM338 -337l21 146h128l-20 -146h-129z" />
    <glyph glyph-name="uni1EA2" unicode="&#x1ea2;" horiz-adv-x="1330" 
d="M29 0l696 1446h146l283 -1446h-124l-83 430h-586l-208 -430h-124zM413 553h516l-147 766zM866 1543l-34 70q46 29 69 67t9 72t-55 32t-87 -30l-33 71q84 52 153.5 43.5t97.5 -67.5q34 -70 -1 -139t-119 -119z" />
    <glyph glyph-name="uni1EA3" unicode="&#x1ea3;" horiz-adv-x="1076" 
d="M351 -20q-95 0 -160.5 35t-95 100t-17.5 156q24 173 144 254.5t364 89.5l199 7l14 91q15 114 -45.5 176.5t-172.5 62.5q-94 -1 -173 -51.5t-109 -149.5h-113q16 80 71 149.5t142.5 111.5t201.5 42q113 0 188.5 -41t108 -116t17.5 -179l-102 -718h-104l19 195
q-78 -126 -175.5 -170.5t-201.5 -44.5zM394 80q55 0 113 21.5t109.5 58.5t86 82.5t41.5 93.5l27 192l-165 -4q-134 -2 -219.5 -27.5t-130.5 -78t-58 -136.5q-12 -95 42 -148.5t154 -53.5zM670 1132l-34 70q46 29 69 67t9 72t-55 32t-87 -30l-33 71q84 52 153.5 43.5
t97.5 -67.5q34 -70 -1 -139t-119 -119z" />
    <glyph glyph-name="uni1EA4" unicode="&#x1ea4;" horiz-adv-x="1330" 
d="M29 0l696 1446h146l283 -1446h-124l-83 430h-586l-208 -430h-124zM413 553h516l-147 766zM554 1567l251 205h89l201 -205h-136l-119 124l-158 -124h-128zM997 1747l115 212h144l-167 -212h-92z" />
    <glyph glyph-name="uni1EA5" unicode="&#x1ea5;" horiz-adv-x="1048" 
d="M351 -20q-95 0 -160.5 35t-95 100t-17.5 156q24 173 144 254.5t364 89.5l199 7l14 91q15 114 -45.5 176.5t-172.5 62.5q-94 -1 -173 -51.5t-109 -149.5h-113q16 80 71 149.5t142.5 111.5t201.5 42q113 0 188.5 -41t108 -116t17.5 -179l-102 -718h-104l19 195
q-78 -126 -175.5 -170.5t-201.5 -44.5zM394 80q55 0 113 21.5t109.5 58.5t86 82.5t41.5 93.5l27 192l-165 -4q-134 -2 -219.5 -27.5t-130.5 -78t-58 -136.5q-12 -95 42 -148.5t154 -53.5zM361 1155l251 205h89l201 -205h-136l-119 124l-158 -124h-128zM804 1335l115 212h144
l-167 -212h-92z" />
    <glyph glyph-name="uni1EA6" unicode="&#x1ea6;" horiz-adv-x="1330" 
d="M29 0l696 1446h146l283 -1446h-124l-83 430h-586l-208 -430h-124zM413 553h516l-147 766zM549 1567l251 205h89l201 -205h-136l-119 124l-158 -124h-128zM1053 1744l-139 212h141l87 -212h-89z" />
    <glyph glyph-name="uni1EA7" unicode="&#x1ea7;" horiz-adv-x="1071" 
d="M351 -20q-95 0 -160.5 35t-95 100t-17.5 156q24 173 144 254.5t364 89.5l199 7l14 91q15 114 -45.5 176.5t-172.5 62.5q-94 -1 -173 -51.5t-109 -149.5h-113q16 80 71 149.5t142.5 111.5t201.5 42q113 0 188.5 -41t108 -116t17.5 -179l-102 -718h-104l19 195
q-78 -126 -175.5 -170.5t-201.5 -44.5zM394 80q55 0 113 21.5t109.5 58.5t86 82.5t41.5 93.5l27 192l-165 -4q-134 -2 -219.5 -27.5t-130.5 -78t-58 -136.5q-12 -95 42 -148.5t154 -53.5zM352 1155l251 205h89l201 -205h-136l-119 124l-158 -124h-128zM856 1332l-139 212
h141l87 -212h-89z" />
    <glyph glyph-name="uni1EA8" unicode="&#x1ea8;" horiz-adv-x="1330" 
d="M29 0l696 1446h146l283 -1446h-124l-83 430h-586l-208 -430h-124zM413 553h516l-147 766zM532 1567l251 205h89l201 -205h-136l-119 124l-158 -124h-128zM1007 1678l-33 70q46 29 69 67t9 72q-15 34 -56 32t-86 -30l-33 71q84 52 153.5 43.5t96.5 -67.5q34 -70 -0.5 -139
t-119.5 -119z" />
    <glyph glyph-name="uni1EA9" unicode="&#x1ea9;" horiz-adv-x="1075" 
d="M351 -20q-95 0 -160.5 35t-95 100t-17.5 156q24 173 144 254.5t364 89.5l199 7l14 91q15 114 -45.5 176.5t-172.5 62.5q-94 -1 -173 -51.5t-109 -149.5h-113q16 80 71 149.5t142.5 111.5t201.5 42q113 0 188.5 -41t108 -116t17.5 -179l-102 -718h-104l19 195
q-78 -126 -175.5 -170.5t-201.5 -44.5zM394 80q55 0 113 21.5t109.5 58.5t86 82.5t41.5 93.5l27 192l-165 -4q-134 -2 -219.5 -27.5t-130.5 -78t-58 -136.5q-12 -95 42 -148.5t154 -53.5zM339 1155l251 205h89l201 -205h-136l-119 124l-158 -124h-128zM814 1266l-33 70
q46 29 69 67t9 72q-15 34 -56 32t-86 -30l-33 71q84 52 153.5 43.5t96.5 -67.5q34 -70 -0.5 -139t-119.5 -119z" />
    <glyph glyph-name="uni1EAA" unicode="&#x1eaa;" horiz-adv-x="1330" 
d="M29 0l696 1446h146l283 -1446h-124l-83 430h-586l-208 -430h-124zM413 553h516l-147 766zM550 1567l251 205h89l202 -205h-137l-119 124l-158 -124h-128zM625 1885l-16 78q34 29 69 48.5t83 19.5q42 0 77 -13t69.5 -26t75.5 -13q38 0 66 14t57 34l17 -89q-24 -15 -61 -33
t-94 -18q-48 0 -80 12.5t-62 25t-70 12.5q-46 0 -75 -17t-56 -35z" />
    <glyph glyph-name="uni1EAB" unicode="&#x1eab;" horiz-adv-x="1076" 
d="M351 -20q-95 0 -160.5 35t-95 100t-17.5 156q24 173 144 254.5t364 89.5l199 7l14 91q15 114 -45.5 176.5t-172.5 62.5q-94 -1 -173 -51.5t-109 -149.5h-113q16 80 71 149.5t142.5 111.5t201.5 42q113 0 188.5 -41t108 -116t17.5 -179l-102 -718h-104l19 195
q-78 -126 -175.5 -170.5t-201.5 -44.5zM394 80q55 0 113 21.5t109.5 58.5t86 82.5t41.5 93.5l27 192l-165 -4q-134 -2 -219.5 -27.5t-130.5 -78t-58 -136.5q-12 -95 42 -148.5t154 -53.5zM353 1155l251 205h89l202 -205h-137l-119 124l-158 -124h-128zM428 1473l-16 78
q34 29 69 48.5t83 19.5q42 0 77 -13t69.5 -26t75.5 -13q38 0 66 14t57 34l17 -89q-24 -15 -61 -33t-94 -18q-48 0 -80 12.5t-62 25t-70 12.5q-46 0 -75 -17t-56 -35z" />
    <glyph glyph-name="uni1EAC" unicode="&#x1eac;" horiz-adv-x="1330" 
d="M29 0l696 1446h146l283 -1446h-124l-83 430h-586l-208 -430h-124zM413 553h516l-147 766zM480 -337l21 146h128l-20 -146h-129zM544 1567l251 205h89l201 -205h-136l-119 124l-158 -124h-128z" />
    <glyph glyph-name="uni1EAD" unicode="&#x1ead;" horiz-adv-x="1076" 
d="M351 -20q-95 0 -160.5 35t-95 100t-17.5 156q24 173 144 254.5t364 89.5l199 7l14 91q15 114 -45.5 176.5t-172.5 62.5q-94 -1 -173 -51.5t-109 -149.5h-113q16 80 71 149.5t142.5 111.5t201.5 42q113 0 188.5 -41t108 -116t17.5 -179l-102 -718h-104l19 195
q-78 -126 -175.5 -170.5t-201.5 -44.5zM394 80q55 0 113 21.5t109.5 58.5t86 82.5t41.5 93.5l27 192l-165 -4q-134 -2 -219.5 -27.5t-130.5 -78t-58 -136.5q-12 -95 42 -148.5t154 -53.5zM338 -337l21 146h128l-20 -146h-129zM348 1155l251 205h89l201 -205h-136l-119 124
l-158 -124h-128z" />
    <glyph glyph-name="uni1EAE" unicode="&#x1eae;" horiz-adv-x="1330" 
d="M29 0l696 1446h146l283 -1446h-124l-83 430h-586l-208 -430h-124zM413 553h516l-147 766zM841 1567q-73 0 -122 28.5t-74.5 73t-30.5 93.5h106q7 -17 20.5 -41t40.5 -42t74 -18q64 0 104.5 35t63.5 66h108q-18 -44 -58 -89t-98.5 -75.5t-133.5 -30.5zM819 1786l115 212
h144l-167 -212h-92z" />
    <glyph glyph-name="uni1EAF" unicode="&#x1eaf;" horiz-adv-x="1076" 
d="M351 -20q-95 0 -160.5 35t-95 100t-17.5 156q24 173 144 254.5t364 89.5l199 7l14 91q15 114 -45.5 176.5t-172.5 62.5q-94 -1 -173 -51.5t-109 -149.5h-113q16 80 71 149.5t142.5 111.5t201.5 42q113 0 188.5 -41t108 -116t17.5 -179l-102 -718h-104l19 195
q-78 -126 -175.5 -170.5t-201.5 -44.5zM394 80q55 0 113 21.5t109.5 58.5t86 82.5t41.5 93.5l27 192l-165 -4q-134 -2 -219.5 -27.5t-130.5 -78t-58 -136.5q-12 -95 42 -148.5t154 -53.5zM645 1155q-73 0 -122 28.5t-74.5 73t-30.5 93.5h106q7 -17 20.5 -41t40.5 -42t74 -18
q64 0 104.5 35t63.5 66h108q-18 -44 -58 -89t-98.5 -75.5t-133.5 -30.5zM623 1374l115 212h144l-167 -212h-92z" />
    <glyph glyph-name="uni1EB0" unicode="&#x1eb0;" horiz-adv-x="1330" 
d="M29 0l696 1446h146l283 -1446h-124l-83 430h-586l-208 -430h-124zM413 553h516l-147 766zM835 1567q-73 0 -122 28.5t-74.5 73t-30.5 93.5h106q7 -17 20.5 -41t40.5 -42t74 -18q64 0 104.5 35t63.5 66h108q-18 -44 -58 -89t-98.5 -75.5t-133.5 -30.5zM831 1788l-138 212
h140l87 -212h-89z" />
    <glyph glyph-name="uni1EB1" unicode="&#x1eb1;" horiz-adv-x="1076" 
d="M351 -20q-95 0 -160.5 35t-95 100t-17.5 156q24 173 144 254.5t364 89.5l199 7l14 91q15 114 -45.5 176.5t-172.5 62.5q-94 -1 -173 -51.5t-109 -149.5h-113q16 80 71 149.5t142.5 111.5t201.5 42q113 0 188.5 -41t108 -116t17.5 -179l-102 -718h-104l19 195
q-78 -126 -175.5 -170.5t-201.5 -44.5zM394 80q55 0 113 21.5t109.5 58.5t86 82.5t41.5 93.5l27 192l-165 -4q-134 -2 -219.5 -27.5t-130.5 -78t-58 -136.5q-12 -95 42 -148.5t154 -53.5zM640 1155q-73 0 -122 28.5t-74.5 73t-30.5 93.5h106q7 -17 20.5 -41t40.5 -42t74 -18
q64 0 104.5 35t63.5 66h108q-18 -44 -58 -89t-98.5 -75.5t-133.5 -30.5zM636 1376l-138 212h140l87 -212h-89z" />
    <glyph glyph-name="uni1EB2" unicode="&#x1eb2;" horiz-adv-x="1330" 
d="M29 0l696 1446h146l283 -1446h-124l-83 430h-586l-208 -430h-124zM413 553h516l-147 766zM801 1567q-73 0 -122 28.5t-74.5 73t-30.5 93.5h106q7 -17 20.5 -41t40.5 -42t74 -18q64 0 104.5 35t63.5 66h108q-18 -44 -58 -89t-98.5 -75.5t-133.5 -30.5zM823 1731l-33 70
q46 29 69 67t9 72q-15 34 -56 32t-86 -30l-33 71q72 44 135 44q84 0 115 -68q34 -70 -0.5 -139t-119.5 -119z" />
    <glyph glyph-name="uni1EB3" unicode="&#x1eb3;" horiz-adv-x="1076" 
d="M351 -20q-95 0 -160.5 35t-95 100t-17.5 156q24 173 144 254.5t364 89.5l199 7l14 91q15 114 -45.5 176.5t-172.5 62.5q-94 -1 -173 -51.5t-109 -149.5h-113q16 80 71 149.5t142.5 111.5t201.5 42q113 0 188.5 -41t108 -116t17.5 -179l-102 -718h-104l19 195
q-78 -126 -175.5 -170.5t-201.5 -44.5zM394 80q55 0 113 21.5t109.5 58.5t86 82.5t41.5 93.5l27 192l-165 -4q-134 -2 -219.5 -27.5t-130.5 -78t-58 -136.5q-12 -95 42 -148.5t154 -53.5zM611 1155q-73 0 -122 28.5t-74.5 73t-30.5 93.5h106q7 -17 20.5 -41t40.5 -42t74 -18
q64 0 104.5 35t63.5 66h108q-18 -44 -58 -89t-98.5 -75.5t-133.5 -30.5zM633 1319l-33 70q46 29 69 67t9 72q-15 34 -56 32t-86 -30l-33 71q72 44 135 44q84 0 115 -68q34 -70 -0.5 -139t-119.5 -119z" />
    <glyph glyph-name="uni1EB4" unicode="&#x1eb4;" horiz-adv-x="1330" 
d="M29 0l696 1446h146l283 -1446h-124l-83 430h-586l-208 -430h-124zM413 553h516l-147 766zM833 1567q-73 0 -122 28.5t-75 73t-30 93.5h106q7 -17 20.5 -41t40.5 -42t74 -18q63 0 103.5 35t64.5 66h108q-19 -44 -58.5 -89t-98 -75.5t-133.5 -30.5zM621 1892l-16 78
q34 29 69 48.5t83 19.5q43 0 77.5 -13l69 -26t75.5 -13q38 0 66 14t58 34l16 -89q-23 -16 -60.5 -33.5t-94.5 -17.5q-47 0 -79.5 12.5t-62.5 24.5t-70 12q-46 0 -74.5 -16.5t-56.5 -34.5z" />
    <glyph glyph-name="uni1EB5" unicode="&#x1eb5;" horiz-adv-x="1076" 
d="M351 -20q-95 0 -160.5 35t-95 100t-17.5 156q24 173 144 254.5t364 89.5l199 7l14 91q15 114 -45.5 176.5t-172.5 62.5q-94 -1 -173 -51.5t-109 -149.5h-113q16 80 71 149.5t142.5 111.5t201.5 42q113 0 188.5 -41t108 -116t17.5 -179l-102 -718h-104l19 195
q-78 -126 -175.5 -170.5t-201.5 -44.5zM394 80q55 0 113 21.5t109.5 58.5t86 82.5t41.5 93.5l27 192l-165 -4q-134 -2 -219.5 -27.5t-130.5 -78t-58 -136.5q-12 -95 42 -148.5t154 -53.5zM633 1155q-73 0 -122 28.5t-75 73t-30 93.5h106q7 -17 20.5 -41t40.5 -42t74 -18
q63 0 103.5 35t64.5 66h108q-19 -44 -58.5 -89t-98 -75.5t-133.5 -30.5zM421 1480l-16 78q34 29 69 48.5t83 19.5q43 0 77.5 -13l69 -26t75.5 -13q38 0 66 14t58 34l16 -89q-23 -16 -60.5 -33.5t-94.5 -17.5q-47 0 -79.5 12.5t-62.5 24.5t-70 12q-46 0 -74.5 -16.5
t-56.5 -34.5z" />
    <glyph glyph-name="uni1EB6" unicode="&#x1eb6;" horiz-adv-x="1330" 
d="M29 0l696 1446h146l283 -1446h-124l-83 430h-586l-208 -430h-124zM413 553h516l-147 766zM480 -337l21 146h128l-20 -146h-129zM811 1567q-73 0 -122 28.5t-74.5 73t-30.5 93.5h106q7 -17 20.5 -41t40.5 -42t74 -18q64 0 104.5 35t63.5 66h108q-18 -44 -58 -89
t-98.5 -75.5t-133.5 -30.5z" />
    <glyph glyph-name="uni1EB7" unicode="&#x1eb7;" horiz-adv-x="1037" 
d="M351 -20q-95 0 -160.5 35t-95 100t-17.5 156q24 173 144 254.5t364 89.5l199 7l14 91q15 114 -45.5 176.5t-172.5 62.5q-94 -1 -173 -51.5t-109 -149.5h-113q16 80 71 149.5t142.5 111.5t201.5 42q113 0 188.5 -41t108 -116t17.5 -179l-102 -718h-104l19 195
q-78 -126 -175.5 -170.5t-201.5 -44.5zM394 80q55 0 113 21.5t109.5 58.5t86 82.5t41.5 93.5l27 192l-165 -4q-134 -2 -219.5 -27.5t-130.5 -78t-58 -136.5q-12 -95 42 -148.5t154 -53.5zM338 -337l21 146h128l-20 -146h-129zM613 1152q-73 0 -122 28.5t-74.5 73t-30.5 93.5
h106q7 -17 20.5 -41t40.5 -42t74 -18q64 0 104.5 35t63.5 66h108q-18 -44 -58 -89t-98.5 -75.5t-133.5 -30.5z" />
    <glyph glyph-name="uni1EB8" unicode="&#x1eb8;" horiz-adv-x="1173" 
d="M134 0l207 1446h808l-17 -116h-689l-77 -541h631l-15 -117h-632l-79 -552l712 -2l-18 -118h-831zM446 -337l21 146h128l-20 -146h-129z" />
    <glyph glyph-name="uni1EB9" unicode="&#x1eb9;" horiz-adv-x="1067" 
d="M479 -20q-131 0 -222 62t-130 180t-15 285q23 168 91.5 291t174 189.5t242.5 66.5q130 0 213 -60.5t115 -173.5t9 -271l-8 -62h-717q-15 -108 5.5 -199.5t83.5 -147t172 -55.5q105 0 187 53.5t114 148.5h117q-33 -102 -100.5 -170.5t-154.5 -102.5t-177 -34zM247 585h597
q15 103 -5 186t-78 131t-157 48q-107 0 -182 -54.5t-119 -138.5t-56 -172zM366 -337l21 146h128l-20 -146h-129z" />
    <glyph glyph-name="uni1EBA" unicode="&#x1eba;" horiz-adv-x="1173" 
d="M134 0l207 1446h808l-17 -116h-689l-77 -541h631l-15 -117h-632l-79 -552l712 -2l-18 -118h-831zM794 1543l-34 70q46 29 69 67t9 72t-55 32t-87 -30l-33 71q84 52 153.5 43.5t97.5 -67.5q34 -70 -1 -139t-119 -119z" />
    <glyph glyph-name="uni1EBB" unicode="&#x1ebb;" horiz-adv-x="1067" 
d="M479 -20q-131 0 -222 62t-130 180t-15 285q23 168 91.5 291t174 189.5t242.5 66.5q130 0 213 -60.5t115 -173.5t9 -271l-8 -62h-717q-15 -108 5.5 -199.5t83.5 -147t172 -55.5q105 0 187 53.5t114 148.5h117q-33 -102 -100.5 -170.5t-154.5 -102.5t-177 -34zM247 585h597
q15 103 -5 186t-78 131t-157 48q-107 0 -182 -54.5t-119 -138.5t-56 -172zM685 1131l-34 70q46 29 69 67t9 72t-55 32t-87 -30l-33 71q84 52 153.5 43.5t97.5 -67.5q34 -70 -1 -139t-119 -119z" />
    <glyph glyph-name="uni1EBC" unicode="&#x1ebc;" horiz-adv-x="1173" 
d="M134 0l207 1446h808l-17 -116h-689l-77 -541h631l-15 -117h-632l-79 -552l712 -2l-18 -118h-831zM526 1649l-16 78q34 30 69 49.5t83 19.5q42 0 77 -13t69.5 -26.5t75.5 -13.5q38 0 66 14t58 34l16 -88q-24 -16 -61 -34t-94 -18q-47 0 -79.5 12.5t-62.5 25t-70 12.5
q-46 0 -74.5 -17t-56.5 -35z" />
    <glyph glyph-name="uni1EBD" unicode="&#x1ebd;" horiz-adv-x="1067" 
d="M479 -20q-131 0 -222 62t-130 180t-15 285q23 168 91.5 291t174 189.5t242.5 66.5q130 0 213 -60.5t115 -173.5t9 -271l-8 -62h-717q-15 -108 5.5 -199.5t83.5 -147t172 -55.5q105 0 187 53.5t114 148.5h117q-33 -102 -100.5 -170.5t-154.5 -102.5t-177 -34zM247 585h597
q15 103 -5 186t-78 131t-157 48q-107 0 -182 -54.5t-119 -138.5t-56 -172zM417 1237l-16 78q34 30 69 49.5t83 19.5q42 0 77 -13t69.5 -26.5t75.5 -13.5q38 0 66 14t58 34l16 -88q-24 -16 -61 -34t-94 -18q-47 0 -79.5 12.5t-62.5 25t-70 12.5q-46 0 -74.5 -17t-56.5 -35z
" />
    <glyph glyph-name="uni1EBE" unicode="&#x1ebe;" horiz-adv-x="1173" 
d="M134 0l207 1446h808l-17 -116h-689l-77 -541h631l-15 -117h-632l-79 -552l712 -2l-18 -118h-831zM482 1567l251 205h89l201 -205h-136l-119 124l-158 -124h-128zM925 1747l115 212h144l-167 -212h-92z" />
    <glyph glyph-name="uni1EBF" unicode="&#x1ebf;" horiz-adv-x="1067" 
d="M479 -20q-131 0 -222 62t-130 180t-15 285q23 168 91.5 291t174 189.5t242.5 66.5q130 0 213 -60.5t115 -173.5t9 -271l-8 -62h-717q-15 -108 5.5 -199.5t83.5 -147t172 -55.5q105 0 187 53.5t114 148.5h117q-33 -102 -100.5 -170.5t-154.5 -102.5t-177 -34zM247 585h597
q15 103 -5 186t-78 131t-157 48q-107 0 -182 -54.5t-119 -138.5t-56 -172zM373 1155l251 205h89l201 -205h-136l-119 124l-158 -124h-128zM816 1335l115 212h144l-167 -212h-92z" />
    <glyph glyph-name="uni1EC0" unicode="&#x1ec0;" horiz-adv-x="1173" 
d="M134 0l207 1446h808l-17 -116h-689l-77 -541h631l-15 -117h-632l-79 -552l712 -2l-18 -118h-831zM477 1567l251 205h89l201 -205h-136l-119 124l-158 -124h-128zM981 1744l-139 212h141l87 -212h-89z" />
    <glyph glyph-name="uni1EC1" unicode="&#x1ec1;" horiz-adv-x="1060" 
d="M479 -20q-131 0 -222 62t-130 180t-15 285q23 168 91.5 291t174 189.5t242.5 66.5q130 0 213 -60.5t115 -173.5t9 -271l-8 -62h-717q-15 -108 5.5 -199.5t83.5 -147t172 -55.5q105 0 187 53.5t114 148.5h117q-33 -102 -100.5 -170.5t-154.5 -102.5t-177 -34zM247 585h597
q15 103 -5 186t-78 131t-157 48q-107 0 -182 -54.5t-119 -138.5t-56 -172zM364 1155l251 205h89l201 -205h-136l-119 124l-158 -124h-128zM868 1332l-139 212h141l87 -212h-89z" />
    <glyph glyph-name="uni1EC2" unicode="&#x1ec2;" horiz-adv-x="1173" 
d="M134 0l207 1446h808l-17 -116h-689l-77 -541h631l-15 -117h-632l-79 -552l712 -2l-18 -118h-831zM460 1567l251 205h89l201 -205h-136l-119 124l-158 -124h-128zM935 1678l-33 70q46 29 69 67t9 72q-15 34 -56 32t-86 -30l-33 71q84 52 153.5 43.5t96.5 -67.5
q34 -70 -0.5 -139t-119.5 -119z" />
    <glyph glyph-name="uni1EC3" unicode="&#x1ec3;" horiz-adv-x="1067" 
d="M479 -20q-131 0 -222 62t-130 180t-15 285q23 168 91.5 291t174 189.5t242.5 66.5q130 0 213 -60.5t115 -173.5t9 -271l-8 -62h-717q-15 -108 5.5 -199.5t83.5 -147t172 -55.5q105 0 187 53.5t114 148.5h117q-33 -102 -100.5 -170.5t-154.5 -102.5t-177 -34zM247 585h597
q15 103 -5 186t-78 131t-157 48q-107 0 -182 -54.5t-119 -138.5t-56 -172zM351 1155l251 205h89l201 -205h-136l-119 124l-158 -124h-128zM826 1266l-33 70q46 29 69 67t9 72q-15 34 -56 32t-86 -30l-33 71q84 52 153.5 43.5t96.5 -67.5q34 -70 -0.5 -139t-119.5 -119z" />
    <glyph glyph-name="uni1EC4" unicode="&#x1ec4;" horiz-adv-x="1173" 
d="M134 0l207 1446h808l-17 -116h-689l-77 -541h631l-15 -117h-632l-79 -552l712 -2l-18 -118h-831zM478 1567l251 205h89l202 -205h-137l-119 124l-158 -124h-128zM553 1885l-16 78q34 29 69 48.5t83 19.5q42 0 77 -13t69.5 -26t75.5 -13q38 0 66 14t57 34l17 -89
q-24 -15 -61 -33t-94 -18q-48 0 -80 12.5t-62 25t-70 12.5q-46 0 -75 -17t-56 -35z" />
    <glyph glyph-name="uni1EC5" unicode="&#x1ec5;" horiz-adv-x="1067" 
d="M479 -20q-131 0 -222 62t-130 180t-15 285q23 168 91.5 291t174 189.5t242.5 66.5q130 0 213 -60.5t115 -173.5t9 -271l-8 -62h-717q-15 -108 5.5 -199.5t83.5 -147t172 -55.5q105 0 187 53.5t114 148.5h117q-33 -102 -100.5 -170.5t-154.5 -102.5t-177 -34zM247 585h597
q15 103 -5 186t-78 131t-157 48q-107 0 -182 -54.5t-119 -138.5t-56 -172zM370 1155l251 205h89l202 -205h-137l-119 124l-158 -124h-128zM445 1473l-16 78q34 29 69 48.5t83 19.5q42 0 77 -13t69.5 -26t75.5 -13q38 0 66 14t57 34l17 -89q-24 -15 -61 -33t-94 -18
q-48 0 -80 12.5t-62 25t-70 12.5q-46 0 -75 -17t-56 -35z" />
    <glyph glyph-name="uni1EC6" unicode="&#x1ec6;" horiz-adv-x="1173" 
d="M134 0l207 1446h808l-17 -116h-689l-77 -541h631l-15 -117h-632l-79 -552l712 -2l-18 -118h-831zM446 -337l21 146h128l-20 -146h-129zM472 1567l251 205h89l201 -205h-136l-119 124l-158 -124h-128z" />
    <glyph glyph-name="uni1EC7" unicode="&#x1ec7;" horiz-adv-x="1067" 
d="M479 -20q-131 0 -222 62t-130 180t-15 285q23 168 91.5 291t174 189.5t242.5 66.5q130 0 213 -60.5t115 -173.5t9 -271l-8 -62h-717q-15 -108 5.5 -199.5t83.5 -147t172 -55.5q105 0 187 53.5t114 148.5h117q-33 -102 -100.5 -170.5t-154.5 -102.5t-177 -34zM247 585h597
q15 103 -5 186t-78 131t-157 48q-107 0 -182 -54.5t-119 -138.5t-56 -172zM366 -337l21 146h128l-20 -146h-129zM364 1155l251 205h89l201 -205h-136l-119 124l-158 -124h-128z" />
    <glyph glyph-name="uni1EC8" unicode="&#x1ec8;" horiz-adv-x="538" 
d="M136 0l204 1446h120l-204 -1446h-120zM470 1543l-34 70q46 29 69 67t9 72t-55 32t-87 -30l-33 71q84 52 153.5 43.5t97.5 -67.5q34 -70 -1 -139t-119 -119z" />
    <glyph glyph-name="uni1EC9" unicode="&#x1ec9;" horiz-adv-x="456" 
d="M96 0l147 1034h120l-148 -1034h-119zM371 1131l-34 70q46 29 69 67t9 72t-55 32t-87 -30l-33 71q84 52 153.5 43.5t97.5 -67.5q34 -70 -1 -139t-119 -119z" />
    <glyph glyph-name="uni1ECA" unicode="&#x1eca;" horiz-adv-x="538" 
d="M136 0l204 1446h120l-204 -1446h-120zM89 -337l21 146h128l-20 -146h-129z" />
    <glyph glyph-name="uni1ECB" unicode="&#x1ecb;" horiz-adv-x="469" 
d="M102 0l146 1034h117l-145 -1034h-118zM278 1295l21 151h130l-20 -151h-131zM50 -337l21 146h128l-20 -146h-129z" />
    <glyph glyph-name="uni1ECC" unicode="&#x1ecc;" horiz-adv-x="1364" 
d="M607 -20q-176 0 -290.5 85t-159 249.5t-10.5 402.5q34 241 126.5 408t232 254t314.5 87q174 0 287 -86t157 -253t10 -407q-34 -238 -125 -403.5t-229 -251t-313 -85.5zM626 97q138 0 243.5 67t174.5 205t99 350q30 214 -0.5 353.5t-116.5 208t-224 68.5
q-206 0 -341 -155.5t-181 -474.5q-30 -211 1.5 -349t119 -205.5t225.5 -67.5zM501 -337l21 146h128l-20 -146h-129z" />
    <glyph glyph-name="uni1ECD" unicode="&#x1ecd;" horiz-adv-x="1062" 
d="M461 -20q-129 0 -218 59.5t-127 178t-14 295.5q22 163 86 284.5t169.5 189t247.5 67.5q129 0 216.5 -60.5t124.5 -180.5t13 -300q-21 -159 -84.5 -279t-166.5 -187t-247 -67zM477 85q94 0 169 49t125 145t68 237q17 126 -2.5 223.5t-79.5 153t-166 55.5
q-97 0 -172.5 -48.5t-125.5 -145t-69 -238.5q-17 -126 3 -223t81.5 -152.5t168.5 -55.5zM325 -337l21 146h128l-20 -146h-129z" />
    <glyph glyph-name="uni1ECE" unicode="&#x1ece;" horiz-adv-x="1364" 
d="M607 -20q-176 0 -290.5 85t-159 249.5t-10.5 402.5q34 241 126.5 408t232 254t314.5 87q174 0 287 -86t157 -253t10 -407q-34 -238 -125 -403.5t-229 -251t-313 -85.5zM626 97q138 0 243.5 67t174.5 205t99 350q30 214 -0.5 353.5t-116.5 208t-224 68.5
q-206 0 -341 -155.5t-181 -474.5q-30 -211 1.5 -349t119 -205.5t225.5 -67.5zM884 1543l-34 70q46 29 69 67t9 72t-55 32t-87 -30l-33 71q84 52 153.5 43.5t97.5 -67.5q34 -70 -1 -139t-119 -119z" />
    <glyph glyph-name="uni1ECF" unicode="&#x1ecf;" horiz-adv-x="1062" 
d="M461 -20q-129 0 -218 59.5t-127 178t-14 295.5q22 163 86 284.5t169.5 189t247.5 67.5q129 0 216.5 -60.5t124.5 -180.5t13 -300q-21 -159 -84.5 -279t-166.5 -187t-247 -67zM477 85q94 0 169 49t125 145t68 237q17 126 -2.5 223.5t-79.5 153t-166 55.5
q-97 0 -172.5 -48.5t-125.5 -145t-69 -238.5q-17 -126 3 -223t81.5 -152.5t168.5 -55.5zM643 1131l-34 70q46 29 69 67t9 72t-55 32t-87 -30l-33 71q84 52 153.5 43.5t97.5 -67.5q34 -70 -1 -139t-119 -119z" />
    <glyph glyph-name="uni1ED0" unicode="&#x1ed0;" horiz-adv-x="1364" 
d="M607 -20q-176 0 -290.5 85t-159 249.5t-10.5 402.5q34 241 126.5 408t232 254t314.5 87q174 0 287 -86t157 -253t10 -407q-34 -238 -125 -403.5t-229 -251t-313 -85.5zM626 97q138 0 243.5 67t174.5 205t99 350q30 214 -0.5 353.5t-116.5 208t-224 68.5
q-206 0 -341 -155.5t-181 -474.5q-30 -211 1.5 -349t119 -205.5t225.5 -67.5zM572 1567l251 205h89l201 -205h-136l-119 124l-158 -124h-128zM1015 1747l115 212h144l-167 -212h-92z" />
    <glyph glyph-name="uni1ED1" unicode="&#x1ed1;" horiz-adv-x="1048" 
d="M461 -20q-129 0 -218 59.5t-127 178t-14 295.5q22 163 86 284.5t169.5 189t247.5 67.5q129 0 216.5 -60.5t124.5 -180.5t13 -300q-21 -159 -84.5 -279t-166.5 -187t-247 -67zM477 85q94 0 169 49t125 145t68 237q17 126 -2.5 223.5t-79.5 153t-166 55.5
q-97 0 -172.5 -48.5t-125.5 -145t-69 -238.5q-17 -126 3 -223t81.5 -152.5t168.5 -55.5zM328 1155l251 205h89l201 -205h-136l-119 124l-158 -124h-128zM771 1335l115 212h144l-167 -212h-92z" />
    <glyph glyph-name="uni1ED2" unicode="&#x1ed2;" horiz-adv-x="1364" 
d="M607 -20q-176 0 -290.5 85t-159 249.5t-10.5 402.5q34 241 126.5 408t232 254t314.5 87q174 0 287 -86t157 -253t10 -407q-34 -238 -125 -403.5t-229 -251t-313 -85.5zM626 97q138 0 243.5 67t174.5 205t99 350q30 214 -0.5 353.5t-116.5 208t-224 68.5
q-206 0 -341 -155.5t-181 -474.5q-30 -211 1.5 -349t119 -205.5t225.5 -67.5zM567 1567l251 205h89l201 -205h-136l-119 124l-158 -124h-128zM1071 1744l-139 212h141l87 -212h-89z" />
    <glyph glyph-name="uni1ED3" unicode="&#x1ed3;" horiz-adv-x="1062" 
d="M461 -20q-129 0 -218 59.5t-127 178t-14 295.5q22 163 86 284.5t169.5 189t247.5 67.5q129 0 216.5 -60.5t124.5 -180.5t13 -300q-21 -159 -84.5 -279t-166.5 -187t-247 -67zM477 85q94 0 169 49t125 145t68 237q17 126 -2.5 223.5t-79.5 153t-166 55.5
q-97 0 -172.5 -48.5t-125.5 -145t-69 -238.5q-17 -126 3 -223t81.5 -152.5t168.5 -55.5zM326 1155l251 205h89l201 -205h-136l-119 124l-158 -124h-128zM830 1332l-139 212h141l87 -212h-89z" />
    <glyph glyph-name="uni1ED4" unicode="&#x1ed4;" horiz-adv-x="1364" 
d="M607 -20q-176 0 -290.5 85t-159 249.5t-10.5 402.5q34 241 126.5 408t232 254t314.5 87q174 0 287 -86t157 -253t10 -407q-34 -238 -125 -403.5t-229 -251t-313 -85.5zM626 97q138 0 243.5 67t174.5 205t99 350q30 214 -0.5 353.5t-116.5 208t-224 68.5
q-206 0 -341 -155.5t-181 -474.5q-30 -211 1.5 -349t119 -205.5t225.5 -67.5zM550 1567l251 205h89l201 -205h-136l-119 124l-158 -124h-128zM1025 1678l-33 70q46 29 69 67t9 72q-15 34 -56 32t-86 -30l-33 71q84 52 153.5 43.5t96.5 -67.5q34 -70 -0.5 -139t-119.5 -119z
" />
    <glyph glyph-name="uni1ED5" unicode="&#x1ed5;" horiz-adv-x="1062" 
d="M461 -20q-129 0 -218 59.5t-127 178t-14 295.5q22 163 86 284.5t169.5 189t247.5 67.5q129 0 216.5 -60.5t124.5 -180.5t13 -300q-21 -159 -84.5 -279t-166.5 -187t-247 -67zM477 85q94 0 169 49t125 145t68 237q17 126 -2.5 223.5t-79.5 153t-166 55.5
q-97 0 -172.5 -48.5t-125.5 -145t-69 -238.5q-17 -126 3 -223t81.5 -152.5t168.5 -55.5zM309 1155l251 205h89l201 -205h-136l-119 124l-158 -124h-128zM784 1266l-33 70q46 29 69 67t9 72q-15 34 -56 32t-86 -30l-33 71q84 52 153.5 43.5t96.5 -67.5q34 -70 -0.5 -139
t-119.5 -119z" />
    <glyph glyph-name="uni1ED6" unicode="&#x1ed6;" horiz-adv-x="1364" 
d="M607 -20q-176 0 -290.5 85t-159 249.5t-10.5 402.5q34 241 126.5 408t232 254t314.5 87q174 0 287 -86t157 -253t10 -407q-34 -238 -125 -403.5t-229 -251t-313 -85.5zM626 97q138 0 243.5 67t174.5 205t99 350q30 214 -0.5 353.5t-116.5 208t-224 68.5
q-206 0 -341 -155.5t-181 -474.5q-30 -211 1.5 -349t119 -205.5t225.5 -67.5zM568 1567l251 205h89l202 -205h-137l-119 124l-158 -124h-128zM643 1885l-16 78q34 29 69 48.5t83 19.5q42 0 77 -13t69.5 -26t75.5 -13q38 0 66 14t57 34l17 -89q-24 -15 -61 -33t-94 -18
q-48 0 -80 12.5t-62 25t-70 12.5q-46 0 -75 -17t-56 -35z" />
    <glyph glyph-name="uni1ED7" unicode="&#x1ed7;" horiz-adv-x="1062" 
d="M461 -20q-129 0 -218 59.5t-127 178t-14 295.5q22 163 86 284.5t169.5 189t247.5 67.5q129 0 216.5 -60.5t124.5 -180.5t13 -300q-21 -159 -84.5 -279t-166.5 -187t-247 -67zM477 85q94 0 169 49t125 145t68 237q17 126 -2.5 223.5t-79.5 153t-166 55.5
q-97 0 -172.5 -48.5t-125.5 -145t-69 -238.5q-17 -126 3 -223t81.5 -152.5t168.5 -55.5zM328 1155l251 205h89l202 -205h-137l-119 124l-158 -124h-128zM403 1473l-16 78q34 29 69 48.5t83 19.5q42 0 77 -13t69.5 -26t75.5 -13q38 0 66 14t57 34l17 -89q-24 -15 -61 -33
t-94 -18q-48 0 -80 12.5t-62 25t-70 12.5q-46 0 -75 -17t-56 -35z" />
    <glyph glyph-name="uni1ED8" unicode="&#x1ed8;" horiz-adv-x="1364" 
d="M607 -20q-176 0 -290.5 85t-159 249.5t-10.5 402.5q34 241 126.5 408t232 254t314.5 87q174 0 287 -86t157 -253t10 -407q-34 -238 -125 -403.5t-229 -251t-313 -85.5zM626 97q138 0 243.5 67t174.5 205t99 350q30 214 -0.5 353.5t-116.5 208t-224 68.5
q-206 0 -341 -155.5t-181 -474.5q-30 -211 1.5 -349t119 -205.5t225.5 -67.5zM501 -337l21 146h128l-20 -146h-129zM562 1567l251 205h89l201 -205h-136l-119 124l-158 -124h-128z" />
    <glyph glyph-name="uni1ED9" unicode="&#x1ed9;" horiz-adv-x="1062" 
d="M461 -20q-129 0 -218 59.5t-127 178t-14 295.5q22 163 86 284.5t169.5 189t247.5 67.5q129 0 216.5 -60.5t124.5 -180.5t13 -300q-21 -159 -84.5 -279t-166.5 -187t-247 -67zM477 85q94 0 169 49t125 145t68 237q17 126 -2.5 223.5t-79.5 153t-166 55.5
q-97 0 -172.5 -48.5t-125.5 -145t-69 -238.5q-17 -126 3 -223t81.5 -152.5t168.5 -55.5zM325 -337l21 146h128l-20 -146h-129zM322 1155l251 205h89l201 -205h-136l-119 124l-158 -124h-128z" />
    <glyph glyph-name="uni1EDA" unicode="&#x1eda;" horiz-adv-x="1466" 
d="M607 -20q-176 0 -290.5 85t-159 249.5t-10.5 402.5q34 241 126.5 408t232 254t314.5 87q127 0 222 -46.5t155 -136.5q51 0 85 15t56 56.5t36 118.5h109q-13 -91 -43 -152.5t-78.5 -93.5t-118.5 -35q35 -90 43.5 -208t-12.5 -264q-34 -238 -125 -403.5t-229 -251
t-313 -85.5zM626 97q138 0 243.5 67t174.5 205t99 350q30 214 -0.5 353.5t-116.5 208t-224 68.5q-206 0 -341 -155.5t-181 -474.5q-30 -211 1.5 -349t119 -205.5t225.5 -67.5zM760 1567l231 291h154l-283 -291h-102z" />
    <glyph glyph-name="uni1EDB" unicode="&#x1edb;" horiz-adv-x="1120" 
d="M566 1155l231 291h154l-283 -291h-102zM461 -20q-129 0 -218 59.5t-127 178t-14 295.5q22 163 86 284.5t169.5 189t247.5 67.5q94 0 167.5 -32.5t119.5 -97.5q69 2 106 41.5t56 148.5h109q-19 -133 -73.5 -202.5t-151.5 -78.5q23 -61 28.5 -140.5t-7.5 -179.5
q-21 -159 -84.5 -279t-166.5 -187t-247 -67zM477 85q94 0 169 49t125 145t68 237q17 126 -2.5 223.5t-79.5 153t-166 55.5q-97 0 -172.5 -48.5t-125.5 -145t-69 -238.5q-17 -126 3 -223t81.5 -152.5t168.5 -55.5z" />
    <glyph glyph-name="uni1EDC" unicode="&#x1edc;" horiz-adv-x="1466" 
d="M607 -20q-176 0 -290.5 85t-159 249.5t-10.5 402.5q34 241 126.5 408t232 254t314.5 87q127 0 222 -46.5t155 -136.5q51 0 85 15t56 56.5t36 118.5h109q-13 -91 -43 -152.5t-78.5 -93.5t-118.5 -35q35 -90 43.5 -208t-12.5 -264q-34 -238 -125 -403.5t-229 -251
t-313 -85.5zM626 97q138 0 243.5 67t174.5 205t99 350q30 214 -0.5 353.5t-116.5 208t-224 68.5q-206 0 -341 -155.5t-181 -474.5q-30 -211 1.5 -349t119 -205.5t225.5 -67.5zM791 1567l-224 291h146l171 -291h-93z" />
    <glyph glyph-name="uni1EDD" unicode="&#x1edd;" horiz-adv-x="1127" 
d="M578 1155l-224 291h146l171 -291h-93zM468 -20q-129 0 -218 59.5t-127 178t-14 295.5q22 163 86 284.5t169.5 189t247.5 67.5q94 0 167.5 -32.5t119.5 -97.5q69 2 106 41.5t56 148.5h109q-19 -133 -73.5 -202.5t-151.5 -78.5q23 -61 28.5 -140.5t-7.5 -179.5
q-21 -159 -84.5 -279t-166.5 -187t-247 -67zM484 85q94 0 169 49t125 145t68 237q17 126 -2.5 223.5t-79.5 153t-166 55.5q-97 0 -172.5 -48.5t-125.5 -145t-69 -238.5q-17 -126 3 -223t81.5 -152.5t168.5 -55.5z" />
    <glyph glyph-name="uni1EDE" unicode="&#x1ede;" horiz-adv-x="1466" 
d="M607 -20q-176 0 -290.5 85t-159 249.5t-10.5 402.5q34 241 126.5 408t232 254t314.5 87q127 0 222 -46.5t155 -136.5q51 0 85 15t56 56.5t36 118.5h109q-13 -91 -43 -152.5t-78.5 -93.5t-118.5 -35q35 -90 43.5 -208t-12.5 -264q-34 -238 -125 -403.5t-229 -251
t-313 -85.5zM626 97q138 0 243.5 67t174.5 205t99 350q30 214 -0.5 353.5t-116.5 208t-224 68.5q-206 0 -341 -155.5t-181 -474.5q-30 -211 1.5 -349t119 -205.5t225.5 -67.5zM884 1543l-34 70q46 29 69 67t9 72t-55 32t-87 -30l-33 71q84 52 153.5 43.5t97.5 -67.5
q34 -70 -1 -139t-119 -119z" />
    <glyph glyph-name="uni1EDF" unicode="&#x1edf;" horiz-adv-x="1120" 
d="M671 1131l-34 70q46 29 69 67t9 72t-55 32t-87 -30l-33 71q84 52 153.5 43.5t97.5 -67.5q34 -70 -1 -139t-119 -119zM461 -20q-129 0 -218 59.5t-127 178t-14 295.5q22 163 86 284.5t169.5 189t247.5 67.5q94 0 167.5 -32.5t119.5 -97.5q69 2 106 41.5t56 148.5h109
q-19 -133 -73.5 -202.5t-151.5 -78.5q23 -61 28.5 -140.5t-7.5 -179.5q-21 -159 -84.5 -279t-166.5 -187t-247 -67zM477 85q94 0 169 49t125 145t68 237q17 126 -2.5 223.5t-79.5 153t-166 55.5q-97 0 -172.5 -48.5t-125.5 -145t-69 -238.5q-17 -126 3 -223t81.5 -152.5
t168.5 -55.5z" />
    <glyph glyph-name="uni1EE0" unicode="&#x1ee0;" horiz-adv-x="1466" 
d="M607 -20q-176 0 -290.5 85t-159 249.5t-10.5 402.5q34 241 126.5 408t232 254t314.5 87q127 0 222 -46.5t155 -136.5q51 0 85 15t56 56.5t36 118.5h109q-13 -91 -43 -152.5t-78.5 -93.5t-118.5 -35q35 -90 43.5 -208t-12.5 -264q-34 -238 -125 -403.5t-229 -251
t-313 -85.5zM626 97q138 0 243.5 67t174.5 205t99 350q30 214 -0.5 353.5t-116.5 208t-224 68.5q-206 0 -341 -155.5t-181 -474.5q-30 -211 1.5 -349t119 -205.5t225.5 -67.5zM615 1649l-16 78q34 30 69 49.5t83 19.5q42 0 77 -13t69.5 -26.5t75.5 -13.5q38 0 66 14t58 34
l16 -88q-24 -16 -61 -34t-94 -18q-47 0 -79.5 12.5t-62.5 25t-70 12.5q-46 0 -74.5 -17t-56.5 -35z" />
    <glyph glyph-name="uni1EE1" unicode="&#x1ee1;" horiz-adv-x="1120" 
d="M404 1237l-16 78q34 30 69 49.5t83 19.5q42 0 77 -13t69.5 -26.5t75.5 -13.5q38 0 66 14t58 34l16 -88q-24 -16 -61 -34t-94 -18q-47 0 -79.5 12.5t-62.5 25t-70 12.5q-46 0 -74.5 -17t-56.5 -35zM461 -20q-129 0 -218 59.5t-127 178t-14 295.5q22 163 86 284.5
t169.5 189t247.5 67.5q94 0 167.5 -32.5t119.5 -97.5q69 2 106 41.5t56 148.5h109q-19 -133 -73.5 -202.5t-151.5 -78.5q23 -61 28.5 -140.5t-7.5 -179.5q-21 -159 -84.5 -279t-166.5 -187t-247 -67zM477 85q94 0 169 49t125 145t68 237q17 126 -2.5 223.5t-79.5 153
t-166 55.5q-97 0 -172.5 -48.5t-125.5 -145t-69 -238.5q-17 -126 3 -223t81.5 -152.5t168.5 -55.5z" />
    <glyph glyph-name="uni1EE2" unicode="&#x1ee2;" horiz-adv-x="1466" 
d="M607 -20q-176 0 -290.5 85t-159 249.5t-10.5 402.5q34 241 126.5 408t232 254t314.5 87q127 0 222 -46.5t155 -136.5q51 0 85 15t56 56.5t36 118.5h109q-13 -91 -43 -152.5t-78.5 -93.5t-118.5 -35q35 -90 43.5 -208t-12.5 -264q-34 -238 -125 -403.5t-229 -251
t-313 -85.5zM626 97q138 0 243.5 67t174.5 205t99 350q30 214 -0.5 353.5t-116.5 208t-224 68.5q-206 0 -341 -155.5t-181 -474.5q-30 -211 1.5 -349t119 -205.5t225.5 -67.5zM501 -337l21 146h128l-20 -146h-129z" />
    <glyph glyph-name="uni1EE3" unicode="&#x1ee3;" horiz-adv-x="1120" 
d="M338 -337l21 146h128l-20 -146h-129zM461 -20q-129 0 -218 59.5t-127 178t-14 295.5q22 163 86 284.5t169.5 189t247.5 67.5q94 0 167.5 -32.5t119.5 -97.5q69 2 106 41.5t56 148.5h109q-19 -133 -73.5 -202.5t-151.5 -78.5q23 -61 28.5 -140.5t-7.5 -179.5
q-21 -159 -84.5 -279t-166.5 -187t-247 -67zM477 85q94 0 169 49t125 145t68 237q17 126 -2.5 223.5t-79.5 153t-166 55.5q-97 0 -172.5 -48.5t-125.5 -145t-69 -238.5q-17 -126 3 -223t81.5 -152.5t168.5 -55.5z" />
    <glyph glyph-name="uni1EE4" unicode="&#x1ee4;" horiz-adv-x="1309" 
d="M598 -20q-163 0 -258 57t-127.5 172t-7.5 287l134 950h126l-139 -981q-18 -122 8.5 -205t96.5 -124.5t183 -41.5q171 0 273 92.5t128 278.5l139 981h119l-138 -975q-22 -162 -88 -271t-177 -164.5t-272 -55.5zM487 -334l21 146h128l-20 -146h-129z" />
    <glyph glyph-name="uni1EE5" unicode="&#x1ee5;" horiz-adv-x="1096" 
d="M448 -20q-80 1 -145 23.5t-109 67t-62.5 112t-5.5 157.5l96 694h121l-97 -686q-17 -117 39.5 -189.5t192.5 -72.5q122 0 205.5 68t102.5 208l95 672h119l-145 -1034h-100l16 193q-27 -70 -74.5 -117.5t-110.5 -72t-138 -23.5zM354 -337l21 146h128l-20 -146h-129z" />
    <glyph glyph-name="uni1EE6" unicode="&#x1ee6;" horiz-adv-x="1309" 
d="M598 -20q-163 0 -258 57t-127.5 172t-7.5 287l134 950h126l-139 -981q-18 -122 8.5 -205t96.5 -124.5t183 -41.5q171 0 273 92.5t128 278.5l139 981h119l-138 -975q-22 -162 -88 -271t-177 -164.5t-272 -55.5zM876 1543l-34 70q46 29 69 67t9 72t-55 32t-87 -30l-33 71
q84 52 153.5 43.5t97.5 -67.5q34 -70 -1 -139t-119 -119z" />
    <glyph glyph-name="uni1EE7" unicode="&#x1ee7;" horiz-adv-x="1096" 
d="M448 -20q-80 1 -145 23.5t-109 67t-62.5 112t-5.5 157.5l96 694h121l-97 -686q-17 -117 39.5 -189.5t192.5 -72.5q122 0 205.5 68t102.5 208l95 672h119l-145 -1034h-100l16 193q-27 -70 -74.5 -117.5t-110.5 -72t-138 -23.5zM680 1131l-34 70q46 29 69 67t9 72t-55 32
t-87 -30l-33 71q84 52 153.5 43.5t97.5 -67.5q34 -70 -1 -139t-119 -119z" />
    <glyph glyph-name="uni1EE8" unicode="&#x1ee8;" horiz-adv-x="1481" 
d="M1203 1193l13 89q40 -1 70.5 6.5t52 28t36.5 58t26 97.5h109q-15 -105 -52 -170.5t-100 -92t-155 -16.5zM598 -20q-163 0 -258 57t-127.5 172t-7.5 287l134 950h126l-139 -981q-18 -122 8.5 -205t96.5 -124.5t183 -41.5q171 0 273 92.5t128 278.5l139 981h119l-138 -975
q-22 -162 -88 -271t-177 -164.5t-272 -55.5zM769 1567l230 291h155l-283 -291h-102z" />
    <glyph glyph-name="uni1EE9" unicode="&#x1ee9;" horiz-adv-x="1159" 
d="M932 835l13 88q41 -1 71 6.5t51.5 28t37 58.5t25.5 98h109q-15 -106 -52 -171.5t-99.5 -92t-155.5 -15.5zM449 -20q-80 1 -145 23.5t-109 67t-62.5 112t-6.5 157.5l97 694h121l-97 -686q-17 -117 39 -189.5t193 -72.5q122 0 205.5 68t102.5 208l95 672h119l-146 -1034
h-99l16 193q-27 -70 -74.5 -117.5t-110.5 -72t-138 -23.5zM572 1155l231 291h154l-283 -291h-102z" />
    <glyph glyph-name="uni1EEA" unicode="&#x1eea;" horiz-adv-x="1481" 
d="M1203 1193l13 89q40 -1 70.5 6.5t52 28t36.5 58t26 97.5h109q-15 -105 -52 -170.5t-100 -92t-155 -16.5zM598 -20q-163 0 -258 57t-127.5 172t-7.5 287l134 950h126l-139 -981q-18 -122 8.5 -205t96.5 -124.5t183 -41.5q171 0 273 92.5t128 278.5l139 981h119l-138 -975
q-22 -162 -88 -271t-177 -164.5t-272 -55.5zM782 1567l-223 291h146l171 -291h-94z" />
    <glyph glyph-name="uni1EEB" unicode="&#x1eeb;" horiz-adv-x="1176" 
d="M594 1155l-224 291h146l171 -291h-93zM453 -20q-80 1 -145 23.5t-109.5 67t-62.5 112t-6 157.5l97 694h121l-97 -686q-17 -117 39 -189.5t193 -72.5q122 0 205.5 68t102.5 208l95 672h119l-15 -111q44 2 74.5 19.5t50 58t32.5 113.5h109q-14 -99 -48 -163.5t-91 -94
t-140 -24.5l-118 -832h-99l16 193q-27 -70 -74.5 -117.5t-110.5 -72t-138 -23.5z" />
    <glyph glyph-name="uni1EEC" unicode="&#x1eec;" horiz-adv-x="1481" 
d="M1203 1193l13 89q40 -1 70.5 6.5t52 28t36.5 58t26 97.5h109q-15 -105 -52 -170.5t-100 -92t-155 -16.5zM598 -20q-163 0 -258 57t-127.5 172t-7.5 287l134 950h126l-139 -981q-18 -122 8.5 -205t96.5 -124.5t183 -41.5q171 0 273 92.5t128 278.5l139 981h119l-138 -975
q-22 -162 -88 -271t-177 -164.5t-272 -55.5zM874 1543l-33 71q46 29 69 66.5t9 71.5q-15 35 -56 33t-86 -31l-33 72q84 52 153 43.5t97 -67.5q34 -70 -0.5 -139t-119.5 -120z" />
    <glyph glyph-name="uni1EED" unicode="&#x1eed;" horiz-adv-x="1172" 
d="M690 1131l-34 70q46 29 69 67t9 72t-55 32t-87 -30l-33 71q84 52 153.5 43.5t97.5 -67.5q34 -70 -1 -139t-119 -119zM449 -20q-80 1 -145 23.5t-109.5 67t-62.5 112t-6 157.5l97 694h121l-97 -686q-17 -117 39 -189.5t193 -72.5q122 0 205.5 68t102.5 208l95 672h119
l-15 -111q44 2 74.5 19.5t50 58t32.5 113.5h109q-14 -99 -48 -163.5t-91 -94t-140 -24.5l-118 -832h-99l16 193q-27 -70 -74.5 -117.5t-110.5 -72t-138 -23.5z" />
    <glyph glyph-name="uni1EEE" unicode="&#x1eee;" horiz-adv-x="1480" 
d="M1203 1193l13 89q40 -1 70.5 6.5t52 28t36.5 58t26 97.5h109q-15 -105 -52 -170.5t-100 -92t-155 -16.5zM598 -20q-163 0 -258 57t-127.5 172t-7.5 287l134 950h126l-139 -981q-18 -122 8.5 -205t96.5 -124.5t183 -41.5q171 0 273 92.5t128 278.5l139 981h119l-138 -975
q-22 -162 -88 -271t-177 -164.5t-272 -55.5zM607 1649l-16 78q35 30 69.5 49.5t82.5 19.5q43 0 77.5 -13t69 -26.5t75.5 -13.5q39 0 67 14t57 34l17 -88q-24 -16 -61.5 -34t-93.5 -18q-48 0 -80.5 12.5t-62.5 25t-70 12.5q-45 0 -74 -17t-57 -35z" />
    <glyph glyph-name="uni1EEF" unicode="&#x1eef;" horiz-adv-x="1172" 
d="M422 1237l-16 78q34 30 69 49.5t83 19.5q42 0 77 -13t69.5 -26.5t75.5 -13.5q38 0 66 14t58 34l16 -88q-24 -16 -61 -34t-94 -18q-47 0 -79.5 12.5t-62.5 25t-70 12.5q-46 0 -74.5 -17t-56.5 -35zM449 -20q-80 1 -145 23.5t-109.5 67t-62.5 112t-6 157.5l97 694h121
l-97 -686q-17 -117 39 -189.5t193 -72.5q122 0 205.5 68t102.5 208l95 672h119l-15 -111q44 2 74.5 19.5t50 58t32.5 113.5h109q-14 -99 -48 -163.5t-91 -94t-140 -24.5l-118 -832h-99l16 193q-27 -70 -74.5 -117.5t-110.5 -72t-138 -23.5z" />
    <glyph glyph-name="uni1EF0" unicode="&#x1ef0;" horiz-adv-x="1481" 
d="M1203 1193l13 89q40 -1 70.5 6.5t52 28t36.5 58t26 97.5h109q-15 -105 -52 -170.5t-100 -92t-155 -16.5zM598 -20q-163 0 -258 57t-127.5 172t-7.5 287l134 950h126l-139 -981q-18 -122 8.5 -205t96.5 -124.5t183 -41.5q171 0 273 92.5t128 278.5l139 981h119l-138 -975
q-22 -162 -88 -271t-177 -164.5t-272 -55.5zM480 -334l20 146h128l-20 -146h-128z" />
    <glyph glyph-name="uni1EF1" unicode="&#x1ef1;" horiz-adv-x="1172" 
d="M358 -337l21 146h128l-20 -146h-129zM449 -20q-80 1 -145 23.5t-109.5 67t-62.5 112t-6 157.5l97 694h121l-97 -686q-17 -117 39 -189.5t193 -72.5q122 0 205.5 68t102.5 208l95 672h119l-15 -111q44 2 74.5 19.5t50 58t32.5 113.5h109q-14 -99 -48 -163.5t-91 -94
t-140 -24.5l-118 -832h-99l16 193q-27 -70 -74.5 -117.5t-110.5 -72t-138 -23.5z" />
    <glyph glyph-name="Ygrave" unicode="&#x1ef2;" horiz-adv-x="1076" 
d="M407 0l86 621l-335 825h130l283 -709l477 709h132l-566 -827l-89 -619h-118zM642 1570l-224 291h146l171 -291h-93z" />
    <glyph glyph-name="ygrave" unicode="&#x1ef3;" horiz-adv-x="978" 
d="M106 -330q-76 0 -102 10l-26 10l13 83l101 -1q65 -1 106 16.5t66 45.5t41 60l59 120l-232 1020h123l190 -868l431 868h116l-577 -1152q-42 -80 -90 -126.5t-102.5 -66t-116.5 -19.5zM540 1155l-224 291h146l171 -291h-93z" />
    <glyph glyph-name="uni1EF4" unicode="&#x1ef4;" horiz-adv-x="1076" 
d="M407 0l86 621l-335 825h130l283 -709l477 709h132l-566 -827l-89 -619h-118zM355 -337l21 146h128l-20 -146h-129z" />
    <glyph glyph-name="uni1EF5" unicode="&#x1ef5;" horiz-adv-x="978" 
d="M106 -330q-76 0 -102 10l-26 10l13 83l101 -1q65 -1 106 16.5t66 45.5t41 60l59 120l-232 1020h123l190 -868l431 868h116l-577 -1152q-42 -80 -90 -126.5t-102.5 -66t-116.5 -19.5zM566 -341l21 146h128l-20 -146h-129z" />
    <glyph glyph-name="uni1EF6" unicode="&#x1ef6;" horiz-adv-x="1076" 
d="M407 0l86 621l-335 825h130l283 -709l477 709h132l-566 -827l-89 -619h-118zM734 1546l-34 70q46 29 69 67t9 72t-55 32t-87 -30l-33 71q84 52 153.5 43.5t97.5 -67.5q34 -70 -1 -139t-119 -119z" />
    <glyph glyph-name="uni1EF7" unicode="&#x1ef7;" horiz-adv-x="978" 
d="M106 -330q-76 0 -102 10l-26 10l13 83l101 -1q65 -1 106 16.5t66 45.5t41 60l59 120l-232 1020h123l190 -868l431 868h116l-577 -1152q-42 -80 -90 -126.5t-102.5 -66t-116.5 -19.5zM633 1131l-34 70q46 29 69 67t9 72t-55 32t-87 -30l-33 71q84 52 153.5 43.5
t97.5 -67.5q34 -70 -1 -139t-119 -119z" />
    <glyph glyph-name="uni1EF8" unicode="&#x1ef8;" horiz-adv-x="1076" 
d="M407 0l86 621l-335 825h130l283 -709l477 709h132l-566 -827l-89 -619h-118zM466 1652l-16 78q34 30 69 49.5t83 19.5q42 0 77 -13t69.5 -26.5t75.5 -13.5q38 0 66 14t58 34l16 -88q-24 -16 -61 -34t-94 -18q-47 0 -79.5 12.5t-62.5 25t-70 12.5q-46 0 -74.5 -17
t-56.5 -35z" />
    <glyph glyph-name="uni1EF9" unicode="&#x1ef9;" horiz-adv-x="978" 
d="M106 -330q-76 0 -102 10l-26 10l13 83l101 -1q65 -1 106 16.5t66 45.5t41 60l59 120l-232 1020h123l190 -868l431 868h116l-577 -1152q-42 -80 -90 -126.5t-102.5 -66t-116.5 -19.5zM364 1237l-16 78q34 30 69 49.5t83 19.5q42 0 77 -13t69.5 -26.5t75.5 -13.5
q38 0 66 14t58 34l16 -88q-24 -16 -61 -34t-94 -18q-47 0 -79.5 12.5t-62.5 25t-70 12.5q-46 0 -74.5 -17t-56.5 -35z" />
    <glyph glyph-name="endash" unicode="&#x2013;" horiz-adv-x="1016" 
d="M117 449l15 108l763 2l-14 -108z" />
    <glyph glyph-name="emdash" unicode="&#x2014;" horiz-adv-x="2199" 
d="M367 449l15 108l1446 2l-15 -108z" />
    <glyph glyph-name="quoteleft" unicode="&#x2018;" horiz-adv-x="452" 
d="M201 1079l23 161l189 261h73l-140 -235l75 -2l-26 -185h-194z" />
    <glyph glyph-name="quoteright" unicode="&#x2019;" horiz-adv-x="429" 
d="M171 1025l141 234l-76 2l26 185h194l-23 -160l-189 -261h-73z" />
    <glyph glyph-name="quotesinglbase" unicode="&#x201a;" horiz-adv-x="434" 
d="M-23 -234l134 233l-73 2l26 187h189l-23 -161l-181 -261h-72z" />
    <glyph glyph-name="quotedblleft" unicode="&#x201c;" horiz-adv-x="780" 
d="M526 1055l23 162l189 264h73l-140 -237l75 -3l-26 -186h-194zM198 1055l23 162l190 264h72l-140 -237l76 -3l-27 -186h-194z" />
    <glyph glyph-name="quotedblright" unicode="&#x201d;" horiz-adv-x="744" 
d="M486 1025l141 234l-76 2l26 185h194l-23 -160l-189 -261h-73zM171 1025l141 234l-76 2l26 185h194l-23 -160l-189 -261h-73z" />
    <glyph glyph-name="quotedblbase" unicode="&#x201e;" horiz-adv-x="759" 
d="M302 -234l134 233l-73 2l26 187h189l-23 -161l-181 -261h-72zM-23 -234l134 233l-73 2l26 187h189l-23 -161l-181 -261h-72z" />
    <glyph glyph-name="dagger" unicode="&#x2020;" horiz-adv-x="790" 
d="M208 -322l186 1138l-340 -18l18 127l329 -16l57 537h136l-96 -537l333 16l-19 -127l-335 18l-134 -1138h-135z" />
    <glyph glyph-name="daggerdbl" unicode="&#x2021;" horiz-adv-x="792" 
d="M209 -322l94 531l-335 -16l20 129l335 -20l71 508l-339 -18l17 127l330 -16l58 543h136l-97 -543l333 16l-19 -127l-334 18l-71 -508l339 20l-19 -129l-328 16l-55 -531h-136z" />
    <glyph glyph-name="bullet" unicode="&#x2022;" horiz-adv-x="595" 
d="M326 570q-46 0 -83 22.5t-59 60t-22 83.5q0 45 22 82.5t59 59.5t83 22t83.5 -22t59 -59t21.5 -83t-21.5 -83.5t-59 -60t-83.5 -22.5z" />
    <glyph glyph-name="ellipsis" unicode="&#x2026;" horiz-adv-x="1384" 
d="M1034 0l28 190h156l-27 -190h-157zM42 0l28 190h156l-27 -190h-157zM538 0l28 190h156l-27 -190h-157z" />
    <glyph glyph-name="perthousand" unicode="&#x2030;" horiz-adv-x="2370" 
d="M329 -8l-91 1l1118 1469h90zM435 640q-76 0 -133 38t-88.5 108t-31.5 168q0 85 22 175t67.5 166.5t115 124.5t164.5 48q76 0 132 -37.5t87 -107.5t31 -168q0 -84 -21.5 -174.5t-67 -167.5t-114 -125t-163.5 -48zM444 718q70 0 120.5 44t82 111.5t46.5 141t15 132.5
q0 110 -39.5 176.5t-130.5 66.5q-69 0 -118.5 -43.5t-82 -110.5t-48 -140.5t-15.5 -131.5q0 -110 39.5 -178t130.5 -68zM1151 -20q-76 0 -133 37.5t-88.5 108t-31.5 168.5q0 88 23 178.5t69 166.5t115.5 122.5t161.5 46.5q76 0 132 -37.5t87.5 -107t31.5 -168.5
q0 -84 -22 -174.5t-67 -167.5t-114 -125t-164 -48zM1160 58q70 0 120.5 44t82 111.5t46.5 140.5t15 133q0 110 -39.5 176.5t-130.5 66.5q-68 0 -118 -43.5t-82.5 -111t-47.5 -140.5t-15 -131q0 -110 39 -178t130 -68zM1876 -20q-76 0 -133 37.5t-88.5 108t-31.5 168.5
q0 88 22.5 178.5t69 166.5t115.5 122.5t161 46.5q77 0 133 -37.5t87 -107t31 -168.5q0 -84 -22 -174.5t-67 -167.5t-114 -125t-163 -48zM1884 58q71 0 121 44t81.5 111.5t46.5 141t15 133.5q0 110 -39.5 176t-129.5 66q-69 0 -119 -43.5t-82 -110.5t-47.5 -140t-15.5 -131
q0 -111 39 -179t130 -68z" />
    <glyph glyph-name="guilsinglleft" unicode="&#x2039;" horiz-adv-x="498" 
d="M272 147l-205 355l311 371h73l-260 -371l154 -355h-73z" />
    <glyph glyph-name="guilsinglright" unicode="&#x203a;" horiz-adv-x="497" 
d="M49 147l254 355l-154 371h72l205 -371l-308 -355h-69z" />
    <glyph glyph-name="fraction" unicode="&#x2044;" horiz-adv-x="389" 
d="M-284 -8l-92 1l1119 1469h89z" />
    <glyph glyph-name="uni2070" unicode="&#x2070;" horiz-adv-x="692" 
d="M351 752q-133 0 -195.5 116t-29.5 348q32 237 129 354.5t228 117.5t194.5 -116.5t30.5 -352.5q-34 -235 -129.5 -351t-227.5 -116zM362 825q100 0 166 93t95 301q30 210 -11 304t-139 94t-167 -94.5t-98 -303.5q-29 -207 13.5 -300.5t140.5 -93.5z" />
    <glyph glyph-name="uni2074" unicode="&#x2074;" horiz-adv-x="720" 
d="M456 760l35 250h-403l12 81l480 579h80l-82 -586h145l-11 -74h-146l-35 -250h-75zM174 1084h325l67 471z" />
    <glyph glyph-name="uni2075" unicode="&#x2075;" horiz-adv-x="723" 
d="M376 746q-113 0 -190 68t-92 176l76 19q17 -85 71.5 -138.5t143.5 -53.5q98 0 167 63.5t84 175.5q15 105 -39 165.5t-137 60.5q-59 0 -110 -19t-111 -87h-3t-3 1l-71 13l105 480h489l-12 -73h-417l-72 -335q47 50 104.5 70.5t120.5 20.5q73 0 132 -33.5t89.5 -99
t16.5 -162.5q-19 -140 -113 -226t-229 -86z" />
    <glyph glyph-name="uni2076" unicode="&#x2076;" horiz-adv-x="701" 
d="M371 756q-142 0 -209.5 120t-36.5 336q30 218 129 349t258 131q66 0 118 -26.5t83 -76t33 -119.5h-73q-8 68 -52 110t-118 42q-124 0 -202.5 -112t-99.5 -337q33 83 104 135t155 52q124 0 189.5 -77t45.5 -216q-12 -92 -55.5 -162t-112.5 -109.5t-156 -39.5zM382 827
q88 0 151.5 65t78.5 171q16 104 -25.5 165t-141.5 61q-53 0 -104 -26.5t-86.5 -71.5t-43.5 -102q-18 -112 29 -187t142 -75z" />
    <glyph glyph-name="uni2077" unicode="&#x2077;" horiz-adv-x="650" 
d="M204 760q28 89 90.5 227t154 298t207.5 312h-486l11 73h575l-12 -73q-72 -92 -145 -208t-137 -235t-110.5 -222.5t-66.5 -171.5h-81z" />
    <glyph glyph-name="uni2078" unicode="&#x2078;" horiz-adv-x="759" 
d="M384 754q-143 0 -218.5 70.5t-59.5 186.5q8 53 40.5 103t78 84.5t91.5 42.5q-59 27 -90.5 77.5t-20.5 128.5q17 116 105.5 179.5t205.5 63.5q119 0 188.5 -63.5t53.5 -179.5q-11 -78 -56 -128.5t-111 -77.5q44 -8 79.5 -42.5t54.5 -84.5t11 -103q-16 -116 -111.5 -186.5
t-240.5 -70.5zM394 823q106 0 176.5 50.5t82.5 136.5q12 83 -43.5 137.5t-162.5 54.5q-104 0 -175.5 -54.5t-83.5 -137.5q-12 -86 45 -136.5t161 -50.5zM458 1279q89 0 149 45t72 125q11 81 -37 128t-136 47q-86 0 -148 -47.5t-72 -127.5q-12 -80 36.5 -125t135.5 -45z" />
    <glyph glyph-name="uni2079" unicode="&#x2079;" horiz-adv-x="696" 
d="M332 756q-66 0 -119.5 26.5t-85.5 76t-35 118.5h76q7 -68 52.5 -109.5t119.5 -41.5q124 0 206.5 109.5t105.5 340.5q-31 -84 -102.5 -137t-157.5 -53q-124 0 -190 77.5t-47 217.5q13 92 56 162t111.5 109.5t156.5 39.5q140 0 207.5 -120t36.5 -337q-31 -220 -132 -349.5
t-259 -129.5zM404 1158q54 0 104.5 26.5t86.5 72.5t43 102q17 112 -29.5 187.5t-141.5 75.5q-87 0 -150.5 -65.5t-77.5 -171.5q-15 -103 25 -165t140 -62z" />
    <glyph glyph-name="colonmonetary" unicode="&#x20a1;" horiz-adv-x="1287" 
d="M604 -20q-175 0 -286 82.5t-154.5 243t-16.5 395.5q20 180 72 322t134.5 240.5t195 150.5t253.5 52q137 0 234.5 -61.5t148 -163.5t48.5 -222h-130q-5 90 -41 165t-104.5 120t-174.5 45q-109 0 -195 -43.5t-148.5 -126.5t-102.5 -204t-58 -277q-37 -306 48.5 -453.5
t290.5 -147.5q105 0 185.5 45.5t136.5 121.5t85 166h130q-21 -86 -68.5 -167t-118.5 -144.5t-162.5 -101t-201.5 -37.5zM407 -122l320 1682h86l-320 -1682h-86zM617 -122l320 1682h86l-320 -1682h-86z" />
    <glyph glyph-name="franc" unicode="&#x20a3;" horiz-adv-x="1127" 
d="M104 0l205 1446h838l-17 -114h-701l-81 -569h622l-18 -113h-620l-92 -650h-136zM-33 282l13 92l631 2l-13 -93z" />
    <glyph glyph-name="lira" unicode="&#x20a4;" horiz-adv-x="1117" 
d="M-48 0l16 112h74q69 -1 130 73t85 231q3 16 4.5 35.5t4.5 44.5q-1 11 -14 11h-200l13 92h202l-2 202h-173l13 92h158v50q-1 195 59 309.5t159 164t215 49.5q79 0 147 -29t114.5 -76.5t60.5 -104.5l-113 -46q-22 65 -70.5 102.5t-142.5 37.5q-106 0 -190 -66t-102 -187
q-3 -27 -3 -76.5v-110.5q0 -17 17 -17l314 2l-13 -93l-318 -1l3 -202l288 2l-15 -92h-280q-5 -66 -24.5 -138.5t-53.5 -140t-82 -116.5h364q96 0 164.5 36.5t113.5 128.5l99 -35q-59 -122 -159.5 -183t-230.5 -61h-632z" />
    <glyph glyph-name="uni20A6" unicode="&#x20a6;" horiz-adv-x="1373" 
d="M65 0l398 1446h104l378 -1217l332 1217h115l-398 -1446h-101l-378 1222l-336 -1222h-114zM14 534l13 89l1348 2l-12 -89zM62 869l13 90l1349 1l-13 -89z" />
    <glyph glyph-name="uni20A9" unicode="&#x20a9;" horiz-adv-x="1872" 
d="M327 0l41 1446h121l-46 -1262l652 1262h96l-38 -1262l652 1262h117l-761 -1446h-120l38 1219l-634 -1219h-118zM40 595l13 93l1818 1l-13 -92zM85 904l13 93l1818 1l-13 -92z" />
    <glyph glyph-name="dong" unicode="&#x20ab;" horiz-adv-x="928" 
d="M385 247q-93 0 -163 47t-102 141.5t-12 235.5q20 136 79.5 238t147 159.5t191.5 57.5q82 0 126 -29t75 -64q12 -11 16.5 -8t5.5 19l58 400h106l-168 -1181h-102l18 123q-20 -20 -55 -53t-89 -59.5t-132 -26.5zM53 0l11 84h664l-13 -84h-662zM429 340q64 0 117.5 30.5
t87 75.5t39.5 89l55 388q-39 51 -85.5 78t-108.5 27q-111 0 -196.5 -90.5t-109.5 -261.5q-16 -116 8 -190.5t75.5 -110t117.5 -35.5zM510 1231l12 81h487l-12 -81h-487z" />
    <glyph glyph-name="Euro" unicode="&#x20ac;" horiz-adv-x="1068" 
d="M607 -20q-175 0 -287.5 88.5t-155.5 254.5t-10 399t123 400t225 255.5t306 88.5q87 0 163.5 -31.5t132.5 -88.5l-96 -93q-41 42 -91 69.5t-117 27.5q-201 0 -330 -158t-174 -471q-29 -203 0.5 -341.5t114.5 -209.5t226 -71q44 0 87 11.5t82.5 30.5t73.5 44l55 -90
q-71 -52 -155 -83.5t-173 -31.5zM-30 523l13 92l711 2l-13 -93zM16 838l12 92l711 2l-13 -93z" />
    <glyph glyph-name="uni20B9" unicode="&#x20b9;" horiz-adv-x="1035" 
d="M596 0l-138 695h-423l15 107h340q181 0 277.5 67t119.5 225q19 129 -47.5 193t-219.5 64h-391l12 95h403q207 0 309.5 -89.5t77.5 -263.5q-16 -114 -67.5 -188.5t-120 -117.5t-136.5 -65q-12 -4 -8 -17l145 -705h-148zM88 1047l13 90l987 1l-15 -89zM132 1357l13 89
l985 2l-13 -90z" />
    <glyph glyph-name="uni20BA" unicode="&#x20ba;" horiz-adv-x="972" 
d="M130 0l206 1446h136l-188 -1332h102q134 1 241.5 84.5t199.5 272.5l112 -29q-47 -106 -108.5 -188t-137 -138.5t-162.5 -86t-185 -29.5h-216zM50 395l-18 100l608 224l21 -100zM90 719l-18 99l609 224l21 -99z" />
    <glyph glyph-name="uni2113" unicode="&#x2113;" horiz-adv-x="891" 
d="M404 -13q-133 0 -190.5 95.5t-42.5 285.5l-108 -75l-33 87l158 111l76 536q33 228 135 333.5t226 105.5q83 0 133 -40t68.5 -110.5t5.5 -159.5q-15 -108 -67.5 -206.5t-128.5 -188.5t-162.5 -171.5t-169.5 -156.5q-29 -191 1.5 -267.5t116.5 -76.5q68 0 127 34.5
t131 132.5l54 -50q-32 -52 -67 -93t-75 -69t-86.5 -42.5t-101.5 -14.5zM319 572q56 47 122.5 112t129.5 145t109.5 171.5t59.5 189.5q13 86 -17 130t-98 44q-91 0 -154 -86t-94 -307z" />
    <glyph glyph-name="uni2116" unicode="&#x2116;" horiz-adv-x="2177" 
d="M134 0l207 1446h108l592 -1217l173 1217h120l-207 -1446h-105l-594 1222l-174 -1222h-120zM1831 794q-134 0 -193.5 93.5t-39.5 238.5q15 101 60 177t114 118.5t154 42.5q130 0 192.5 -93t41.5 -245q-13 -97 -56.5 -172t-112.5 -117.5t-160 -42.5zM1842 872
q91 0 148.5 70.5t73.5 189.5q16 114 -21 183t-127 69q-91 0 -147.5 -69t-73.5 -183q-17 -119 20.5 -189.5t126.5 -70.5z" />
    <glyph glyph-name="uni2117" unicode="&#x2117;" horiz-adv-x="1515" 
d="M680 -20q-143 0 -261 57.5t-198.5 159.5t-115 237t-11.5 290q21 153 94 287.5t182.5 236.5t243 160t277.5 58q143 0 260 -58t197.5 -160t115 -236.5t12.5 -287.5q-22 -155 -95 -290t-182.5 -237t-243 -159.5t-275.5 -57.5zM695 83q119 0 231.5 45t206.5 129t158 202.5
t85 264.5q20 144 -10 262t-100 203t-170.5 130.5t-219.5 45.5q-121 0 -234.5 -45.5t-207 -130.5t-156.5 -203t-84 -262q-27 -195 32.5 -339t183 -223t285.5 -79zM493 330l110 778h269q76 0 133.5 -22t85.5 -68.5t17 -119.5q-18 -124 -99.5 -185.5t-193.5 -61.5h-181
l-45 -321h-96zM646 735h176q69 0 121.5 35.5t64.5 111.5q11 83 -34 112t-118 29h-168z" />
    <glyph glyph-name="uni2120" unicode="&#x2120;" horiz-adv-x="1883" 
d="M916 0l128 904h98l172 -804l405 804h95l-128 -904h-78l106 753l-373 -753h-83l-158 744l-106 -744h-78zM326 -13q-78 0 -143 27.5t-104 81.5t-41 133h82q6 -84 68 -128t148 -44q99 0 169.5 46.5t80.5 121.5q8 67 -23 110t-104 63l-170 46q-91 24 -135 77t-32 138
q9 75 53.5 133t114.5 90.5t156 32.5q95 0 155.5 -38t87 -96t19.5 -121h-80q3 69 -23.5 109t-71.5 57.5t-98 17.5q-49 0 -99.5 -19.5t-88 -59t-45.5 -101.5q-7 -53 23.5 -87t117.5 -59l163 -46q55 -15 88.5 -40.5t50.5 -59t21 -70.5t-1 -76q-9 -65 -51.5 -119.5t-115 -87
t-172.5 -32.5z" />
    <glyph glyph-name="trademark" unicode="&#x2122;" horiz-adv-x="1727" 
d="M760 0l127 904h98l172 -804l405 804h95l-127 -904h-79l107 753l-374 -753h-82l-158 744l-106 -744h-78zM238 0l117 829h-280l11 75h616l-10 -75h-262l-118 -829h-74z" />
    <glyph glyph-name="uni2126" unicode="&#x2126;" horiz-adv-x="1445" 
d="M116 0l17 121h310q-14 14 -51 48.5t-82 91.5t-83 137t-56 185t1 236q20 133 76 256t145.5 220t208.5 153t262 56q145 0 247 -57.5t163 -154t82 -218.5t2 -253q-15 -110 -48.5 -199.5t-89 -169.5t-138.5 -160t-198 -171h314l-17 -121h-461l16 119q56 38 129 96.5
t145.5 141.5t127.5 194t75 253q16 112 3 216t-57 186.5t-121.5 130.5t-191.5 48q-113 0 -204.5 -48t-159.5 -130.5t-110.5 -186.5t-58.5 -218q-21 -143 3.5 -259.5t94 -219t184.5 -204.5l-18 -119h-461z" />
    <glyph glyph-name="uni2153" unicode="&#x2153;" horiz-adv-x="1568" 
d="M222 552l106 748h-170l8 60q116 0 156.5 24t49.5 78h58l-130 -910h-78zM194 -8l-92 1l1119 1469h89zM1116 -20q-121 2 -192 73.5t-59 191.5h79q0 -88 49.5 -140t137.5 -52q102 0 171.5 51.5t81.5 134.5q13 97 -51 145.5t-163 49.5l-75 1l11 71l72 1q62 1 114.5 26
t88 65.5t41.5 86.5q9 61 -35.5 110.5t-143.5 49.5q-48 0 -97.5 -21.5t-85.5 -65.5t-46 -111h-78q12 83 58 143t114.5 93t143.5 33q85 0 145.5 -27.5t88.5 -79t19 -122.5q-10 -68 -60 -124t-136 -87q58 -18 96 -51t54 -79.5t8 -104.5q-11 -79 -59.5 -138.5t-123.5 -91.5
t-168 -31z" />
    <glyph glyph-name="uni2154" unicode="&#x2154;" horiz-adv-x="1843" 
d="M73 558l9 60l4 32q12 82 52.5 138.5t97.5 97.5t120 75.5t120 71t96.5 84t48.5 114.5q11 79 -33.5 126.5t-130.5 47.5q-94 0 -156 -56t-79 -143h-78q18 112 103 193t224 81q121 0 183.5 -68.5t46.5 -181.5q-12 -82 -52.5 -138t-97.5 -96.5t-119 -73.5t-118 -68.5
t-95 -82.5t-49 -116l-3 -23h458l-11 -74h-541zM469 -8l-92 1l1119 1469h89zM1391 -20q-121 2 -192 73.5t-59 191.5h79q0 -88 49.5 -140t137.5 -52q102 0 171.5 51.5t81.5 134.5q13 97 -51 145.5t-163 49.5l-75 1l11 71l72 1q62 1 114.5 26t88 65.5t41.5 86.5
q9 61 -35.5 110.5t-143.5 49.5q-48 0 -97.5 -21.5t-85.5 -65.5t-46 -111h-78q12 83 58 143t114.5 93t143.5 33q85 0 145.5 -27.5t88.5 -79t19 -122.5q-10 -68 -60 -124t-136 -87q58 -18 96 -51t54 -79.5t8 -104.5q-11 -79 -59.5 -138.5t-123.5 -91.5t-168 -31z" />
    <glyph glyph-name="oneeighth" unicode="&#x215b;" horiz-adv-x="1595" 
d="M222 552l106 748h-170l8 60q116 0 156.5 24t49.5 78h58l-130 -910h-78zM194 -8l-92 1l1119 1469h89zM1141 -22q-143 0 -218.5 70.5t-59.5 186.5q8 53 40 103t77.5 84.5t91.5 42.5q-58 27 -89.5 77.5t-21.5 128.5q18 116 106.5 179.5t205.5 63.5q118 0 188 -63.5
t54 -179.5q-11 -78 -56 -128.5t-111 -77.5q44 -8 79.5 -42.5t54.5 -84.5t11 -103q-16 -116 -112 -186.5t-240 -70.5zM1151 47q106 0 176.5 50.5t82.5 136.5q12 83 -43.5 137.5t-162.5 54.5q-104 0 -175.5 -54.5t-83.5 -137.5q-12 -86 45 -136.5t161 -50.5zM1215 503
q89 0 149 45t71 125q12 81 -36 128t-136 47q-86 0 -148 -47.5t-72 -127.5q-12 -80 36 -125t136 -45z" />
    <glyph glyph-name="threeeighths" unicode="&#x215c;" horiz-adv-x="1826" 
d="M359 544q-121 2 -192 73.5t-59 191.5h79q0 -88 49.5 -140t137.5 -52q102 0 171.5 51.5t81.5 134.5q13 97 -51 145.5t-163 49.5l-75 1l11 71l72 1q62 1 114.5 26t88 65.5t41.5 86.5q9 61 -35.5 110.5t-143.5 49.5q-48 0 -97.5 -21.5t-85.5 -65.5t-46 -111h-78
q12 83 58 143t114.5 93t143.5 33q85 0 145.5 -27.5t88.5 -79t19 -122.5q-10 -68 -60 -124t-136 -87q58 -18 96 -51t54 -79.5t8 -104.5q-11 -79 -59.5 -138.5t-123.5 -91.5t-168 -31zM425 -8l-92 1l1119 1469h89zM1372 -22q-143 0 -218.5 70.5t-59.5 186.5q8 53 40 103
t77.5 84.5t91.5 42.5q-58 27 -89.5 77.5t-21.5 128.5q18 116 106.5 179.5t205.5 63.5q118 0 188 -63.5t54 -179.5q-11 -78 -56 -128.5t-111 -77.5q44 -8 79.5 -42.5t54.5 -84.5t11 -103q-16 -116 -112 -186.5t-240 -70.5zM1382 47q106 0 176.5 50.5t82.5 136.5
q12 83 -43.5 137.5t-162.5 54.5q-104 0 -175.5 -54.5t-83.5 -137.5q-12 -86 45 -136.5t161 -50.5zM1446 503q89 0 149 45t71 125q12 81 -36 128t-136 47q-86 0 -148 -47.5t-72 -127.5q-12 -80 36 -125t136 -45z" />
    <glyph glyph-name="fiveeighths" unicode="&#x215d;" horiz-adv-x="1817" 
d="M376 538q-113 0 -190 68t-92 176l76 19q17 -85 71.5 -138.5t143.5 -53.5q98 0 167 63.5t84 175.5q15 105 -39 165.5t-137 60.5q-59 0 -110 -19t-111 -87h-3t-3 1l-71 13l105 480h489l-12 -73h-417l-72 -335q47 50 104.5 70.5t120.5 20.5q73 0 132 -33.5t89.5 -99
t16.5 -162.5q-19 -140 -113 -226t-229 -86zM417 -8l-92 1l1119 1469h89zM1363 -22q-143 0 -218.5 70.5t-59.5 186.5q8 53 40 103t77.5 84.5t91.5 42.5q-58 27 -89.5 77.5t-21.5 128.5q18 116 106.5 179.5t205.5 63.5q118 0 188 -63.5t54 -179.5q-11 -78 -56 -128.5
t-111 -77.5q44 -8 79.5 -42.5t54.5 -84.5t11 -103q-16 -116 -112 -186.5t-240 -70.5zM1373 47q106 0 176.5 50.5t82.5 136.5q12 83 -43.5 137.5t-162.5 54.5q-104 0 -175.5 -54.5t-83.5 -137.5q-12 -86 45 -136.5t161 -50.5zM1437 503q89 0 149 45t71 125q12 81 -36 128
t-136 47q-86 0 -148 -47.5t-72 -127.5q-12 -80 36 -125t136 -45z" />
    <glyph glyph-name="seveneighths" unicode="&#x215e;" horiz-adv-x="1639" 
d="M204 550q28 89 90.5 227t154 298t207.5 312h-486l11 73h575l-12 -73q-72 -92 -145 -208t-137 -235t-110.5 -222.5t-66.5 -171.5h-81zM238 -8l-92 1l1119 1469h89zM1185 -22q-143 0 -218.5 70.5t-59.5 186.5q8 53 40 103t77.5 84.5t91.5 42.5q-58 27 -89.5 77.5
t-21.5 128.5q18 116 106.5 179.5t205.5 63.5q118 0 188 -63.5t54 -179.5q-11 -78 -56 -128.5t-111 -77.5q44 -8 79.5 -42.5t54.5 -84.5t11 -103q-16 -116 -112 -186.5t-240 -70.5zM1195 47q106 0 176.5 50.5t82.5 136.5q12 83 -43.5 137.5t-162.5 54.5q-104 0 -175.5 -54.5
t-83.5 -137.5q-12 -86 45 -136.5t161 -50.5zM1259 503q89 0 149 45t71 125q12 81 -36 128t-136 47q-86 0 -148 -47.5t-72 -127.5q-12 -80 36 -125t136 -45z" />
    <glyph glyph-name="partialdiff" unicode="&#x2202;" horiz-adv-x="1100" 
d="M454 -20q-127 0 -214.5 60.5t-126.5 164t-20 234.5q18 129 85 225t174.5 148.5t248.5 52.5q100 0 156.5 -26t118.5 -72q15 -9 19.5 -6.5t4.5 10.5q20 142 10.5 251t-48.5 182.5t-106 110t-161 36.5t-157.5 -30t-123.5 -69l-29 83q38 38 97 67.5t128 46.5t137 17
q149 0 245.5 -81.5t131 -245t0.5 -409.5q-34 -238 -112.5 -406t-194.5 -256t-263 -88zM454 91h2q88 0 170 58t145 161.5t95 241.5q6 31 6 45t-8 25q-35 56 -117.5 95.5t-172.5 39.5t-165.5 -42t-125.5 -116t-64 -168q-13 -94 14 -171t85 -123t136 -46z" />
    <glyph glyph-name="emptyset" unicode="&#x2205;" horiz-adv-x="1080" 
d="M148 298l-50 65l888 766l46 -64zM512 326q-104 0 -181 54.5t-114.5 145.5t-21.5 202q11 83 50.5 155t99 127.5t132 86.5t149.5 31q103 0 180 -54.5t115 -145t22 -200.5q-16 -111 -80 -202t-156.5 -145.5t-194.5 -54.5zM524 410q82 0 155 43t123 115t62 160q13 86 -17 158
t-91 115t-143 43q-81 0 -154 -43t-122.5 -115t-61.5 -158q-13 -88 16.5 -160t90 -115t142.5 -43z" />
    <glyph glyph-name="uni2206" unicode="&#x2206;" horiz-adv-x="1248" 
d="M-35 0l793 1446l378 -1446h-1171zM162 119h812l-260 1025z" />
    <glyph glyph-name="product" unicode="&#x220f;" horiz-adv-x="1186" 
d="M151 0l189 1331h-193l16 115h1117l-15 -115h-195l-189 -1331h-129l189 1331h-472l-189 -1331h-129z" />
    <glyph glyph-name="summation" unicode="&#x2211;" horiz-adv-x="950" 
d="M-20 0l12 90l496 632l-291 626l14 98h791l-17 -112h-624l280 -603l-481 -616h686l-16 -115h-850z" />
    <glyph glyph-name="minus" unicode="&#x2212;" horiz-adv-x="1018" 
d="M149 673l15 105l764 1l-15 -104z" />
    <glyph glyph-name="uni2215" unicode="&#x2215;" horiz-adv-x="1113" 
d="M121 -8l-94 1l1029 1469h88z" />
    <glyph glyph-name="uni2219" unicode="&#x2219;" horiz-adv-x="581" 
d="M303 628q-40 0 -64.5 31.5t-17.5 75.5q6 45 39.5 75.5t74.5 30.5t65.5 -30.5t17.5 -75.5q-5 -44 -39 -75.5t-76 -31.5z" />
    <glyph glyph-name="radical" unicode="&#x221a;" horiz-adv-x="1129" 
d="M401 -322l-187 936l-147 -59l-19 93l265 100l171 -923l702 1825h109l-760 -1972h-134z" />
    <glyph glyph-name="infinity" unicode="&#x221e;" horiz-adv-x="1320" 
d="M329 229q-73 0 -129.5 38t-84 107t-14.5 162t60.5 162t119 107.5t156.5 38.5q62 0 103 -20.5t71.5 -56t61.5 -78.5q12 -14 19 -14t21 14q33 33 74 69t93 61t119 25q75 0 130 -36.5t80.5 -103t12.5 -157.5v-3q-15 -100 -63.5 -170.5t-117.5 -107.5t-146 -37q-62 0 -104 23
t-73 61.5t-62 84.5q-7 11 -12 12.5t-18 -12.5q-13 -12 -39 -39.5t-63.5 -57.5t-86.5 -51t-108 -21zM349 338h6q45 0 89.5 24.5t82 59t63.5 66.5q23 28 24 41.5t-15 45.5q-36 77 -81 121.5t-112 44.5q-77 0 -133 -55t-70 -144q-12 -91 31.5 -147.5t114.5 -56.5zM928 338
q54 0 94 30t65 76.5t32 95.5q11 80 -25.5 140.5t-112.5 60.5h-2q-70 0 -130.5 -51.5t-111.5 -107.5q-22 -24 -22 -45t10 -36q37 -72 75.5 -106.5t72 -45.5t55.5 -11z" />
    <glyph glyph-name="integral" unicode="&#x222b;" horiz-adv-x="796" 
d="M103 -342q-75 0 -115 11.5t-88 44.5l52 120q43 -27 76.5 -39t79.5 -12q65 0 122 52.5t73 170.5q23 162 34 326.5t17 329t16 326t32 318.5q27 180 118.5 272t209.5 92q76 0 117.5 -11.5t86.5 -44.5l-52 -120q-42 27 -75.5 39t-80.5 12q-69 0 -126.5 -53t-74.5 -169
q-23 -161 -33.5 -326t-17 -330t-17 -326.5t-31.5 -316.5q-17 -121 -65 -202.5t-115 -122.5t-143 -41z" />
    <glyph glyph-name="approxequal" unicode="&#x2248;" horiz-adv-x="1046" 
d="M203 794l-25 82q50 44 107.5 78.5t138.5 34.5q50 0 90.5 -15t77.5 -33.5t76 -33t87 -14.5q71 0 116.5 30.5t76.5 64.5l25 -86q-31 -39 -90.5 -71.5t-142.5 -32.5q-52 0 -91.5 14t-74 32.5t-73.5 32.5t-89 14q-70 0 -121 -30t-88 -67zM148 410l-24 84q50 44 107.5 77.5
t137.5 33.5q51 0 91.5 -15t77.5 -33.5t76 -33t86 -14.5q71 0 117 30.5t77 64.5l24 -85q-30 -38 -89.5 -71.5t-142.5 -33.5q-55 0 -95.5 14t-75.5 33t-72 33t-85 14q-71 0 -122 -30.5t-88 -67.5z" />
    <glyph glyph-name="notequal" unicode="&#x2260;" horiz-adv-x="1020" 
d="M244 146l497 1094h86l-493 -1094h-90zM178 868l14 104l764 2l-15 -104zM116 432l15 104l763 2l-14 -104z" />
    <glyph glyph-name="lessequal" unicode="&#x2264;" horiz-adv-x="1019" 
d="M882 485l-700 316l17 126l793 319l-18 -130l-629 -251l554 -253zM75 142l15 104l763 -2l-16 -104z" />
    <glyph glyph-name="greaterequal" unicode="&#x2265;" horiz-adv-x="1020" 
d="M128 485l18 127l629 253l-558 251l19 130l701 -319l-18 -126zM75 140l15 104l763 2l-14 -104z" />
    <glyph glyph-name="lozenge" unicode="&#x25ca;" horiz-adv-x="852" 
d="M294 0l-184 722l401 724h111l186 -720l-402 -726h-112zM373 109l317 613l-143 615l-317 -606z" />
    <glyph glyph-name="i.loclTRK" horiz-adv-x="458" 
d="M96 0l147 1034h120l-148 -1034h-119zM276 1300l20 146h129l-20 -146h-129z" />
    </font>
</defs>
</svg>
