<?xml version="1.0" standalone="no"?>
<!DOCTYPE svg PUBLIC "-//W3C//DTD SVG 1.1//EN" "http://www.w3.org/Graphics/SVG/1.1/DTD/svg11.dtd" >
<svg xmlns="http://www.w3.org/2000/svg" xmlns:xlink="http://www.w3.org/1999/xlink" version="1.1">
<metadata>
Created by FontForge 20190801 at Fri Apr 29 23:32:12 2022
 By www-data
Copyright 2015 The Public Sans Project Authors (https://github.com/uswds/public-sans)
</metadata>
<defs>
<font id="PublicSansItalic" horiz-adv-x="0" >
  <font-face 
    font-family="PublicSansItalic"
    font-weight="400"
    font-style="italic"
    font-stretch="normal"
    units-per-em="2000"
    panose-1="0 0 0 0 0 0 0 0 0 0"
    ascent="1600"
    descent="-400"
    x-height="1034"
    cap-height="1446"
    bbox="-387 -480 2294 2101"
    underline-thickness="140"
    underline-position="-440"
    slope="-8"
    unicode-range="U+000D-FB02"
  />
<missing-glyph horiz-adv-x="1639" 
d="M383 1652h918q36 0 36 -42v-1876q0 -56 -66 -56h-872q-31 0 -42.5 12t-11.5 36v1880q0 46 38 46zM1235 -114v1634q0 34 -31 34h-685zM447 1433v-1617q0 -19 9.5 -29.5t34.5 -10.5h671z" />
    <glyph glyph-name="fi" unicode="fi" horiz-adv-x="1252" 
d="M203 0l129 899h-206l21 135h204l24 160q18 123 87 187.5t188 64.5h186l-19 -131h-143q-61 0 -88 -34t-38 -103l-19 -144h239l-21 -135h-235l-129 -899h-180zM846 0l146 1034h175l-145 -1034h-176zM1018 1255l27 191h184l-26 -191h-185z" />
    <glyph glyph-name="fl" unicode="fl" horiz-adv-x="1354" 
d="M203 0l129 899h-206l21 135h204l24 160q18 123 87 187.5t188 64.5h186l-19 -131h-143q-61 0 -88 -34t-38 -103l-19 -144h239l-21 -135h-235l-129 -899h-180zM1089 -13q-80 0 -126.5 23t-67 62t-22.5 89.5t5 104.5l177 1220h178l-174 -1202q-11 -78 12 -117t75 -43l52 -1
l-17 -120q-25 -7 -49.5 -11.5t-42.5 -4.5z" />
    <glyph glyph-name=".notdef" horiz-adv-x="1639" 
d="M383 1652h918q36 0 36 -42v-1876q0 -56 -66 -56h-872q-31 0 -42.5 12t-11.5 36v1880q0 46 38 46zM1235 -114v1634q0 34 -31 34h-685zM447 1433v-1617q0 -19 9.5 -29.5t34.5 -10.5h671z" />
    <glyph glyph-name="uni0000" horiz-adv-x="53" 
 />
    <glyph glyph-name="uni0000" horiz-adv-x="53" 
 />
    <glyph glyph-name="nonmarkingreturn" horiz-adv-x="666" 
 />
    <glyph glyph-name="CR" unicode="&#xd;" horiz-adv-x="467" 
 />
    <glyph glyph-name="space" unicode=" " horiz-adv-x="486" 
 />
    <glyph glyph-name="exclam" unicode="!" horiz-adv-x="496" 
d="M160 367l107 1079h215l-202 -1079h-120zM59 0l34 233h213l-35 -233h-212z" />
    <glyph glyph-name="quotedbl" unicode="&#x22;" horiz-adv-x="842" 
d="M609 979l13 467h216l-125 -467h-104zM254 979l13 467h216l-125 -467h-104z" />
    <glyph glyph-name="numbersign" unicode="#" horiz-adv-x="1164" 
d="M770 -3l-114 16l218 1436l113 -13zM82 469v113h989v-113h-989zM359 -3l-113 16l218 1436l113 -13zM146 879v113h989v-113h-989z" />
    <glyph glyph-name="dollar" unicode="$" horiz-adv-x="1261" 
d="M571 -20q-217 0 -346 98.5t-126 291.5l189 12q13 -122 94.5 -183t211.5 -61q79 0 152 29t122.5 81t59.5 123q15 95 -31 152t-156 90l-226 65q-146 41 -222 129t-56 236q17 125 94 220t196.5 148t264.5 53q141 0 235 -56.5t136.5 -149.5t30.5 -203l-184 -10
q-1 86 -27 144.5t-79 88t-135 29.5q-78 0 -150.5 -27.5t-123 -82.5t-61.5 -136q-11 -78 33.5 -123.5t172.5 -89.5l217 -68q167 -51 226 -158.5t38 -248.5q-17 -115 -91.5 -203.5t-193 -139t-265.5 -50.5zM458 -209l38 258h165l-37 -258h-166zM701 1404l37 258h167l-38 -258
h-166z" />
    <glyph glyph-name="percent" unicode="%" horiz-adv-x="1681" 
d="M349 -8l-118 1l1135 1469h117zM440 643q-80 0 -139.5 40t-92.5 112t-33 169q0 77 22.5 164.5t69.5 164.5t119 126t169 49q79 0 138 -40t91.5 -112.5t32.5 -169.5q0 -82 -23.5 -170t-71 -164t-118 -122.5t-164.5 -46.5zM452 746q65 0 110 42.5t72 107t40 133t13 122.5
q0 98 -34.5 156t-113.5 58q-63 0 -107.5 -42t-73 -107t-41.5 -133.5t-13 -120.5q0 -98 34.5 -157t113.5 -59zM1178 -20q-79 0 -138.5 40t-92.5 112t-33 169q0 85 24.5 173.5t73 163.5t119.5 121.5t163 46.5q79 0 138 -40t91.5 -112.5t32.5 -169.5q0 -82 -23.5 -170.5
t-71 -164t-118 -122.5t-165.5 -47zM1191 84q64 0 109 42t72.5 106.5t40 133t12.5 122.5q0 98 -34 156.5t-113 58.5q-63 0 -107.5 -42.5t-72.5 -107.5t-41 -133.5t-13 -120.5q0 -97 34 -156t113 -59z" />
    <glyph glyph-name="ampersand" unicode="&#x26;" horiz-adv-x="1354" 
d="M425 -10q-134 0 -219.5 47.5t-121 131.5t-19.5 194q14 95 60.5 171.5t128.5 141.5t201 126q-45 60 -75.5 115.5t-43 112t-2.5 120.5q13 90 68.5 162t141.5 114t192 42q101 0 181 -38t122 -107t28 -163q-8 -51 -43.5 -114t-115.5 -133.5t-220 -144.5l242 -371
q22 27 56.5 81.5t67 130.5t50.5 170h179q-29 -103 -73.5 -189t-97.5 -161t-108 -143l191 -286h-209l-109 161q-118 -90 -232 -130.5t-220 -40.5zM487 138q78 0 162.5 37.5t153.5 99.5l-274 415q-106 -57 -180.5 -138.5t-83.5 -183.5q-10 -106 56.5 -168t165.5 -62zM623 871
q107 61 165.5 109t83.5 90.5t31 85.5q10 67 -14.5 108t-69.5 59.5t-97 17.5q-87 -1 -141.5 -54.5t-64.5 -125.5q-7 -49 5.5 -97.5t34.5 -88.5t40 -65z" />
    <glyph glyph-name="quotesingle" unicode="'" horiz-adv-x="488" 
d="M254 979l13 467h216l-125 -467h-104z" />
    <glyph glyph-name="parenleft" unicode="(" horiz-adv-x="590" 
d="M286 -247q-58 140 -95.5 277t-48 284t13.5 317q36 248 144.5 476.5t253.5 413.5h124q-123 -194 -219.5 -424.5t-130.5 -467.5q-32 -225 -9.5 -438.5t90.5 -437.5h-123z" />
    <glyph glyph-name="parenright" unicode=")" horiz-adv-x="603" 
d="M-69 -250q125 195 220.5 425t129.5 467q33 226 10.5 439t-90.5 437h123q58 -140 95.5 -277t47.5 -284t-14 -317q-35 -247 -143.5 -475.5t-254.5 -414.5h-124z" />
    <glyph glyph-name="asterisk" unicode="*" horiz-adv-x="787" 
d="M326 765l-110 75l189 235l-262 74l41 117l251 -101l-18 281h136l-18 -282l254 110l38 -117l-257 -81l184 -226l-111 -79l-156 253z" />
    <glyph glyph-name="plus" unicode="+" horiz-adv-x="1068" 
d="M433 296l124 863h138l-123 -863h-139zM142 654l21 144l821 1l-21 -143z" />
    <glyph glyph-name="comma" unicode="," horiz-adv-x="473" 
d="M-21 -251l141 247l-82 5l32 221h221l-28 -192l-202 -281h-82z" />
    <glyph glyph-name="hyphen" unicode="-" horiz-adv-x="729" 
d="M113 443l21 145l481 2l-20 -146z" />
    <glyph glyph-name="period" unicode="." horiz-adv-x="444" 
d="M37 0l35 236h213l-35 -236h-213z" />
    <glyph glyph-name="slash" unicode="/" horiz-adv-x="674" 
d="M-57 -77l693 1523h139l-693 -1523h-139z" />
    <glyph glyph-name="zero" unicode="0" horiz-adv-x="1178" 
d="M513 -22q-227 0 -333 186.5t-55 552.5q35 247 119 414t206.5 251t273.5 84q224 0 331 -188.5t55 -557.5q-51 -367 -210.5 -554.5t-386.5 -187.5zM537 138q147 0 240.5 136.5t136.5 444.5q45 314 -12 452.5t-201 138.5q-145 0 -242 -139.5t-141 -451.5q-43 -307 15.5 -444
t203.5 -137z" />
    <glyph glyph-name="one" unicode="1" horiz-adv-x="793" 
d="M279 0l167 1151h-263l17 121q122 0 193.5 19t106.5 58t47 97h126l-209 -1446h-185z" />
    <glyph glyph-name="two" unicode="2" horiz-adv-x="1148" 
d="M50 0l16 113l9 59q18 130 83 219.5t156.5 154t192 116.5t190.5 105.5t152.5 121.5t76.5 166q15 110 -48.5 179t-187.5 69q-89 0 -160 -36.5t-119.5 -102t-68.5 -154.5h-179q19 125 90 228.5t189 165.5t278 62q139 0 234 -51.5t138 -144t25 -215.5q-18 -130 -82.5 -218.5
t-155 -150t-189 -111.5t-187.5 -101t-150 -117.5t-75 -163.5l-4 -29h725l-23 -164h-926z" />
    <glyph glyph-name="three" unicode="3" horiz-adv-x="1213" 
d="M508 -22q-143 1 -244 55t-149 151.5t-33 231.5h180q1 -135 75 -207t200 -72q101 0 179.5 33.5t128 92.5t59.5 138q13 87 -24 147t-110.5 91.5t-169.5 32.5l-124 3l23 157l118 3q90 2 165.5 36.5t124 91t58.5 124.5q8 60 -19.5 111.5t-88.5 82.5t-155 31q-74 0 -145 -30.5
t-123.5 -93.5t-69.5 -163h-179q20 140 98.5 238.5t194.5 150.5t247 52q143 0 247 -43.5t154.5 -126.5t33.5 -203q-15 -107 -91.5 -193.5t-216.5 -135.5q87 -26 147 -76t87 -122.5t14 -166.5q-14 -99 -65 -177.5t-130.5 -133t-180.5 -83t-216 -27.5z" />
    <glyph glyph-name="four" unicode="4" horiz-adv-x="1201" 
d="M662 0l53 369h-643l25 169l767 908h182l-130 -914h225l-24 -163h-226l-53 -369h-176zM269 532h467l96 671z" />
    <glyph glyph-name="five" unicode="5" horiz-adv-x="1232" 
d="M558 -22q-128 0 -229.5 47t-168 131t-87.5 193l165 67q23 -82 65.5 -146t108.5 -100t155 -36q145 0 246.5 89.5t122.5 243.5q14 96 -18 167.5t-96.5 111.5t-149.5 40q-55 0 -105 -10.5t-101 -40.5t-111 -91q-8 -3 -10.5 -2.5t-9.5 3.5l-143 49l167 752h825l-28 -160h-666
l-100 -467q78 67 162.5 95.5t179.5 28.5q125 0 223 -53.5t147 -158t27 -258.5q-20 -150 -98 -261t-199.5 -172.5t-273.5 -61.5z" />
    <glyph glyph-name="six" unicode="6" horiz-adv-x="1198" 
d="M546 -22q-160 0 -266 87t-147.5 248.5t-10.5 387.5q33 232 119.5 404t220.5 266.5t308 94.5q115 0 206 -45t143.5 -129t49.5 -203h-170q-13 103 -76.5 163t-171.5 60q-120 0 -211 -72.5t-147 -212t-74 -342.5q38 73 97.5 128.5t134.5 86t155 30.5q136 0 230 -55.5
t137 -158t23 -244.5q-20 -145 -95 -256.5t-191.5 -174.5t-263.5 -63zM566 131q83 0 154 42t118.5 117t61.5 173q14 99 -10 170t-83 109t-152 38q-75 0 -148 -37.5t-124.5 -98.5t-62.5 -135q-16 -110 9 -195.5t86 -134t151 -48.5z" />
    <glyph glyph-name="seven" unicode="7" horiz-adv-x="1151" 
d="M262 0q29 99 89 245t149 319.5t206 358.5t260 363h-765l24 160h964l-26 -160q-87 -105 -177.5 -238.5t-175 -279t-156 -287t-123 -266t-73.5 -215.5h-196z" />
    <glyph glyph-name="eight" unicode="8" horiz-adv-x="1245" 
d="M546 -22q-159 0 -269.5 51.5t-163 144.5t-34.5 218q12 84 63 161t122 131t142 68q-89 42 -138.5 122t-32.5 198q17 126 90.5 214t185.5 134t244 46q133 0 231.5 -46t147 -134t30.5 -214q-16 -118 -87.5 -198t-172.5 -122q67 -14 123 -68t86 -131t18 -161
q-17 -125 -95.5 -218t-204 -144.5t-285.5 -51.5zM567 128q152 0 252 72.5t116 192.5q12 79 -20 141t-101.5 97.5t-171.5 35.5q-99 0 -178.5 -35.5t-129 -97.5t-60.5 -141q-17 -120 63 -192.5t230 -72.5zM666 830q124 0 210.5 65t102.5 181q17 117 -52 184.5t-192 67.5
t-210 -68t-103 -184t52.5 -181t191.5 -65z" />
    <glyph glyph-name="nine" unicode="9" horiz-adv-x="1202" 
d="M484 -22q-114 0 -207.5 45.5t-147.5 129.5t-53 201h176q9 -99 74.5 -160.5t173.5 -61.5q121 0 216.5 67t158 207t82.5 359q-34 -76 -93.5 -133.5t-136 -90.5t-163.5 -33q-136 0 -232 56t-139.5 160t-23.5 249q21 145 94 256t189.5 174t262.5 63q161 0 266.5 -86.5
t146.5 -248t9 -387.5q-34 -243 -121.5 -414t-222 -261.5t-309.5 -90.5zM606 665q76 0 149 37t124.5 98.5t61.5 134.5q17 112 -8.5 197.5t-86 134t-150.5 48.5q-83 0 -152.5 -42t-116 -117t-60.5 -174q-20 -145 40 -231t199 -86z" />
    <glyph glyph-name="colon" unicode=":" horiz-adv-x="448" 
d="M147 758l34 235h214l-34 -235h-214zM38 6l34 233h214l-35 -233h-213z" />
    <glyph glyph-name="semicolon" unicode=";" horiz-adv-x="476" 
d="M-3 -285l150 285h-81l33 234h214l-29 -207l-210 -312h-77zM168 753l34 237h214l-34 -237h-214z" />
    <glyph glyph-name="less" unicode="&#x3c;" horiz-adv-x="1052" 
d="M890 278l-753 329l23 169l851 334l-24 -174l-626 -245l553 -243z" />
    <glyph glyph-name="equal" unicode="=" horiz-adv-x="1071" 
d="M172 848l21 143l820 1l-21 -143zM108 404l21 143l820 2l-21 -144z" />
    <glyph glyph-name="greater" unicode="&#x3e;" horiz-adv-x="1052" 
d="M91 278l26 170l623 243l-555 245l26 174l754 -334l-25 -169z" />
    <glyph glyph-name="question" unicode="?" horiz-adv-x="995" 
d="M366 372q16 114 63 197.5t108 150t121 126t104 123t56 142.5q14 99 -44 156.5t-164 57.5q-61 0 -123.5 -26t-114 -70.5t-80.5 -100.5l-154 49q81 136 210.5 212.5t283.5 76.5q128 0 216 -44.5t129 -123t26 -179.5q-14 -102 -63 -176.5t-114 -136.5t-130 -123.5t-114 -136
t-64 -174.5h-152zM282 0l35 233h212l-34 -233h-213z" />
    <glyph glyph-name="at" unicode="@" horiz-adv-x="1585" 
d="M701 -220q-168 0 -292 57t-201.5 157t-107.5 232t-8 283q23 158 96.5 298.5t187.5 248.5t260 170t314 62q120 0 231 -36.5t194 -112t122 -194t15 -282.5q-21 -150 -84.5 -263.5t-153.5 -177.5t-193 -64q-73 0 -109 26.5t-44 75.5q-3 13 -7 13t-15 -11q-49 -56 -116.5 -94
t-157.5 -38q-71 0 -124.5 42.5t-78.5 120t-9 182.5q18 123 78 225.5t150 164t196 61.5q77 0 123 -33t70 -87q2 -4 6.5 -2.5t8.5 9.5l23 63h120l-133 -444q-25 -85 -11 -117t59 -32q57 0 112.5 43.5t98 126t58.5 198.5q20 141 -11 239.5t-98 159.5t-156 89t-185 28
q-148 0 -269.5 -52.5t-212 -143.5t-147.5 -210t-76 -253q-18 -130 5.5 -241t89 -194t172 -129t254.5 -46q85 0 146.5 17t113.5 46t105 63l52 -93q-91 -67 -209 -109t-252 -42zM683 261q59 0 114.5 37.5t97.5 98.5t61 133q23 87 11 146t-48 89t-85 30q-66 0 -121.5 -42
t-94 -112t-51.5 -155q-15 -101 15 -163t101 -62z" />
    <glyph glyph-name="A" unicode="A" horiz-adv-x="1362" 
d="M13 0l704 1446h202l285 -1446h-183l-76 396h-556l-193 -396h-183zM459 566h463l-129 697z" />
    <glyph glyph-name="B" unicode="B" horiz-adv-x="1289" 
d="M118 0l209 1446h441q251 0 365.5 -98t88.5 -281q-17 -114 -84.5 -196t-215.5 -134q78 -18 127.5 -52t76 -80t33.5 -101.5t-2 -117.5q-29 -195 -173.5 -290.5t-406.5 -95.5h-459zM322 154h273q169 0 267 60.5t115 185.5q13 90 -22 145.5t-105 81.5t-160 26h-297zM415 810
h295q52 0 106.5 11.5t102.5 38.5t81.5 73t43.5 115q18 126 -62.5 185.5t-224.5 59.5h-272z" />
    <glyph glyph-name="C" unicode="C" horiz-adv-x="1332" 
d="M623 -20q-176 0 -292 81.5t-165 237t-28 377.5q15 176 67 321t139 250t208 162t276 57q144 0 247 -62t157 -167.5t52 -236.5h-192q-4 85 -37 154t-96 110t-160 41q-106 0 -186.5 -46t-137.5 -130.5t-91.5 -201t-48.5 -257.5q-28 -271 50.5 -400t256.5 -129q96 0 170.5 43
t126.5 115t79 156h193q-24 -92 -72.5 -177.5t-121.5 -152.5t-171 -106t-223 -39z" />
    <glyph glyph-name="D" unicode="D" horiz-adv-x="1342" 
d="M120 0l204 1446q7 0 69.5 -0.5t139.5 -0.5q136 -1 250.5 -17t204.5 -53.5t153 -100t96 -156.5t33 -223q0 -105 -16.5 -211.5t-54 -207t-100.5 -186.5t-156 -151t-220 -102t-293 -37h-310zM328 159h116q169 0 289.5 55t198 153.5t114 231t36.5 288.5q0 149 -54 236.5
t-157 125.5t-249 38h-132z" />
    <glyph glyph-name="E" unicode="E" horiz-adv-x="1202" 
d="M118 0l210 1446h865l-25 -163h-684l-68 -472h615l-23 -162h-615l-70 -482l704 -2l-25 -165h-884z" />
    <glyph glyph-name="F" unicode="F" horiz-adv-x="1149" 
d="M119 0l209 1446h855l-24 -162h-671l-67 -478h601l-24 -160h-601l-93 -646h-185z" />
    <glyph glyph-name="G" unicode="G" horiz-adv-x="1414" 
d="M618 -20q-182 0 -300.5 87.5t-165 252.5t-12.5 399q34 236 131 403t242.5 255.5t327.5 88.5q140 0 244.5 -66t160 -172t45.5 -228h-192q-2 80 -37.5 149t-98.5 111t-150 42q-118 0 -215.5 -61.5t-165.5 -189.5t-97 -328q-22 -154 -8 -264t59 -178.5t113.5 -101
t153.5 -32.5q84 0 152 32t118 82.5t80.5 109t41.5 112.5l24 128h-331l20 136l519 -1l-107 -746h-136l32 220q-45 -62 -108.5 -117t-147.5 -89t-192 -34z" />
    <glyph glyph-name="H" unicode="H" horiz-adv-x="1479" 
d="M118 0l204 1446h181l-87 -616h736l86 616h181l-203 -1446h-181l93 667h-735l-94 -667h-181z" />
    <glyph glyph-name="I" unicode="I" horiz-adv-x="569" 
d="M119 0l208 1446h181l-208 -1446h-181z" />
    <glyph glyph-name="J" unicode="J" horiz-adv-x="759" 
d="M233 -20q-72 0 -134 18t-82 27l37 177q29 -11 64.5 -27.5t91.5 -16.5q93 0 135.5 54t59.5 182l153 1052h179l-159 -1105q-17 -115 -53.5 -196t-106 -123t-185.5 -42z" />
    <glyph glyph-name="K" unicode="K" horiz-adv-x="1315" 
d="M118 0l210 1446h186l-106 -748l714 748h214l-533 -564l366 -882h-204l-317 744l-276 -289l-66 -455h-188z" />
    <glyph glyph-name="L" unicode="L" horiz-adv-x="1114" 
d="M118 0l210 1446h184l-185 -1280h644l-25 -166h-828z" />
    <glyph glyph-name="M" unicode="M" horiz-adv-x="1706" 
d="M119 0l208 1446h251l235 -1194l585 1194h247l-207 -1446h-186l169 1169l-562 -1169h-165l-223 1158l-168 -1158h-184z" />
    <glyph glyph-name="N" unicode="N" horiz-adv-x="1459" 
d="M118 0l210 1446h172l557 -1124l161 1124h181l-210 -1446h-160l-566 1140l-164 -1140h-181z" />
    <glyph glyph-name="O" unicode="O" horiz-adv-x="1410" 
d="M628 -20q-185 0 -306 86.5t-168.5 251.5t-13.5 399q34 238 131 405.5t243.5 255.5t329.5 88q182 0 301.5 -87.5t167.5 -254.5t14 -404q-34 -235 -129.5 -400.5t-241 -252.5t-328.5 -87zM653 141q125 0 222 61t161.5 189t92.5 327q30 202 1.5 332t-107.5 192.5t-203 62.5
q-187 0 -312.5 -142.5t-169.5 -444.5q-28 -199 1 -326.5t109.5 -189t204.5 -61.5z" />
    <glyph glyph-name="P" unicode="P" horiz-adv-x="1227" 
d="M119 0l209 1446h464q146 0 253.5 -52t159 -154t30.5 -251q-22 -144 -97.5 -246t-192.5 -155t-261 -53h-303l-77 -535h-185zM403 691h301q92 0 168 37.5t126 107t63 164.5q20 144 -59 218t-221 74h-292z" />
    <glyph glyph-name="Q" unicode="Q" horiz-adv-x="1439" 
d="M1178 -242q-69 0 -140.5 17.5t-136 69t-109.5 153.5q-48 -9 -87 -13.5t-77 -4.5q-181 0 -302.5 85.5t-170.5 250.5t-15 404q35 238 131.5 405t242.5 254t329 87q182 0 302.5 -87t169 -254t14.5 -405q-32 -224 -118.5 -384.5t-239.5 -256.5q23 -82 85.5 -121.5
t144.5 -42.5zM652 141q189 0 312.5 139t166.5 439q29 197 1.5 327.5t-107 194.5t-206.5 64q-191 0 -314 -145t-167 -444q-42 -298 41.5 -436.5t272.5 -138.5z" />
    <glyph glyph-name="R" unicode="R" horiz-adv-x="1305" 
d="M118 0l209 1446h531q149 0 241.5 -47.5t129.5 -136t19 -211.5q-17 -118 -67 -196t-118 -125.5t-137 -73.5l174 -656h-190l-159 623h-363l-90 -623h-180zM410 776h297q101 0 176 29.5t121 88.5t58 146q18 128 -46.5 191.5t-194.5 63.5h-336z" />
    <glyph glyph-name="S" unicode="S" horiz-adv-x="1310" 
d="M588 -20q-98 0 -186 25t-156.5 75.5t-107 126t-37.5 177.5h191q7 -82 49.5 -138t112 -84t155.5 -28q97 0 176.5 28.5t131 81.5t61.5 127q9 65 -13 113t-71 80t-123 50l-260 66q-149 35 -223.5 125t-55.5 238q17 125 94 220t196.5 148t262.5 53q159 0 263 -61t152 -157.5
t37 -200.5h-188q4 98 -33.5 155.5t-103.5 82t-148 24.5q-77 0 -150.5 -27.5t-124 -82.5t-61.5 -136q-11 -78 33 -127t173 -84l251 -66q102 -23 162 -68t88 -102t33 -119t-3 -122q-15 -109 -89.5 -198.5t-198.5 -142t-289 -52.5z" />
    <glyph glyph-name="T" unicode="T" horiz-adv-x="1136" 
d="M411 0l183 1276h-439l25 170h1036l-23 -170h-418l-184 -1276h-180z" />
    <glyph glyph-name="U" unicode="U" horiz-adv-x="1351" 
d="M615 -20q-179 0 -280.5 62t-135 182t-8.5 295l134 927h186l-137 -955q-17 -117 8.5 -194.5t90.5 -116t166 -38.5q152 0 249 86t122 263l137 955h181l-135 -946q-24 -167 -93 -283t-188.5 -176.5t-296.5 -60.5z" />
    <glyph glyph-name="V" unicode="V" horiz-adv-x="1272" 
d="M446 0l-267 1446h176l230 -1235l593 1235h176l-693 -1446h-215z" />
    <glyph glyph-name="W" unicode="W" horiz-adv-x="1814" 
d="M365 0l-186 1446h183l135 -1151l469 1151h140l141 -1151l470 1151h180l-608 -1446h-164l-137 1121l-463 -1121h-160z" />
    <glyph glyph-name="X" unicode="X" horiz-adv-x="1326" 
d="M13 0l569 738l-342 708h227l254 -548l413 548h199l-534 -689l368 -757h-227l-278 592l-447 -592h-202z" />
    <glyph glyph-name="Y" unicode="Y" horiz-adv-x="1158" 
d="M413 0l87 616l-345 830h196l265 -665l451 665h198l-584 -831l-89 -615h-179z" />
    <glyph glyph-name="Z" unicode="Z" horiz-adv-x="1228" 
d="M54 0l16 102l915 1183h-713l24 161h967l-14 -98l-924 -1185h749l-25 -163h-995z" />
    <glyph glyph-name="bracketleft" unicode="[" horiz-adv-x="596" 
d="M63 -322l254 1768h356l-18 -119h-199l-221 -1530h199l-17 -119h-354z" />
    <glyph glyph-name="backslash" unicode="\" horiz-adv-x="663" 
d="M410 -77l-252 1523h137l254 -1523h-139z" />
    <glyph glyph-name="bracketright" unicode="]" horiz-adv-x="595" 
d="M-64 -322l17 119h199l221 1530h-199l18 119h353l-253 -1768h-356z" />
    <glyph glyph-name="asciicircum" unicode="^" horiz-adv-x="907" 
d="M629 256l-134 585l-304 -582h-138l386 723q23 45 54.5 61.5t59 2t39.5 -62.5l178 -727h-141z" />
    <glyph glyph-name="underscore" unicode="_" horiz-adv-x="998" 
d="M17 -237l23 145l746 1l-22 -145z" />
    <glyph glyph-name="grave" unicode="`" horiz-adv-x="504" 
d="M448 1155l-254 291h201l189 -291h-136z" />
    <glyph glyph-name="a" unicode="a" horiz-adv-x="1065" 
d="M349 -20q-95 0 -163 35.5t-99 102.5t-18 162q24 172 150.5 256t378.5 90l172 5l12 81q14 99 -38.5 152.5t-152.5 53.5q-81 -1 -154 -44t-103 -132h-159q18 90 78 160.5t154 111t213 40.5q127 0 207 -41t112.5 -115.5t17.5 -175.5l-104 -722h-154l13 188
q-75 -121 -167 -164.5t-196 -43.5zM422 113q49 0 99.5 19t95 51.5t74.5 73t36 83.5l25 177l-141 -3q-110 -2 -187.5 -24t-121.5 -69t-56 -123q-12 -87 37.5 -136t138.5 -49z" />
    <glyph glyph-name="b" unicode="b" horiz-adv-x="1157" 
d="M577 -20q-86 0 -142 24t-89 61.5t-49 77t-21 69.5l-48 -212h-138l199 1486h182l-82 -616q16 26 46 57t73.5 60t100 48t126.5 19q184 0 274 -135t56 -398q-33 -244 -157 -392.5t-331 -148.5zM563 122q118 0 205.5 97.5t115.5 310.5q24 181 -31.5 280.5t-188.5 99.5
q-144 0 -219.5 -99.5t-101.5 -280.5q-28 -217 23 -312.5t197 -95.5z" />
    <glyph glyph-name="c" unicode="c" horiz-adv-x="1044" 
d="M468 -20q-133 0 -226 61t-133.5 180t-16.5 292q24 162 94 283.5t181.5 189.5t255.5 68q107 0 185 -42.5t120 -120.5t40 -184h-160q0 54 -23.5 99t-69.5 72t-113 27q-124 0 -216 -96t-121 -294q-26 -179 31.5 -286.5t196.5 -107.5q66 0 120 27.5t90.5 73t50.5 97.5h157
q-27 -104 -92 -180t-155.5 -117.5t-195.5 -41.5z" />
    <glyph glyph-name="d" unicode="d" horiz-adv-x="1154" 
d="M437 -20q-193 0 -286 138t-58 403q33 242 153.5 387.5t319.5 145.5q70 0 121.5 -19t87 -48t57.5 -60t30 -57l83 616h183l-199 -1486h-138l9 212q-14 -30 -40.5 -69.5t-69.5 -77t-105 -61.5t-148 -24zM488 122q147 0 223.5 95.5t105.5 312.5q15 121 -1.5 206t-69.5 129.5
t-149 44.5q-120 0 -207.5 -91t-113.5 -289q-26 -194 28 -301t184 -107z" />
    <glyph glyph-name="e" unicode="e" horiz-adv-x="1088" 
d="M489 -20q-138 0 -233.5 63t-137 181t-17.5 283q23 163 94 286t182 192t254 69q139 0 226.5 -63t120.5 -177.5t10 -271.5l-9 -68h-701q-14 -98 5 -177.5t74.5 -126.5t149.5 -47q93 0 167 46t105 133h169q-33 -105 -105 -177t-165 -108.5t-189 -36.5zM296 599h528
q13 89 -5 160.5t-70 113t-140 41.5q-91 0 -157 -46.5t-105.5 -119t-50.5 -149.5z" />
    <glyph glyph-name="f" unicode="f" horiz-adv-x="761" 
d="M203 0l129 899h-206l21 135h204l24 160q18 123 87 187.5t188 64.5h186l-19 -131h-143q-61 0 -88 -34t-38 -103l-19 -144h239l-21 -135h-235l-129 -899h-180z" />
    <glyph glyph-name="g" unicode="g" horiz-adv-x="1189" 
d="M455 -342q-236 0 -357.5 73t-103.5 207q7 54 36.5 92.5t66.5 64t69 40.5t43 23q-14 10 -36 25t-38 41.5t-10 68.5q6 46 54 85t140 60q-79 45 -118 123t-27 169q13 96 71.5 168t158.5 112t237 40q99 0 161 -24t111 -66q18 8 53.5 22.5t77.5 31.5t80 32.5t59 24.5l-21 -173
l-179 -38q24 -70 15 -144q-12 -89 -66.5 -162t-150.5 -115.5t-232 -42.5q-14 0 -32.5 1t-28.5 1q-102 -1 -143 -20t-43 -44q-1 -30 38.5 -43t133.5 -21q38 -3 92.5 -6t118.5 -8q157 -9 233 -84.5t59 -201.5q-19 -138 -148.5 -225t-373.5 -87zM490 -223q138 0 217.5 45.5
t90.5 134.5q8 59 -29.5 97t-126.5 44l-271 18q-37 2 -80.5 -19.5t-76.5 -60.5t-40 -89q-11 -80 66 -125t250 -45zM558 515q108 0 181 54.5t87 158.5q14 102 -41.5 155t-158.5 53q-108 0 -183 -58t-90 -165q-13 -95 41 -146.5t164 -51.5z" />
    <glyph glyph-name="h" unicode="h" horiz-adv-x="1127" 
d="M90 0l204 1486h178l-82 -597q45 64 126.5 111t199.5 47q96 0 168.5 -38.5t109 -107.5t22.5 -160l-101 -741h-181l96 705q13 90 -40 140.5t-148 50.5q-66 0 -125.5 -22.5t-100.5 -67.5t-50 -113l-95 -693h-181z" />
    <glyph glyph-name="i" unicode="i" horiz-adv-x="491" 
d="M85 0l146 1034h175l-145 -1034h-176zM257 1255l27 191h184l-26 -191h-185z" />
    <glyph glyph-name="j" unicode="j" horiz-adv-x="514" 
d="M-44 -332q-79 0 -99 12l-20 12l18 123l98 5q66 5 96.5 37t40.5 103l155 1074h181l-157 -1080q-20 -145 -90.5 -215.5t-222.5 -70.5zM274 1268l28 191h191l-27 -191h-192z" />
    <glyph glyph-name="k" unicode="k" horiz-adv-x="1081" 
d="M80 0l214 1486h181l-139 -969l529 517h205l-411 -394l284 -640h-190l-228 519l-221 -211l-44 -308h-180z" />
    <glyph glyph-name="l" unicode="l" horiz-adv-x="593" 
d="M328 -13q-80 0 -126.5 23t-67 62t-22.5 89.5t5 104.5l177 1220h178l-174 -1202q-11 -78 12 -117t75 -43l52 -1l-17 -120q-25 -7 -49.5 -11.5t-42.5 -4.5z" />
    <glyph glyph-name="m" unicode="m" horiz-adv-x="1659" 
d="M80 0l149 1034h174l-21 -144q50 67 127.5 115.5t192.5 48.5q80 0 156 -39.5t101 -122.5q59 75 145.5 118.5t177.5 43.5q52 0 105 -16.5t95.5 -57t61.5 -111.5t3 -179l-100 -690h-179l97 674q14 92 -7 143.5t-63 71.5t-93 20q-55 0 -108 -21t-92 -70t-51 -132l-99 -686
h-179l104 728q10 60 -14.5 100.5t-67 60.5t-87.5 20q-49 0 -102 -20.5t-93 -65.5t-51 -116l-103 -707h-179z" />
    <glyph glyph-name="n" unicode="n" horiz-adv-x="1114" 
d="M80 0l150 1034h174l-19 -144q33 44 79.5 80t108 57.5t139.5 21.5q94 0 165.5 -42.5t106.5 -124.5t17 -202l-98 -680h-181l96 662q17 113 -34 173.5t-144 60.5q-66 0 -126.5 -22t-102 -67t-50.5 -112l-101 -695h-180z" />
    <glyph glyph-name="o" unicode="o" horiz-adv-x="1085" 
d="M470 -20q-136 0 -229 61.5t-132.5 180.5t-16.5 291q23 162 92 284t179.5 189.5t255.5 67.5q136 0 227.5 -62.5t130.5 -183.5t15 -295q-22 -158 -89.5 -278t-176.5 -187.5t-256 -67.5zM493 126q86 0 152.5 47t109.5 135t59 209q15 111 -0.5 199.5t-67.5 140.5t-148 52
q-89 0 -156 -46.5t-110 -134.5t-60 -211q-14 -109 1.5 -198t68.5 -141t151 -52z" />
    <glyph glyph-name="p" unicode="p" horiz-adv-x="1152" 
d="M44 -322l182 1356h180l-21 -180q29 42 76 88.5t115.5 79t156.5 32.5q118 0 200 -56.5t117 -172.5t11 -294q-23 -178 -89 -300.5t-167 -186.5t-230 -64q-65 0 -113 19.5t-81 51t-54 67.5t-33 69l-67 -509h-183zM560 124q120 0 209.5 97.5t116.5 303.5q23 177 -33.5 281
t-188.5 104q-136 0 -220 -106.5t-106 -278.5q-14 -111 4.5 -202t72.5 -145t145 -54z" />
    <glyph glyph-name="q" unicode="q" horiz-adv-x="1154" 
d="M701 -322l68 509q-27 -44 -72.5 -92t-110.5 -81.5t-152 -33.5q-118 0 -204 57.5t-123.5 179.5t-11.5 314q22 165 84 282t159 179t224 62q67 0 117 -19t85.5 -49t58 -65t35.5 -67l26 180h181l-182 -1356h-182zM488 124q91 0 159.5 54t111.5 145t57 202q23 172 -32.5 278.5
t-191.5 106.5q-119 0 -208.5 -95t-115.5 -290q-24 -187 32 -294t188 -107z" />
    <glyph glyph-name="r" unicode="r" horiz-adv-x="755" 
d="M80 0l146 1034h172l-27 -199q35 74 86 122.5t112 72.5t125 24q21 0 41 -3t30 -10l-25 -179q-13 7 -34.5 9.5t-36.5 2.5q-79 6 -146.5 -16.5t-113 -75.5t-57.5 -139l-91 -643h-181z" />
    <glyph glyph-name="s" unicode="s" horiz-adv-x="977" 
d="M430 -20q-102 0 -185.5 33.5t-132 105t-48.5 182.5h164q4 -61 33.5 -101.5t78 -61t109.5 -20.5q99 0 164.5 39t76.5 120q9 57 -18.5 91.5t-91.5 50.5l-195 53q-116 30 -178 94t-47 179q13 91 64.5 160t141 109t214.5 40q161 0 249.5 -75.5t72.5 -221.5h-160
q1 74 -46 117.5t-136 43.5q-93 0 -157 -39.5t-76 -122.5q-8 -55 29.5 -86.5t116.5 -52.5l187 -52q66 -19 107 -50t62 -69t25.5 -79.5t-0.5 -79.5q-13 -95 -68 -163.5t-145 -106t-211 -37.5z" />
    <glyph glyph-name="t" unicode="t" horiz-adv-x="755" 
d="M438 -5q-103 0 -155.5 29t-67 86t-3.5 140l94 649h-160l21 135h162l77 301h144l-43 -300h222l-21 -136h-221l-91 -636q-11 -83 13.5 -105t87.5 -22h108l-18 -124q-19 -7 -56.5 -12t-92.5 -5z" />
    <glyph glyph-name="u" unicode="u" horiz-adv-x="1124" 
d="M439 -20q-76 1 -141 23.5t-111.5 66.5t-67 109.5t-8.5 152.5l98 702h182l-96 -683q-15 -101 35 -164t168 -63q108 0 181 59.5t90 177.5l95 673h180l-146 -1034h-142l8 198q-28 -78 -78.5 -126t-114 -70.5t-132.5 -21.5z" />
    <glyph glyph-name="v" unicode="v" horiz-adv-x="963" 
d="M325 0l-205 1034h170l141 -802h15l375 802h168l-503 -1034h-161z" />
    <glyph glyph-name="w" unicode="w" horiz-adv-x="1483" 
d="M279 0l-154 1034h167l108 -795h14l333 795h136l113 -793h14l327 793h167l-447 -1034h-173l-112 763l-320 -763h-173z" />
    <glyph glyph-name="x" unicode="x" horiz-adv-x="1079" 
d="M-10 0l453 537l-274 497h195l201 -363l302 363h195l-418 -497l300 -537h-196l-224 405l-339 -405h-195z" />
    <glyph glyph-name="y" unicode="y" horiz-adv-x="1021" 
d="M123 -330q-86 0 -117 13l-31 13l17 120l101 -2q73 -3 115.5 15t65 45t35.5 53l48 98l-237 1009h182l171 -798l398 798h176l-570 -1112q-53 -98 -109 -153t-116.5 -77t-128.5 -22z" />
    <glyph glyph-name="z" unicode="z" horiz-adv-x="927" 
d="M6 0l14 115l662 783h-513l19 136h730l-14 -115l-662 -783h555l-20 -136h-771z" />
    <glyph glyph-name="braceleft" unicode="{" horiz-adv-x="632" 
d="M359 -322q-74 0 -126.5 25.5t-77.5 72.5t-16 112l64 432q6 47 -10.5 90.5t-60 71.5t-116.5 28l17 112q111 1 170 56.5t72 142.5l60 420q10 64 49 110t98.5 70.5t129.5 24.5h97l-18 -119h-69q-48 0 -75 -12t-39.5 -35t-17.5 -55l-61 -426q-12 -74 -46 -122.5t-80 -73.5
t-94 -30q-10 -1 -12 -6t10 -7q46 -4 85.5 -26.5t59.5 -71t10 -129.5l-61 -430q-8 -55 13 -80.5t89 -25.5h68l-18 -119h-94z" />
    <glyph glyph-name="bar" unicode="|" horiz-adv-x="529" 
d="M74 -322l283 1974h141l-285 -1974h-139z" />
    <glyph glyph-name="braceright" unicode="}" horiz-adv-x="641" 
d="M-79 -322l18 119h69q48 0 75 12t39.5 35t16.5 55l61 426q12 74 46 122.5t80.5 73.5t93.5 30q12 2 13 7t-11 6q-45 4 -84.5 26.5t-60 71t-9.5 130.5l61 429q8 56 -12.5 81t-90.5 25h-67l18 119h94q73 0 126 -25t78 -72.5t15 -112.5l-63 -432q-7 -47 10 -90.5t60.5 -71.5
t116.5 -28l-18 -112q-110 -1 -169 -56t-72 -143l-61 -420q-9 -64 -48 -110t-98.5 -70.5t-129.5 -24.5h-97z" />
    <glyph glyph-name="asciitilde" unicode="~" horiz-adv-x="1092" 
d="M181 605l-37 105q62 55 127 95.5t151 40.5q53 0 94.5 -16t78.5 -36.5t75.5 -36.5t85.5 -16q71 0 121 34.5t85 77.5l38 -107q-41 -57 -109 -94.5t-152 -37.5q-57 0 -98.5 16t-77 36.5t-73.5 36.5t-86 16q-72 0 -126 -36t-97 -78z" />
    <glyph glyph-name="uni00A0" unicode="&#xa0;" horiz-adv-x="486" 
 />
    <glyph glyph-name="exclamdown" unicode="&#xa1;" horiz-adv-x="501" 
d="M26 -322l181 987h119l-83 -987h-217zM178 801l31 233h213l-31 -233h-213z" />
    <glyph glyph-name="cent" unicode="&#xa2;" horiz-adv-x="1070" 
d="M522 202q-137 0 -233 61t-138 180t-16 292q24 162 96.5 283.5t187 189.5t262.5 68q111 0 191.5 -42.5t124 -120.5t40.5 -184h-168q-1 54 -24.5 99t-70 72t-114.5 27q-127 0 -220.5 -96t-122.5 -294q-26 -179 32 -286.5t199 -107.5q68 0 122.5 27.5t91.5 73t52 97.5h165
q-27 -104 -94 -180t-160.5 -117.5t-202.5 -41.5zM411 0l42 286h131l-42 -286h-131zM601 1160l42 286h130l-41 -286h-131z" />
    <glyph glyph-name="sterling" unicode="&#xa3;" horiz-adv-x="1172" 
d="M-42 0l23 159h71q72 0 130.5 65.5t79.5 208.5q8 51 11 109.5t3 145.5h-192l18 118h170l-3 165q-5 117 31.5 208t102.5 155.5t151 98t174 33.5q91 0 164.5 -31t123 -84.5t66.5 -121.5l-166 -58q-23 69 -65 103t-123 34q-92 0 -163.5 -58t-88.5 -165q-7 -56 -6 -130
t11 -148h303l-18 -118h-288q0 -71 -4.5 -123t-16.5 -106q-16 -86 -42.5 -144t-56.5 -95t-55 -60h326q96 0 157.5 36.5t106.5 126.5l149 -42q-65 -141 -172 -211.5t-255 -70.5h-657z" />
    <glyph glyph-name="currency" unicode="&#xa4;" horiz-adv-x="1040" 
d="M155 295l-71 94l130 117q-25 50 -32.5 104t0.5 117q9 58 31 109.5t55 95.5q7 10 7 16t-5 12l-85 108l99 91l96 -122q49 34 106 52.5t112 18.5q110 0 188 -63q13 -8 24 2l118 108l72 -92l-129 -117q25 -48 34 -103t0 -115q-7 -56 -30 -109.5t-59 -97.5q-8 -14 -2 -21
l90 -106l-100 -92l-93 117q-52 -34 -107 -53.5t-113 -19.5q-110 0 -190 61q-13 11 -26 -3zM512 485q65 0 121 34t94 89t47 120q10 64 -11.5 119t-68.5 89.5t-113 34.5q-65 0 -121.5 -34.5t-94.5 -89.5t-47 -119q-9 -65 12.5 -120t68.5 -89t113 -34z" />
    <glyph glyph-name="yen" unicode="&#xa5;" horiz-adv-x="1163" 
d="M408 0l86 605l-354 841h235l263 -661l455 661h192l-580 -808l-93 -638h-204zM157 266l17 116l782 1l-18 -116zM199 559l17 117l783 1l-17 -116z" />
    <glyph glyph-name="brokenbar" unicode="&#xa6;" horiz-adv-x="529" 
d="M243 850l114 802h141l-116 -802h-139zM74 -322l115 802h139l-115 -802h-139z" />
    <glyph glyph-name="section" unicode="&#xa7;" horiz-adv-x="940" 
d="M388 -144q-93 0 -170 30t-130 82.5t-76 119.5l128 64q33 -70 99 -118.5t168 -48.5q90 0 153.5 37t73.5 106q7 50 -24 94t-131 89l-151 66q-125 53 -173.5 124t-35.5 168q14 93 75.5 159t147.5 102q-98 61 -124.5 123.5t-16.5 132.5q12 79 65 142.5t138.5 100.5t192.5 37
q87 0 154.5 -28.5t114 -75t69.5 -100.5l-128 -65q-36 58 -88.5 99.5t-131.5 41.5q-93 0 -150 -37.5t-67 -98.5q-5 -44 21.5 -83t100.5 -74l148 -66q139 -63 193 -140t38 -182q-13 -98 -71 -157.5t-133 -98.5q79 -51 114.5 -111t23.5 -143q-13 -84 -67.5 -149.5
t-143.5 -103.5t-206 -38zM523 473q45 -4 86 17.5t68.5 59t32.5 82.5q6 59 -19.5 103t-113.5 84l-96 42q-51 -4 -94.5 -28.5t-72.5 -61.5t-35 -78q-7 -53 19 -89.5t121 -79.5z" />
    <glyph glyph-name="dieresis" unicode="&#xa8;" horiz-adv-x="539" 
d="M450 1267l25 179h181l-26 -179h-180zM113 1267l26 179h181l-26 -179h-181z" />
    <glyph glyph-name="copyright" unicode="&#xa9;" horiz-adv-x="1552" 
d="M695 -20q-146 0 -265 57.5t-201 159.5t-117 237t-13 290q22 153 96 287.5t185.5 236.5t247 160t281.5 58q145 0 264 -58t200.5 -160t117 -236.5t13.5 -287.5q-23 -155 -97 -290t-185.5 -237t-247 -159.5t-279.5 -57.5zM747 311q-107 0 -181 52.5t-107 146t-15 217.5
t78 218t149.5 147.5t195.5 53.5q80 0 136 -32t91 -82.5t54 -108.5l-137 -32q-15 42 -35 73.5t-49.5 49t-70.5 17.5q-62 0 -115.5 -36t-90.5 -103.5t-50 -160.5q-21 -145 28.5 -225t146.5 -80q72 0 128.5 42.5t97.5 109.5l95 -38q-24 -41 -58.5 -82t-79 -74t-97.5 -53
t-114 -20zM713 105q119 0 229 43.5t201 124.5t152 195.5t81 255.5q21 140 -7 254t-95.5 196t-165.5 126t-217 44q-121 0 -232 -44t-201 -126t-150.5 -196t-80.5 -254q-28 -189 28.5 -328t176 -215t281.5 -76z" />
    <glyph glyph-name="ordfeminine" unicode="&#xaa;" horiz-adv-x="770" 
d="M339 792q-94 0 -139.5 49t-33.5 132q14 95 99 151t229 66l104 10l5 46q10 67 -22.5 95t-90.5 28q-48 0 -87 -19.5t-77 -75.5l-100 30q44 76 112.5 117t170.5 41q125 0 174.5 -57.5t35.5 -158.5q-12 -80 -19.5 -135.5t-14.5 -99.5q-2 -15 -4.5 -39t-4.5 -49.5t-2 -46.5
l1 -72h-120l-3 85q-55 -49 -104.5 -73t-108.5 -24zM391 882q70 0 125 49q23 20 37.5 38.5t17.5 41.5l14 107l-84 -7q-99 -7 -152.5 -41.5t-61.5 -89.5q-6 -44 22.5 -71t81.5 -27z" />
    <glyph glyph-name="guillemotleft" unicode="&#xab;" horiz-adv-x="874" 
d="M607 140l-194 362l302 378h102l-243 -378l135 -362h-102zM272 140l-193 362l300 378h103l-243 -378l134 -362h-101z" />
    <glyph glyph-name="logicalnot" unicode="&#xac;" horiz-adv-x="1068" 
d="M142 654l23 144l820 1l-22 -143zM771 369l55 387h152l-57 -387h-150z" />
    <glyph glyph-name="uni00AD" unicode="&#xad;" horiz-adv-x="729" 
d="M113 443l21 145l481 2l-20 -146z" />
    <glyph glyph-name="registered" unicode="&#xae;" horiz-adv-x="1026" 
d="M511 536q-122 0 -213 62t-135 167.5t-25 234.5t93 235t183 168.5t232 62.5q121 0 211 -62.5t134 -168.5t25 -235q-18 -129 -92.5 -234.5t-183 -167.5t-229.5 -62zM525 628q102 0 186 46t140 129.5t72 196.5t-15.5 197t-102 130.5t-172.5 46.5q-105 0 -189.5 -46.5
t-139.5 -130.5t-71 -197q-24 -170 56 -271t236 -101zM375 767l67 461h197q72 0 107.5 -29.5t27.5 -87.5q-7 -53 -39.5 -82t-69.5 -42l53 -220h-91l-42 211h-96l-30 -211h-84zM498 1047h106q30 0 54 12t29 44q3 24 -12 41t-60 17h-100z" />
    <glyph glyph-name="macron" unicode="&#xaf;" horiz-adv-x="630" 
d="M131 1235l19 130h570l-19 -130h-570z" />
    <glyph glyph-name="degree" unicode="&#xb0;" horiz-adv-x="893" 
d="M515 1045q-86 0 -147 40t-89 110.5t-15 162.5q14 92 62.5 163t121.5 111.5t159 40.5q85 0 146 -40.5t89.5 -111.5t15.5 -163t-62 -162.5t-122.5 -110.5t-158.5 -40zM530 1161q81 0 135.5 54.5t66.5 140.5q13 86 -26.5 140t-121.5 54q-78 0 -133.5 -54t-68.5 -140
q-10 -86 29.5 -140.5t118.5 -54.5z" />
    <glyph glyph-name="plusminus" unicode="&#xb1;" horiz-adv-x="1072" 
d="M458 449l124 863h139l-125 -863h-138zM68 117l21 142l819 2l-20 -143zM168 808l21 143l820 1l-21 -143z" />
    <glyph glyph-name="uni00B2" unicode="&#xb2;" horiz-adv-x="700" 
d="M70 768l10 71l6 37q11 82 51.5 138t98.5 96.5t121 73.5t120 66.5t96 77t48 103.5q9 70 -31 113.5t-117 43.5q-84 0 -142.5 -50.5t-77.5 -134.5h-113q19 118 109 202.5t242 84.5q132 0 199.5 -71t50.5 -188q-12 -81 -52.5 -136.5t-97 -94.5t-118.5 -70.5t-118 -63.5
t-94.5 -74t-47.5 -103l-2 -18h456l-15 -103h-582z" />
    <glyph glyph-name="uni00B3" unicode="&#xb3;" horiz-adv-x="766" 
d="M376 754q-135 1 -208.5 75t-59.5 201h114q0 -85 46.5 -130.5t125.5 -45.5q95 0 158 46.5t73 119.5q12 83 -44.5 126.5t-146.5 44.5l-78 1l14 99l74 2q57 1 104 23t78.5 58t37.5 78q7 56 -35.5 98.5t-130.5 42.5q-46 0 -91 -19t-78 -58.5t-43 -103.5h-113q12 89 61.5 151
t122.5 94.5t156 32.5q90 0 155 -27t97 -79.5t21 -128.5q-10 -67 -58 -121t-136 -85q55 -17 92.5 -48.5t55 -77t8.5 -104.5q-11 -83 -63 -142.5t-132.5 -91.5t-176.5 -31z" />
    <glyph glyph-name="acute" unicode="&#xb4;" horiz-adv-x="422" 
d="M100 1155l235 291h207l-300 -291h-142z" />
    <glyph glyph-name="uni00B5" unicode="&#xb5;" horiz-adv-x="1133" 
d="M17 -330l201 1390h185l-105 -723q-7 -49 13 -89.5t60.5 -65t94.5 -24.5q77 0 153 47.5t147 127.5l103 727h187l-156 -1060h-178l24 164q-93 -76 -159 -111t-136 -39q-56 -4 -104 9t-87 49l-58 -402h-185z" />
    <glyph glyph-name="paragraph" unicode="&#xb6;" horiz-adv-x="1075" 
d="M388 -166l110 761q-119 4 -200.5 59t-117 147.5t-18.5 208.5q16 112 78.5 212t168 162t248.5 62h412l-16 -114h-115l-216 -1498h-118l215 1498h-95l-217 -1498h-119z" />
    <glyph glyph-name="periodcentered" unicode="&#xb7;" horiz-adv-x="451" 
d="M124 618l33 221h219l-33 -221h-219z" />
    <glyph glyph-name="cedilla" unicode="&#xb8;" horiz-adv-x="443" 
d="M74 -412q-51 0 -95 12t-79 38l41 78q22 -19 51 -33t72 -14q51 0 78.5 19t33.5 54q7 43 -26 64.5t-113 23.5q-10 0 -12.5 3t3.5 10l92 167h94l-62 -121q64 -3 98 -25.5t45 -55t7 -65.5q-8 -51 -41.5 -85t-82.5 -52t-104 -18z" />
    <glyph glyph-name="uni00B9" unicode="&#xb9;" horiz-adv-x="461" 
d="M214 760l104 724h-166l11 76q115 0 161 27.5t58 82.5h79l-131 -910h-116z" />
    <glyph glyph-name="ordmasculine" unicode="&#xba;" horiz-adv-x="762" 
d="M419 795q-135 0 -197.5 93.5t-42.5 238.5q14 101 61 177t117.5 118.5t157.5 42.5q132 0 197 -94t44 -244q-13 -97 -59 -172t-116.5 -117.5t-161.5 -42.5zM433 890q80 0 130.5 64t66.5 178q15 110 -17 173t-112 63t-130 -63t-66 -173q-16 -114 16.5 -178t111.5 -64z" />
    <glyph glyph-name="guillemotright" unicode="&#xbb;" horiz-adv-x="871" 
d="M390 140l240 362l-136 378h103l192 -378l-298 -362h-101zM56 140l238 362l-133 378h101l192 -378l-299 -362h-99z" />
    <glyph glyph-name="onequarter" unicode="&#xbc;" horiz-adv-x="1477" 
d="M214 552l104 724h-166l11 76q115 0 161 27.5t58 82.5h79l-131 -910h-116zM236 -8l-119 1l1135 1469h117zM1104 0l34 232h-405l16 107l482 571h115l-81 -575h141l-15 -103h-143l-33 -232h-111zM857 335h294l60 422z" />
    <glyph glyph-name="onehalf" unicode="&#xbd;" horiz-adv-x="1629" 
d="M214 552l104 724h-166l11 76q115 0 161 27.5t58 82.5h79l-131 -910h-116zM236 -8l-119 1l1135 1469h117zM920 0l11 71l5 37q12 82 52.5 138t98.5 96.5t121 73.5t120 66.5t96 77t47 103.5q10 70 -30 113.5t-117 43.5q-85 0 -143 -50.5t-77 -134.5h-113q19 118 109 202.5
t242 84.5q131 0 199 -71t50 -188q-11 -81 -51.5 -136.5t-97.5 -94.5t-118.5 -70.5t-117.5 -63.5t-94.5 -74t-47.5 -103l-2 -18h456l-16 -103h-582z" />
    <glyph glyph-name="threequarters" unicode="&#xbe;" horiz-adv-x="1714" 
d="M376 544q-135 1 -208.5 75t-59.5 201h114q0 -85 46.5 -130.5t125.5 -45.5q95 0 158 46.5t73 119.5q12 83 -44.5 126.5t-146.5 44.5l-78 1l14 99l74 2q57 1 104 23t78.5 58t37.5 78q7 56 -35.5 98.5t-130.5 42.5q-46 0 -91 -19t-78 -58.5t-43 -103.5h-113q12 89 61.5 151
t122.5 94.5t156 32.5q90 0 155 -27t97 -79.5t21 -128.5q-10 -67 -58 -121t-136 -85q55 -17 92.5 -48.5t55 -77t8.5 -104.5q-11 -83 -63 -142.5t-132.5 -91.5t-176.5 -31zM473 -8l-119 1l1135 1469h117zM1341 0l34 232h-405l16 107l482 571h115l-81 -575h141l-15 -103h-143
l-33 -232h-111zM1094 335h294l60 422z" />
    <glyph glyph-name="questiondown" unicode="&#xbf;" horiz-adv-x="995" 
d="M369 -342q-135 0 -223.5 45t-128 124t-26.5 180q14 98 61 164.5t110 117t126 100.5t110 116t60 163h155q-15 -112 -60.5 -187.5t-104 -130.5t-116.5 -103t-100.5 -102t-52.5 -130q-13 -97 45.5 -154.5t165.5 -57.5q61 0 123.5 25.5t114.5 70t79 99.5l155 -50
q-78 -136 -207.5 -213t-285.5 -77zM446 801l32 233h214l-31 -233h-215z" />
    <glyph glyph-name="Agrave" unicode="&#xc0;" horiz-adv-x="1362" 
d="M13 0l704 1446h202l285 -1446h-183l-76 396h-556l-193 -396h-183zM459 566h463l-129 697zM768 1567l-254 291h201l189 -291h-136z" />
    <glyph glyph-name="Aacute" unicode="&#xc1;" horiz-adv-x="1362" 
d="M13 0l704 1446h202l285 -1446h-183l-76 396h-556l-193 -396h-183zM459 566h463l-129 697zM747 1567l235 291h207l-300 -291h-142z" />
    <glyph glyph-name="Acircumflex" unicode="&#xc2;" horiz-adv-x="1362" 
d="M13 0l704 1446h202l285 -1446h-183l-76 396h-556l-193 -396h-183zM459 566h463l-129 697zM508 1567l256 225h129l217 -225h-170l-120 130l-153 -130h-159z" />
    <glyph glyph-name="Atilde" unicode="&#xc3;" horiz-adv-x="1362" 
d="M13 0l704 1446h202l285 -1446h-183l-76 396h-556l-193 -396h-183zM459 566h463l-129 697zM594 1635l-18 100q37 33 76 55t94 22q46 0 85.5 -14t77 -27.5t79.5 -13.5q43 0 76.5 17t64.5 38l15 -115q-27 -19 -70.5 -38.5t-103.5 -19.5q-50 0 -86 13t-70 26t-77 13
q-47 0 -78 -16.5t-65 -39.5z" />
    <glyph glyph-name="Adieresis" unicode="&#xc4;" horiz-adv-x="1362" 
d="M13 0l704 1446h202l285 -1446h-183l-76 396h-556l-193 -396h-183zM459 566h463l-129 697zM928 1679l25 179h181l-26 -179h-180zM591 1679l26 179h181l-26 -179h-181z" />
    <glyph glyph-name="Aring" unicode="&#xc5;" horiz-adv-x="1362" 
d="M13 0l704 1446h202l285 -1446h-183l-76 396h-556l-193 -396h-183zM459 566h463l-129 697zM835 1566q-81 0 -129.5 60.5t-35.5 149.5q8 55 41 100t81.5 72t102.5 27q82 0 130.5 -59t35.5 -144q-8 -59 -41 -105.5t-82 -73.5t-103 -27zM847 1662q43 0 76.5 33t40.5 76
q6 47 -18.5 76.5t-67.5 29.5q-40 0 -74.5 -29.5t-42.5 -76.5q-6 -43 19.5 -76t66.5 -33z" />
    <glyph glyph-name="AE" unicode="&#xc6;" horiz-adv-x="1860" 
d="M-73 0l963 1446h958l-23 -160h-651l-69 -477h589l-23 -159h-589l-70 -489h674l-23 -161h-880l58 401h-467l-264 -401h-183zM470 566h394l108 746z" />
    <glyph glyph-name="Ccedilla" unicode="&#xc7;" horiz-adv-x="1332" 
d="M539 -412q-51 0 -95 12t-79 38l41 78q22 -19 51.5 -33t71.5 -14q51 0 78.5 19t33.5 54q7 43 -26 64.5t-113 23.5q-9 0 -12 3t3 10l92 167h94l-62 -121q64 -3 98 -25.5t45 -55t7 -65.5q-8 -51 -41 -85t-82.5 -52t-104.5 -18zM623 -20q-176 0 -292 81.5t-165 237t-28 377.5
q15 176 67 321t139 250t208 162t276 57q144 0 247 -62t157 -167.5t52 -236.5h-192q-4 85 -37 154t-96 110t-160 41q-106 0 -186.5 -46t-137.5 -130.5t-91.5 -201t-48.5 -257.5q-28 -271 50.5 -400t256.5 -129q96 0 170.5 43t126.5 115t79 156h193q-24 -92 -72.5 -177.5
t-121.5 -152.5t-171 -106t-223 -39z" />
    <glyph glyph-name="Egrave" unicode="&#xc8;" horiz-adv-x="1202" 
d="M118 0l210 1446h865l-25 -163h-684l-68 -472h615l-23 -162h-615l-70 -482l704 -2l-25 -165h-884zM691 1567l-254 291h201l189 -291h-136z" />
    <glyph glyph-name="Eacute" unicode="&#xc9;" horiz-adv-x="1202" 
d="M118 0l210 1446h865l-25 -163h-684l-68 -472h615l-23 -162h-615l-70 -482l704 -2l-25 -165h-884zM670 1567l235 291h207l-300 -291h-142z" />
    <glyph glyph-name="Ecircumflex" unicode="&#xca;" horiz-adv-x="1202" 
d="M118 0l210 1446h865l-25 -163h-684l-68 -472h615l-23 -162h-615l-70 -482l704 -2l-25 -165h-884zM457 1567l256 225h129l217 -225h-170l-120 130l-153 -130h-159z" />
    <glyph glyph-name="Edieresis" unicode="&#xcb;" horiz-adv-x="1202" 
d="M118 0l210 1446h865l-25 -163h-684l-68 -472h615l-23 -162h-615l-70 -482l704 -2l-25 -165h-884zM851 1679l25 179h181l-26 -179h-180zM514 1679l26 179h181l-26 -179h-181z" />
    <glyph glyph-name="Igrave" unicode="&#xcc;" horiz-adv-x="569" 
d="M119 0l208 1446h181l-208 -1446h-181zM369 1567l-254 291h201l189 -291h-136z" />
    <glyph glyph-name="Iacute" unicode="&#xcd;" horiz-adv-x="569" 
d="M119 0l208 1446h181l-208 -1446h-181zM348 1567l235 291h207l-300 -291h-142z" />
    <glyph glyph-name="Icircumflex" unicode="&#xce;" horiz-adv-x="569" 
d="M119 0l208 1446h181l-208 -1446h-181zM135 1567l256 225h129l217 -225h-170l-120 130l-153 -130h-159z" />
    <glyph glyph-name="Idieresis" unicode="&#xcf;" horiz-adv-x="569" 
d="M119 0l208 1446h181l-208 -1446h-181zM530 1679l25 179h181l-26 -179h-180zM193 1679l26 179h181l-26 -179h-181z" />
    <glyph glyph-name="Eth" unicode="&#xd0;" horiz-adv-x="1413" 
d="M96 648l14 148h688l-14 -148h-688zM190 0l205 1446q6 0 69 -0.5t140 -0.5q135 -1 249.5 -17t204.5 -53.5t153.5 -100t96.5 -156.5t33 -223q0 -105 -16.5 -211.5t-54.5 -207t-100.5 -186.5t-156 -151t-220 -102t-293.5 -37h-310zM399 159h116q168 0 289 55t198 153.5
t114 231t37 288.5q0 149 -54.5 236.5t-157 125.5t-248.5 38h-133z" />
    <glyph glyph-name="Ntilde" unicode="&#xd1;" horiz-adv-x="1459" 
d="M118 0l210 1446h172l557 -1124l161 1124h181l-210 -1446h-160l-566 1140l-164 -1140h-181zM639 1635l-18 100q37 33 76 55t94 22q46 0 85.5 -14t77 -27.5t79.5 -13.5q43 0 76.5 17t64.5 38l15 -115q-27 -19 -70.5 -38.5t-103.5 -19.5q-50 0 -86 13t-70 26t-77 13
q-47 0 -78 -16.5t-65 -39.5z" />
    <glyph glyph-name="Ograve" unicode="&#xd2;" horiz-adv-x="1410" 
d="M628 -20q-185 0 -306 86.5t-168.5 251.5t-13.5 399q34 238 131 405.5t243.5 255.5t329.5 88q182 0 301.5 -87.5t167.5 -254.5t14 -404q-34 -235 -129.5 -400.5t-241 -252.5t-328.5 -87zM653 141q125 0 222 61t161.5 189t92.5 327q30 202 1.5 332t-107.5 192.5t-203 62.5
q-187 0 -312.5 -142.5t-169.5 -444.5q-28 -199 1 -326.5t109.5 -189t204.5 -61.5zM785 1567l-254 291h201l189 -291h-136z" />
    <glyph glyph-name="Oacute" unicode="&#xd3;" horiz-adv-x="1410" 
d="M628 -20q-185 0 -306 86.5t-168.5 251.5t-13.5 399q34 238 131 405.5t243.5 255.5t329.5 88q182 0 301.5 -87.5t167.5 -254.5t14 -404q-34 -235 -129.5 -400.5t-241 -252.5t-328.5 -87zM653 141q125 0 222 61t161.5 189t92.5 327q30 202 1.5 332t-107.5 192.5t-203 62.5
q-187 0 -312.5 -142.5t-169.5 -444.5q-28 -199 1 -326.5t109.5 -189t204.5 -61.5zM765 1567l235 291h207l-300 -291h-142z" />
    <glyph glyph-name="Ocircumflex" unicode="&#xd4;" horiz-adv-x="1410" 
d="M628 -20q-185 0 -306 86.5t-168.5 251.5t-13.5 399q34 238 131 405.5t243.5 255.5t329.5 88q182 0 301.5 -87.5t167.5 -254.5t14 -404q-34 -235 -129.5 -400.5t-241 -252.5t-328.5 -87zM653 141q125 0 222 61t161.5 189t92.5 327q30 202 1.5 332t-107.5 192.5t-203 62.5
q-187 0 -312.5 -142.5t-169.5 -444.5q-28 -199 1 -326.5t109.5 -189t204.5 -61.5zM552 1567l256 225h129l217 -225h-170l-120 130l-153 -130h-159z" />
    <glyph glyph-name="Otilde" unicode="&#xd5;" horiz-adv-x="1410" 
d="M628 -20q-185 0 -306 86.5t-168.5 251.5t-13.5 399q34 238 131 405.5t243.5 255.5t329.5 88q182 0 301.5 -87.5t167.5 -254.5t14 -404q-34 -235 -129.5 -400.5t-241 -252.5t-328.5 -87zM653 141q125 0 222 61t161.5 189t92.5 327q30 202 1.5 332t-107.5 192.5t-203 62.5
q-187 0 -312.5 -142.5t-169.5 -444.5q-28 -199 1 -326.5t109.5 -189t204.5 -61.5zM612 1635l-18 100q37 33 76 55t94 22q46 0 85.5 -14t77 -27.5t79.5 -13.5q43 0 76.5 17t64.5 38l15 -115q-27 -19 -70.5 -38.5t-103.5 -19.5q-50 0 -86 13t-70 26t-77 13q-47 0 -78 -16.5
t-65 -39.5z" />
    <glyph glyph-name="Odieresis" unicode="&#xd6;" horiz-adv-x="1410" 
d="M628 -20q-185 0 -306 86.5t-168.5 251.5t-13.5 399q34 238 131 405.5t243.5 255.5t329.5 88q182 0 301.5 -87.5t167.5 -254.5t14 -404q-34 -235 -129.5 -400.5t-241 -252.5t-328.5 -87zM653 141q125 0 222 61t161.5 189t92.5 327q30 202 1.5 332t-107.5 192.5t-203 62.5
q-187 0 -312.5 -142.5t-169.5 -444.5q-28 -199 1 -326.5t109.5 -189t204.5 -61.5zM946 1679l25 179h181l-26 -179h-180zM609 1679l26 179h181l-26 -179h-181z" />
    <glyph glyph-name="multiply" unicode="&#xd7;" horiz-adv-x="1040" 
d="M192 311l-83 103l796 730l84 -101zM784 311l-586 729l114 101l587 -727z" />
    <glyph glyph-name="Oslash" unicode="&#xd8;" horiz-adv-x="1433" 
d="M75 -27l-81 98l187 187q-36 88 -45 203.5t12 255.5q34 238 130.5 405.5t243 255.5t328.5 88q128 0 224.5 -43.5t160.5 -126.5l178 175l81 -96l-193 -193q36 -89 45 -205t-11 -257q-33 -235 -129 -400.5t-242 -252.5t-329 -87q-128 0 -224.5 42.5t-159.5 123.5zM661 140
q175 0 283.5 123.5t152.5 381.5q19 103 23 195t-6 174l-718 -734q75 -140 265 -140zM368 426l719 735q-36 75 -101 111t-159 36q-178 0 -289.5 -130t-157.5 -398q-16 -101 -19.5 -189t7.5 -165z" />
    <glyph glyph-name="Ugrave" unicode="&#xd9;" horiz-adv-x="1351" 
d="M615 -20q-179 0 -280.5 62t-135 182t-8.5 295l134 927h186l-137 -955q-17 -117 8.5 -194.5t90.5 -116t166 -38.5q152 0 249 86t122 263l137 955h181l-135 -946q-24 -167 -93 -283t-188.5 -176.5t-296.5 -60.5zM777 1567l-254 291h201l189 -291h-136z" />
    <glyph glyph-name="Uacute" unicode="&#xda;" horiz-adv-x="1351" 
d="M615 -20q-179 0 -280.5 62t-135 182t-8.5 295l134 927h186l-137 -955q-17 -117 8.5 -194.5t90.5 -116t166 -38.5q152 0 249 86t122 263l137 955h181l-135 -946q-24 -167 -93 -283t-188.5 -176.5t-296.5 -60.5zM757 1567l235 291h207l-300 -291h-142z" />
    <glyph glyph-name="Ucircumflex" unicode="&#xdb;" horiz-adv-x="1351" 
d="M615 -20q-179 0 -280.5 62t-135 182t-8.5 295l134 927h186l-137 -955q-17 -117 8.5 -194.5t90.5 -116t166 -38.5q152 0 249 86t122 263l137 955h181l-135 -946q-24 -167 -93 -283t-188.5 -176.5t-296.5 -60.5zM544 1567l256 225h129l217 -225h-170l-120 130l-153 -130
h-159z" />
    <glyph glyph-name="Udieresis" unicode="&#xdc;" horiz-adv-x="1351" 
d="M615 -20q-179 0 -280.5 62t-135 182t-8.5 295l134 927h186l-137 -955q-17 -117 8.5 -194.5t90.5 -116t166 -38.5q152 0 249 86t122 263l137 955h181l-135 -946q-24 -167 -93 -283t-188.5 -176.5t-296.5 -60.5zM938 1679l25 179h181l-26 -179h-180zM601 1679l26 179h181
l-26 -179h-181z" />
    <glyph glyph-name="Yacute" unicode="&#xdd;" horiz-adv-x="1158" 
d="M413 0l87 616l-345 830h196l265 -665l451 665h198l-584 -831l-89 -615h-179zM633 1570l235 291h207l-300 -291h-142z" />
    <glyph glyph-name="Thorn" unicode="&#xde;" horiz-adv-x="1256" 
d="M118 0l204 1446h186l-42 -297h309q150 0 259.5 -42.5t162.5 -131.5t33 -226q-20 -145 -98 -238.5t-198.5 -138.5t-266.5 -45h-316l-47 -327h-186zM373 488h317q88 0 162.5 26.5t125 83.5t63.5 151q12 86 -23 138.5t-105 76.5t-161 24l-309 1z" />
    <glyph glyph-name="germandbls" unicode="&#xdf;" horiz-adv-x="1106" 
d="M576 -20q-68 0 -133.5 19t-107.5 50l78 123q34 -24 72 -42.5t99 -18.5q97 0 163.5 50t79.5 143q10 69 -16 110t-73.5 66.5t-104.5 47.5q-45 19 -86.5 45t-64.5 69t-14 113q11 75 57 124t127 96q38 25 74.5 49t63.5 57t34 83q8 68 -31.5 109t-127.5 41q-102 0 -176 -68.5
t-92 -201.5l-147 -1044h-169l141 1011q15 94 52 173t97.5 138t142.5 91.5t185 32.5q115 0 181 -38.5t90.5 -101.5t13.5 -137q-10 -75 -45.5 -124t-90 -83.5t-123.5 -66.5q-60 -32 -85 -51.5t-30 -53.5q-4 -34 15 -49t71 -34q51 -23 107 -50.5t103 -69.5t71 -105.5t11 -159.5
q-16 -111 -75 -187.5t-146 -115.5t-191 -39z" />
    <glyph glyph-name="agrave" unicode="&#xe0;" horiz-adv-x="1100" 
d="M353 -20q-95 0 -163 35.5t-99 102.5t-18 162q24 172 150.5 256t378.5 90l172 5l12 81q14 99 -38.5 152.5t-152.5 53.5q-81 -1 -154 -44t-103 -132h-159q18 90 78 160.5t154 111t213 40.5q127 0 207 -41t112.5 -115.5t17.5 -175.5l-104 -722h-154l13 188
q-75 -121 -167 -164.5t-196 -43.5zM426 113q49 0 99.5 19t95 51.5t74.5 73t36 83.5l25 177l-141 -3q-110 -2 -187.5 -24t-121.5 -69t-56 -123q-12 -87 37.5 -136t138.5 -49zM576 1155l-254 291h201l189 -291h-136z" />
    <glyph glyph-name="aacute" unicode="&#xe1;" horiz-adv-x="1096" 
d="M349 -20q-95 0 -163 35.5t-99 102.5t-18 162q24 172 150.5 256t378.5 90l172 5l12 81q14 99 -38.5 152.5t-152.5 53.5q-81 -1 -154 -44t-103 -132h-159q18 90 78 160.5t154 111t213 40.5q127 0 207 -41t112.5 -115.5t17.5 -175.5l-104 -722h-154l13 188
q-75 -121 -167 -164.5t-196 -43.5zM422 113q49 0 99.5 19t95 51.5t74.5 73t36 83.5l25 177l-141 -3q-110 -2 -187.5 -24t-121.5 -69t-56 -123q-12 -87 37.5 -136t138.5 -49zM558 1155l235 291h207l-300 -291h-142z" />
    <glyph glyph-name="acircumflex" unicode="&#xe2;" horiz-adv-x="1096" 
d="M349 -20q-95 0 -163 35.5t-99 102.5t-18 162q24 172 150.5 256t378.5 90l172 5l12 81q14 99 -38.5 152.5t-152.5 53.5q-81 -1 -154 -44t-103 -132h-159q18 90 78 160.5t154 111t213 40.5q127 0 207 -41t112.5 -115.5t17.5 -175.5l-104 -722h-154l13 188
q-75 -121 -167 -164.5t-196 -43.5zM422 113q49 0 99.5 19t95 51.5t74.5 73t36 83.5l25 177l-141 -3q-110 -2 -187.5 -24t-121.5 -69t-56 -123q-12 -87 37.5 -136t138.5 -49zM332 1155l256 225h129l217 -225h-170l-120 130l-153 -130h-159z" />
    <glyph glyph-name="atilde" unicode="&#xe3;" horiz-adv-x="1096" 
d="M349 -20q-95 0 -163 35.5t-99 102.5t-18 162q24 172 150.5 256t378.5 90l172 5l12 81q14 99 -38.5 152.5t-152.5 53.5q-81 -1 -154 -44t-103 -132h-159q18 90 78 160.5t154 111t213 40.5q127 0 207 -41t112.5 -115.5t17.5 -175.5l-104 -722h-154l13 188
q-75 -121 -167 -164.5t-196 -43.5zM422 113q49 0 99.5 19t95 51.5t74.5 73t36 83.5l25 177l-141 -3q-110 -2 -187.5 -24t-121.5 -69t-56 -123q-12 -87 37.5 -136t138.5 -49zM393 1223l-18 100q37 33 76 55t94 22q46 0 85.5 -14t77 -27.5t79.5 -13.5q43 0 76.5 17t64.5 38
l15 -115q-27 -19 -70.5 -38.5t-103.5 -19.5q-50 0 -86 13t-70 26t-77 13q-47 0 -78 -16.5t-65 -39.5z" />
    <glyph glyph-name="adieresis" unicode="&#xe4;" horiz-adv-x="1096" 
d="M349 -20q-95 0 -163 35.5t-99 102.5t-18 162q24 172 150.5 256t378.5 90l172 5l12 81q14 99 -38.5 152.5t-152.5 53.5q-81 -1 -154 -44t-103 -132h-159q18 90 78 160.5t154 111t213 40.5q127 0 207 -41t112.5 -115.5t17.5 -175.5l-104 -722h-154l13 188
q-75 -121 -167 -164.5t-196 -43.5zM422 113q49 0 99.5 19t95 51.5t74.5 73t36 83.5l25 177l-141 -3q-110 -2 -187.5 -24t-121.5 -69t-56 -123q-12 -87 37.5 -136t138.5 -49zM722 1265l25 179h181l-26 -179h-180zM385 1265l26 179h181l-26 -179h-181z" />
    <glyph glyph-name="aring" unicode="&#xe5;" horiz-adv-x="1096" 
d="M817 1498l-74 -137q51 -21 77.5 -69.5t17.5 -112.5q-12 -87 -75.5 -142.5t-144.5 -55.5q-80 0 -126 57t-34 145q9 71 60.5 123t118.5 63l49 129h131zM745 1176q7 47 -18 77.5t-67 30.5q-40 0 -75.5 -30.5t-41.5 -77.5q-6 -42 20 -75.5t66 -33.5q43 0 76 33.5t40 75.5z
M349 -20q-95 0 -163 35.5t-99 102.5t-18 162q24 172 150.5 256t378.5 90l172 5l12 81q14 99 -38.5 152.5t-152.5 53.5q-81 -1 -154 -44t-103 -132h-159q18 90 78 160.5t154 111t213 40.5q127 0 207 -41t112.5 -115.5t17.5 -175.5l-104 -722h-154l13 188
q-75 -121 -167 -164.5t-196 -43.5zM422 113q49 0 99.5 19t95 51.5t74.5 73t36 83.5l25 177l-141 -3q-110 -2 -187.5 -24t-121.5 -69t-56 -123q-12 -87 37.5 -136t138.5 -49z" />
    <glyph glyph-name="ae" unicode="&#xe6;" horiz-adv-x="1755" 
d="M351 -20q-95 0 -163.5 35.5t-100.5 102.5t-18 162q24 172 150 256.5t380 89.5l174 5l11 81q14 99 -38 152.5t-153 53.5q-82 -1 -153 -44t-102 -132h-159q18 90 77 160.5t152.5 111t212.5 40.5q128 0 209 -49t105 -137q65 90 157.5 138t205.5 48q140 0 227 -63
t120.5 -177.5t10.5 -271.5l-10 -68h-701q-14 -98 4.5 -177.5t74.5 -126.5t150 -47q93 0 167 46t105 133h169q-33 -105 -105 -177t-165 -108.5t-189 -36.5q-139 0 -235 66.5t-133 189.5q-30 -78 -95.5 -136t-154 -89t-187.5 -31zM425 113q83 0 150 41t109.5 100.5t51.5 117.5
l21 145l-145 -3q-110 -2 -188 -24t-122 -69t-55 -123q-12 -87 38 -136t140 -49zM963 599h528q13 89 -5 160.5t-69.5 113t-140.5 41.5q-90 0 -156.5 -46.5t-106 -119t-50.5 -149.5z" />
    <glyph glyph-name="ccedilla" unicode="&#xe7;" horiz-adv-x="1044" 
d="M389 -412q-52 0 -96 12t-79 38l41 78q22 -19 51.5 -33t72.5 -14q51 0 78.5 19t32.5 54q7 43 -25.5 64.5t-112.5 23.5q-10 0 -12.5 3t2.5 10l93 167h94l-62 -121q64 -3 98 -25.5t45 -55t6 -65.5q-7 -51 -40.5 -85t-82.5 -52t-104 -18zM468 -20q-133 0 -226 61t-133.5 180
t-16.5 292q24 162 94 283.5t181.5 189.5t255.5 68q107 0 185 -42.5t120 -120.5t40 -184h-160q0 54 -23.5 99t-69.5 72t-113 27q-124 0 -216 -96t-121 -294q-26 -179 31.5 -286.5t196.5 -107.5q66 0 120 27.5t90.5 73t50.5 97.5h157q-27 -104 -92 -180t-155.5 -117.5
t-195.5 -41.5z" />
    <glyph glyph-name="egrave" unicode="&#xe8;" horiz-adv-x="1088" 
d="M489 -20q-138 0 -233.5 63t-137 181t-17.5 283q23 163 94 286t182 192t254 69q139 0 226.5 -63t120.5 -177.5t10 -271.5l-9 -68h-701q-14 -98 5 -177.5t74.5 -126.5t149.5 -47q93 0 167 46t105 133h169q-33 -105 -105 -177t-165 -108.5t-189 -36.5zM296 599h528
q13 89 -5 160.5t-70 113t-140 41.5q-91 0 -157 -46.5t-105.5 -119t-50.5 -149.5zM578 1155l-254 291h201l189 -291h-136z" />
    <glyph glyph-name="eacute" unicode="&#xe9;" horiz-adv-x="1088" 
d="M489 -20q-138 0 -233.5 63t-137 181t-17.5 283q23 163 94 286t182 192t254 69q139 0 226.5 -63t120.5 -177.5t10 -271.5l-9 -68h-701q-14 -98 5 -177.5t74.5 -126.5t149.5 -47q93 0 167 46t105 133h169q-33 -105 -105 -177t-165 -108.5t-189 -36.5zM296 599h528
q13 89 -5 160.5t-70 113t-140 41.5q-91 0 -157 -46.5t-105.5 -119t-50.5 -149.5zM558 1155l235 291h207l-300 -291h-142z" />
    <glyph glyph-name="ecircumflex" unicode="&#xea;" horiz-adv-x="1088" 
d="M489 -20q-138 0 -233.5 63t-137 181t-17.5 283q23 163 94 286t182 192t254 69q139 0 226.5 -63t120.5 -177.5t10 -271.5l-9 -68h-701q-14 -98 5 -177.5t74.5 -126.5t149.5 -47q93 0 167 46t105 133h169q-33 -105 -105 -177t-165 -108.5t-189 -36.5zM296 599h528
q13 89 -5 160.5t-70 113t-140 41.5q-91 0 -157 -46.5t-105.5 -119t-50.5 -149.5zM345 1155l256 225h129l217 -225h-170l-120 130l-153 -130h-159z" />
    <glyph glyph-name="edieresis" unicode="&#xeb;" horiz-adv-x="1088" 
d="M489 -20q-138 0 -233.5 63t-137 181t-17.5 283q23 163 94 286t182 192t254 69q139 0 226.5 -63t120.5 -177.5t10 -271.5l-9 -68h-701q-14 -98 5 -177.5t74.5 -126.5t149.5 -47q93 0 167 46t105 133h169q-33 -105 -105 -177t-165 -108.5t-189 -36.5zM296 599h528
q13 89 -5 160.5t-70 113t-140 41.5q-91 0 -157 -46.5t-105.5 -119t-50.5 -149.5zM739 1267l25 179h181l-26 -179h-180zM402 1267l26 179h181l-26 -179h-181z" />
    <glyph glyph-name="igrave" unicode="&#xec;" horiz-adv-x="490" 
d="M80 0l150 1034h181l-150 -1034h-181zM261 1155l-174 291h191l117 -290z" />
    <glyph glyph-name="iacute" unicode="&#xed;" horiz-adv-x="490" 
d="M80 0l150 1034h181l-150 -1034h-181zM403 1155l-139 1l173 290h201z" />
    <glyph glyph-name="icircumflex" unicode="&#xee;" horiz-adv-x="490" 
d="M80 0l150 1034h181l-150 -1034h-181zM37 1155l256 225h129l217 -225h-170l-120 130l-153 -130h-159z" />
    <glyph glyph-name="idieresis" unicode="&#xef;" horiz-adv-x="490" 
d="M80 0l150 1034h181l-150 -1034h-181zM432 1267l25 179h181l-26 -179h-180zM95 1267l26 179h181l-26 -179h-181z" />
    <glyph glyph-name="eth" unicode="&#xf0;" horiz-adv-x="1090" 
d="M484 -20q-127 0 -215.5 55t-135 154t-46.5 229q0 97 26.5 205t87 202.5t159.5 154.5t242 60q149 0 226 -81.5t98 -225.5l-116 154q-15 125 -67 233t-122.5 198.5t-139.5 161.5h164q103 -83 185 -198.5t130.5 -265.5t48.5 -336q0 -121 -27.5 -244.5t-88.5 -226.5
t-162 -166t-247 -63zM501 126q94 0 156.5 48.5t99.5 125t52.5 161t15.5 156.5q0 139 -59 210.5t-171 71.5q-92 0 -155 -46.5t-100.5 -120t-54 -156t-16.5 -154.5q0 -131 56 -213.5t176 -82.5zM407 1140l-17 96l652 189l15 -97z" />
    <glyph glyph-name="ntilde" unicode="&#xf1;" horiz-adv-x="1114" 
d="M80 0l150 1034h174l-19 -144q33 44 79.5 80t108 57.5t139.5 21.5q94 0 165.5 -42.5t106.5 -124.5t17 -202l-98 -680h-181l96 662q17 113 -34 173.5t-144 60.5q-66 0 -126.5 -22t-102 -67t-50.5 -112l-101 -695h-180zM430 1223l-18 100q37 33 76 55t94 22q46 0 85.5 -14
t77 -27.5t79.5 -13.5q43 0 76.5 17t64.5 38l15 -115q-27 -19 -70.5 -38.5t-103.5 -19.5q-50 0 -86 13t-70 26t-77 13q-47 0 -78 -16.5t-65 -39.5z" />
    <glyph glyph-name="ograve" unicode="&#xf2;" horiz-adv-x="1085" 
d="M470 -20q-136 0 -229 61.5t-132.5 180.5t-16.5 291q23 162 92 284t179.5 189.5t255.5 67.5q136 0 227.5 -62.5t130.5 -183.5t15 -295q-22 -158 -89.5 -278t-176.5 -187.5t-256 -67.5zM493 126q86 0 152.5 47t109.5 135t59 209q15 111 -0.5 199.5t-67.5 140.5t-148 52
q-89 0 -156 -46.5t-110 -134.5t-60 -211q-14 -109 1.5 -198t68.5 -141t151 -52zM545 1155l-254 291h201l189 -291h-136z" />
    <glyph glyph-name="oacute" unicode="&#xf3;" horiz-adv-x="1085" 
d="M470 -20q-136 0 -229 61.5t-132.5 180.5t-16.5 291q23 162 92 284t179.5 189.5t255.5 67.5q136 0 227.5 -62.5t130.5 -183.5t15 -295q-22 -158 -89.5 -278t-176.5 -187.5t-256 -67.5zM493 126q86 0 152.5 47t109.5 135t59 209q15 111 -0.5 199.5t-67.5 140.5t-148 52
q-89 0 -156 -46.5t-110 -134.5t-60 -211q-14 -109 1.5 -198t68.5 -141t151 -52zM524 1155l235 291h207l-300 -291h-142z" />
    <glyph glyph-name="ocircumflex" unicode="&#xf4;" horiz-adv-x="1085" 
d="M470 -20q-136 0 -229 61.5t-132.5 180.5t-16.5 291q23 162 92 284t179.5 189.5t255.5 67.5q136 0 227.5 -62.5t130.5 -183.5t15 -295q-22 -158 -89.5 -278t-176.5 -187.5t-256 -67.5zM493 126q86 0 152.5 47t109.5 135t59 209q15 111 -0.5 199.5t-67.5 140.5t-148 52
q-89 0 -156 -46.5t-110 -134.5t-60 -211q-14 -109 1.5 -198t68.5 -141t151 -52zM311 1155l256 225h129l217 -225h-170l-120 130l-153 -130h-159z" />
    <glyph glyph-name="otilde" unicode="&#xf5;" horiz-adv-x="1085" 
d="M470 -20q-136 0 -229 61.5t-132.5 180.5t-16.5 291q23 162 92 284t179.5 189.5t255.5 67.5q136 0 227.5 -62.5t130.5 -183.5t15 -295q-22 -158 -89.5 -278t-176.5 -187.5t-256 -67.5zM493 126q86 0 152.5 47t109.5 135t59 209q15 111 -0.5 199.5t-67.5 140.5t-148 52
q-89 0 -156 -46.5t-110 -134.5t-60 -211q-14 -109 1.5 -198t68.5 -141t151 -52zM371 1223l-18 100q37 33 76 55t94 22q46 0 85.5 -14t77 -27.5t79.5 -13.5q43 0 76.5 17t64.5 38l15 -115q-27 -19 -70.5 -38.5t-103.5 -19.5q-50 0 -86 13t-70 26t-77 13q-47 0 -78 -16.5
t-65 -39.5z" />
    <glyph glyph-name="odieresis" unicode="&#xf6;" horiz-adv-x="1085" 
d="M470 -20q-136 0 -229 61.5t-132.5 180.5t-16.5 291q23 162 92 284t179.5 189.5t255.5 67.5q136 0 227.5 -62.5t130.5 -183.5t15 -295q-22 -158 -89.5 -278t-176.5 -187.5t-256 -67.5zM493 126q86 0 152.5 47t109.5 135t59 209q15 111 -0.5 199.5t-67.5 140.5t-148 52
q-89 0 -156 -46.5t-110 -134.5t-60 -211q-14 -109 1.5 -198t68.5 -141t151 -52zM705 1267l25 179h181l-26 -179h-180zM368 1267l26 179h181l-26 -179h-181z" />
    <glyph glyph-name="divide" unicode="&#xf7;" horiz-adv-x="1068" 
d="M142 654l21 144l821 1l-21 -143zM385 264l33 223h222l-31 -223h-224zM488 968l32 223h224l-33 -223h-223z" />
    <glyph glyph-name="oslash" unicode="&#xf8;" horiz-adv-x="1059" 
d="M52 -11l-75 79l1010 974l74 -79zM426 -20q-136 0 -229 61.5t-132.5 180.5t-15.5 291q22 162 91 284t179.5 189.5t255.5 67.5q136 0 228 -62.5t130.5 -183.5t14.5 -295q-22 -158 -89.5 -278t-176.5 -187.5t-256 -67.5zM449 126q86 0 152.5 47t110 135t59.5 209
q15 111 -1 199.5t-68 140.5t-148 52q-89 0 -156 -46.5t-110 -134.5t-59 -211q-15 -109 0.5 -198t69 -141t150.5 -52z" />
    <glyph glyph-name="ugrave" unicode="&#xf9;" horiz-adv-x="1124" 
d="M439 -20q-76 1 -141 23.5t-111.5 66.5t-67 109.5t-8.5 152.5l98 702h182l-96 -683q-15 -101 35 -164t168 -63q108 0 181 59.5t90 177.5l95 673h180l-146 -1034h-142l8 198q-28 -78 -78.5 -126t-114 -70.5t-132.5 -21.5zM577 1155l-254 291h201l189 -291h-136z" />
    <glyph glyph-name="uacute" unicode="&#xfa;" horiz-adv-x="1124" 
d="M439 -20q-76 1 -141 23.5t-111.5 66.5t-67 109.5t-8.5 152.5l98 702h182l-96 -683q-15 -101 35 -164t168 -63q108 0 181 59.5t90 177.5l95 673h180l-146 -1034h-142l8 198q-28 -78 -78.5 -126t-114 -70.5t-132.5 -21.5zM556 1155l235 291h207l-300 -291h-142z" />
    <glyph glyph-name="ucircumflex" unicode="&#xfb;" horiz-adv-x="1124" 
d="M439 -20q-76 1 -141 23.5t-111.5 66.5t-67 109.5t-8.5 152.5l98 702h182l-96 -683q-15 -101 35 -164t168 -63q108 0 181 59.5t90 177.5l95 673h180l-146 -1034h-142l8 198q-28 -78 -78.5 -126t-114 -70.5t-132.5 -21.5zM343 1155l256 225h129l217 -225h-170l-120 130
l-153 -130h-159z" />
    <glyph glyph-name="udieresis" unicode="&#xfc;" horiz-adv-x="1124" 
d="M439 -20q-76 1 -141 23.5t-111.5 66.5t-67 109.5t-8.5 152.5l98 702h182l-96 -683q-15 -101 35 -164t168 -63q108 0 181 59.5t90 177.5l95 673h180l-146 -1034h-142l8 198q-28 -78 -78.5 -126t-114 -70.5t-132.5 -21.5zM737 1267l25 179h181l-26 -179h-180zM400 1267
l26 179h181l-26 -179h-181z" />
    <glyph glyph-name="yacute" unicode="&#xfd;" horiz-adv-x="1021" 
d="M123 -330q-86 0 -117 13l-31 13l17 120l101 -2q73 -3 115.5 15t65 45t35.5 53l48 98l-237 1009h182l171 -798l398 798h176l-570 -1112q-53 -98 -109 -153t-116.5 -77t-128.5 -22zM513 1155l235 291h207l-300 -291h-142z" />
    <glyph glyph-name="thorn" unicode="&#xfe;" horiz-adv-x="1136" 
d="M35 -322l255 1768h180l-79 -554q27 27 70 65.5t107.5 67.5t152.5 29q113 0 195 -57.5t118.5 -173.5t10.5 -292q-24 -177 -95 -300t-174.5 -187t-226.5 -64q-84 0 -144 28t-101 71q-16 16 -22 13.5t-10 -26.5l-56 -388h-181zM513 110q86 0 157 46.5t121 139.5t71 233
q19 141 -6.5 227.5t-82.5 126.5t-134 40q-71 0 -131 -33t-98 -82.5t-46 -98.5l-67 -475q43 -56 95 -90t121 -34z" />
    <glyph glyph-name="ydieresis" unicode="&#xff;" horiz-adv-x="1021" 
d="M123 -330q-86 0 -117 13l-31 13l17 120l101 -2q73 -3 115.5 15t65 45t35.5 53l48 98l-237 1009h182l171 -798l398 798h176l-570 -1112q-53 -98 -109 -153t-116.5 -77t-128.5 -22zM694 1267l25 179h181l-26 -179h-180zM357 1267l26 179h181l-26 -179h-181z" />
    <glyph glyph-name="Amacron" unicode="&#x100;" horiz-adv-x="1362" 
d="M13 0l704 1446h202l285 -1446h-183l-76 396h-556l-193 -396h-183zM459 566h463l-129 697zM565 1647l19 130h570l-19 -130h-570z" />
    <glyph glyph-name="amacron" unicode="&#x101;" horiz-adv-x="1096" 
d="M349 -20q-95 0 -163 35.5t-99 102.5t-18 162q24 172 150.5 256t378.5 90l172 5l12 81q14 99 -38.5 152.5t-152.5 53.5q-81 -1 -154 -44t-103 -132h-159q18 90 78 160.5t154 111t213 40.5q127 0 207 -41t112.5 -115.5t17.5 -175.5l-104 -722h-154l13 188
q-75 -121 -167 -164.5t-196 -43.5zM422 113q49 0 99.5 19t95 51.5t74.5 73t36 83.5l25 177l-141 -3q-110 -2 -187.5 -24t-121.5 -69t-56 -123q-12 -87 37.5 -136t138.5 -49zM362 1235l19 130h570l-19 -130h-570z" />
    <glyph glyph-name="Abreve" unicode="&#x102;" horiz-adv-x="1362" 
d="M13 0l704 1446h202l285 -1446h-183l-76 396h-556l-193 -396h-183zM459 566h463l-129 697zM833 1567q-77 0 -131.5 29t-85.5 78t-38 110h130q9 -21 24 -45.5t43 -41.5t74 -17q64 0 106.5 34t69.5 70h131q-25 -56 -71 -105.5t-110 -80.5t-142 -31z" />
    <glyph glyph-name="abreve" unicode="&#x103;" horiz-adv-x="1096" 
d="M349 -20q-95 0 -163 35.5t-99 102.5t-18 162q24 172 150.5 256t378.5 90l172 5l12 81q14 99 -38.5 152.5t-152.5 53.5q-81 -1 -154 -44t-103 -132h-159q18 90 78 160.5t154 111t213 40.5q127 0 207 -41t112.5 -115.5t17.5 -175.5l-104 -722h-154l13 188
q-75 -121 -167 -164.5t-196 -43.5zM422 113q49 0 99.5 19t95 51.5t74.5 73t36 83.5l25 177l-141 -3q-110 -2 -187.5 -24t-121.5 -69t-56 -123q-12 -87 37.5 -136t138.5 -49zM629 1152q-77 0 -131.5 29t-85.5 78t-38 110h130q9 -21 24 -45.5t43 -41.5t74 -17q64 0 106.5 34
t69.5 70h131q-25 -56 -71 -105.5t-110 -80.5t-142 -31z" />
    <glyph glyph-name="Aogonek" unicode="&#x104;" horiz-adv-x="1362" 
d="M13 0l704 1446h202l285 -1446h-183l-76 396h-556l-193 -396h-183zM459 566h463l-129 697zM1012 -335q-93 0 -134.5 42.5t-31.5 115.5q9 60 56 107.5t164 85.5l131 -12q-103 -42 -150 -79t-55 -86q-4 -36 13 -54.5t63 -18.5t82.5 12.5t58.5 24.5l-14 -97q-26 -15 -76 -28
t-107 -13z" />
    <glyph glyph-name="aogonek" unicode="&#x105;" horiz-adv-x="1064" 
d="M349 -20q-95 0 -163 35.5t-99 102.5t-18 162q24 172 150.5 256t378.5 90l172 5l12 81q14 99 -38.5 152.5t-152.5 53.5q-81 -1 -154 -44t-103 -132h-159q18 90 78 160.5t154 111t213 40.5q127 0 207 -41t112.5 -115.5t17.5 -175.5l-104 -722h-154l13 188
q-75 -121 -167 -164.5t-196 -43.5zM422 113q49 0 99.5 19t95 51.5t74.5 73t36 83.5l25 177l-141 -3q-110 -2 -187.5 -24t-121.5 -69t-56 -123q-12 -87 37.5 -136t138.5 -49zM660 -329q-93 0 -134.5 42.5t-31.5 115.5q9 60 56 107.5t164 85.5l131 -12q-103 -42 -150 -79
t-55 -86q-4 -36 13 -54.5t63 -18.5t82.5 12.5t58.5 24.5l-14 -97q-26 -15 -76 -28t-107 -13z" />
    <glyph glyph-name="Cacute" unicode="&#x106;" horiz-adv-x="1332" 
d="M623 -20q-176 0 -292 81.5t-165 237t-28 377.5q15 176 67 321t139 250t208 162t276 57q144 0 247 -62t157 -167.5t52 -236.5h-192q-4 85 -37 154t-96 110t-160 41q-106 0 -186.5 -46t-137.5 -130.5t-91.5 -201t-48.5 -257.5q-28 -271 50.5 -400t256.5 -129q96 0 170.5 43
t126.5 115t79 156h193q-24 -92 -72.5 -177.5t-121.5 -152.5t-171 -106t-223 -39zM754 1567l235 291h207l-300 -291h-142z" />
    <glyph glyph-name="cacute" unicode="&#x107;" horiz-adv-x="1037" 
d="M468 -20q-133 0 -226 61t-133.5 180t-16.5 292q24 162 94 283.5t181.5 189.5t255.5 68q107 0 185 -42.5t120 -120.5t40 -184h-160q0 54 -23.5 99t-69.5 72t-113 27q-124 0 -216 -96t-121 -294q-26 -179 31.5 -286.5t196.5 -107.5q66 0 120 27.5t90.5 73t50.5 97.5h157
q-27 -104 -92 -180t-155.5 -117.5t-195.5 -41.5zM541 1155l235 291h207l-300 -291h-142z" />
    <glyph glyph-name="Ccircumflex" unicode="&#x108;" horiz-adv-x="1332" 
d="M623 -20q-176 0 -292 81.5t-165 237t-28 377.5q15 176 67 321t139 250t208 162t276 57q144 0 247 -62t157 -167.5t52 -236.5h-192q-4 85 -37 154t-96 110t-160 41q-106 0 -186.5 -46t-137.5 -130.5t-91.5 -201t-48.5 -257.5q-28 -271 50.5 -400t256.5 -129q96 0 170.5 43
t126.5 115t79 156h193q-24 -92 -72.5 -177.5t-121.5 -152.5t-171 -106t-223 -39zM541 1567l256 225h129l217 -225h-170l-120 130l-153 -130h-159z" />
    <glyph glyph-name="ccircumflex" unicode="&#x109;" horiz-adv-x="1044" 
d="M468 -20q-133 0 -226 61t-133.5 180t-16.5 292q24 162 94 283.5t181.5 189.5t255.5 68q107 0 185 -42.5t120 -120.5t40 -184h-160q0 54 -23.5 99t-69.5 72t-113 27q-124 0 -216 -96t-121 -294q-26 -179 31.5 -286.5t196.5 -107.5q66 0 120 27.5t90.5 73t50.5 97.5h157
q-27 -104 -92 -180t-155.5 -117.5t-195.5 -41.5zM335 1155l256 225h129l217 -225h-170l-120 130l-153 -130h-159z" />
    <glyph glyph-name="Cdotaccent" unicode="&#x10a;" horiz-adv-x="1332" 
d="M623 -20q-176 0 -292 81.5t-165 237t-28 377.5q15 176 67 321t139 250t208 162t276 57q144 0 247 -62t157 -167.5t52 -236.5h-192q-4 85 -37 154t-96 110t-160 41q-106 0 -186.5 -46t-137.5 -130.5t-91.5 -201t-48.5 -257.5q-28 -271 50.5 -400t256.5 -129q96 0 170.5 43
t126.5 115t79 156h193q-24 -92 -72.5 -177.5t-121.5 -152.5t-171 -106t-223 -39zM767 1679l26 179h181l-26 -179h-181z" />
    <glyph glyph-name="cdotaccent" unicode="&#x10b;" horiz-adv-x="1044" 
d="M468 -20q-133 0 -226 61t-133.5 180t-16.5 292q24 162 94 283.5t181.5 189.5t255.5 68q107 0 185 -42.5t120 -120.5t40 -184h-160q0 54 -23.5 99t-69.5 72t-113 27q-124 0 -216 -96t-121 -294q-26 -179 31.5 -286.5t196.5 -107.5q66 0 120 27.5t90.5 73t50.5 97.5h157
q-27 -104 -92 -180t-155.5 -117.5t-195.5 -41.5zM562 1267l26 179h181l-26 -179h-181z" />
    <glyph glyph-name="Ccaron" unicode="&#x10c;" horiz-adv-x="1332" 
d="M623 -20q-176 0 -292 81.5t-165 237t-28 377.5q15 176 67 321t139 250t208 162t276 57q144 0 247 -62t157 -167.5t52 -236.5h-192q-4 85 -37 154t-96 110t-160 41q-106 0 -186.5 -46t-137.5 -130.5t-91.5 -201t-48.5 -257.5q-28 -271 50.5 -400t256.5 -129q96 0 170.5 43
t126.5 115t79 156h193q-24 -92 -72.5 -177.5t-121.5 -152.5t-171 -106t-223 -39zM775 1566l-207 226h160l124 -135l151 135h168l-265 -226h-131z" />
    <glyph glyph-name="ccaron" unicode="&#x10d;" horiz-adv-x="1044" 
d="M468 -20q-133 0 -226 61t-133.5 180t-16.5 292q24 162 94 283.5t181.5 189.5t255.5 68q107 0 185 -42.5t120 -120.5t40 -184h-160q0 54 -23.5 99t-69.5 72t-113 27q-124 0 -216 -96t-121 -294q-26 -179 31.5 -286.5t196.5 -107.5q66 0 120 27.5t90.5 73t50.5 97.5h157
q-27 -104 -92 -180t-155.5 -117.5t-195.5 -41.5zM570 1154l-207 226h160l124 -135l151 135h168l-265 -226h-131z" />
    <glyph glyph-name="Dcaron" unicode="&#x10e;" horiz-adv-x="1342" 
d="M120 0l204 1446q7 0 69.5 -0.5t139.5 -0.5q136 -1 250.5 -17t204.5 -53.5t153 -100t96 -156.5t33 -223q0 -105 -16.5 -211.5t-54 -207t-100.5 -186.5t-156 -151t-220 -102t-293 -37h-310zM328 159h116q169 0 289.5 55t198 153.5t114 231t36.5 288.5q0 149 -54 236.5
t-157 125.5t-249 38h-132zM848 1566l-207 226h160l124 -135l151 135h168l-265 -226h-131z" />
    <glyph glyph-name="dcaron" unicode="&#x10f;" horiz-adv-x="1128" 
d="M437 -20q-193 0 -286 138t-58 403q33 242 153.5 387.5t319.5 145.5q70 0 121.5 -19t87 -48t57.5 -60t30 -57l83 616h183l-199 -1486h-138l9 212q-14 -30 -40.5 -69.5t-69.5 -77t-105 -61.5t-148 -24zM488 122q147 0 223.5 95.5t105.5 312.5q15 121 -1.5 206t-69.5 129.5
t-149 44.5q-120 0 -207.5 -91t-113.5 -289q-26 -194 28 -301t184 -107zM1164 1098l98 184l-50 10l28 194h146l-29 -204l-102 -184h-91z" />
    <glyph glyph-name="Dcroat" unicode="&#x110;" horiz-adv-x="1413" 
d="M96 648l14 148h688l-14 -148h-688zM190 0l205 1446q6 0 69 -0.5t140 -0.5q135 -1 249.5 -17t204.5 -53.5t153.5 -100t96.5 -156.5t33 -223q0 -105 -16.5 -211.5t-54.5 -207t-100.5 -186.5t-156 -151t-220 -102t-293.5 -37h-310zM399 159h116q168 0 289 55t198 153.5
t114 231t37 288.5q0 149 -54.5 236.5t-157 125.5t-248.5 38h-133z" />
    <glyph glyph-name="dcroat" unicode="&#x111;" horiz-adv-x="1162" 
d="M579 1191l10 116h617l-9 -116h-618zM437 -20q-193 0 -286 138t-58 403q33 242 153.5 387.5t319.5 145.5q70 0 121.5 -19t87 -48t57.5 -60t30 -57l83 616h183l-199 -1486h-138l9 212q-14 -30 -40.5 -69.5t-69.5 -77t-105 -61.5t-148 -24zM488 122q147 0 223.5 95.5
t105.5 312.5q15 121 -1.5 206t-69.5 129.5t-149 44.5q-120 0 -207.5 -91t-113.5 -289q-26 -194 28 -301t184 -107z" />
    <glyph glyph-name="Emacron" unicode="&#x112;" horiz-adv-x="1202" 
d="M118 0l210 1446h865l-25 -163h-684l-68 -472h615l-23 -162h-615l-70 -482l704 -2l-25 -165h-884zM488 1647l19 130h570l-19 -130h-570z" />
    <glyph glyph-name="emacron" unicode="&#x113;" horiz-adv-x="1088" 
d="M489 -20q-138 0 -233.5 63t-137 181t-17.5 283q23 163 94 286t182 192t254 69q139 0 226.5 -63t120.5 -177.5t10 -271.5l-9 -68h-701q-14 -98 5 -177.5t74.5 -126.5t149.5 -47q93 0 167 46t105 133h169q-33 -105 -105 -177t-165 -108.5t-189 -36.5zM296 599h528
q13 89 -5 160.5t-70 113t-140 41.5q-91 0 -157 -46.5t-105.5 -119t-50.5 -149.5zM376 1235l19 130h570l-19 -130h-570z" />
    <glyph glyph-name="Ebreve" unicode="&#x114;" horiz-adv-x="1202" 
d="M118 0l210 1446h865l-25 -163h-684l-68 -472h615l-23 -162h-615l-70 -482l704 -2l-25 -165h-884zM756 1567q-77 0 -131.5 29t-85.5 78t-38 110h130q9 -21 24 -45.5t43 -41.5t74 -17q64 0 106.5 34t69.5 70h131q-25 -56 -71 -105.5t-110 -80.5t-142 -31z" />
    <glyph glyph-name="ebreve" unicode="&#x115;" horiz-adv-x="1088" 
d="M489 -20q-138 0 -233.5 63t-137 181t-17.5 283q23 163 94 286t182 192t254 69q139 0 226.5 -63t120.5 -177.5t10 -271.5l-9 -68h-701q-14 -98 5 -177.5t74.5 -126.5t149.5 -47q93 0 167 46t105 133h169q-33 -105 -105 -177t-165 -108.5t-189 -36.5zM296 599h528
q13 89 -5 160.5t-70 113t-140 41.5q-91 0 -157 -46.5t-105.5 -119t-50.5 -149.5zM643 1155q-77 0 -131.5 29t-85.5 78t-38 110h130q9 -21 24 -45.5t43 -41.5t74 -17q64 0 106.5 34t69.5 70h131q-25 -56 -71 -105.5t-110 -80.5t-142 -31z" />
    <glyph glyph-name="Edotaccent" unicode="&#x116;" horiz-adv-x="1202" 
d="M118 0l210 1446h865l-25 -163h-684l-68 -472h615l-23 -162h-615l-70 -482l704 -2l-25 -165h-884zM684 1679l26 179h181l-26 -179h-181z" />
    <glyph glyph-name="edotaccent" unicode="&#x117;" horiz-adv-x="1088" 
d="M489 -20q-138 0 -233.5 63t-137 181t-17.5 283q23 163 94 286t182 192t254 69q139 0 226.5 -63t120.5 -177.5t10 -271.5l-9 -68h-701q-14 -98 5 -177.5t74.5 -126.5t149.5 -47q93 0 167 46t105 133h169q-33 -105 -105 -177t-165 -108.5t-189 -36.5zM296 599h528
q13 89 -5 160.5t-70 113t-140 41.5q-91 0 -157 -46.5t-105.5 -119t-50.5 -149.5zM572 1267l26 179h181l-26 -179h-181z" />
    <glyph glyph-name="Eogonek" unicode="&#x118;" horiz-adv-x="1202" 
d="M118 0l210 1446h865l-25 -163h-684l-68 -472h615l-23 -162h-615l-70 -482l704 -2l-25 -165h-884zM817 -335q-93 0 -134.5 42.5t-31.5 115.5q9 60 56 107.5t164 85.5l131 -12q-103 -42 -150 -79t-55 -86q-4 -36 13 -54.5t63 -18.5t82.5 12.5t58.5 24.5l-14 -97
q-26 -15 -76 -28t-107 -13z" />
    <glyph glyph-name="eogonek" unicode="&#x119;" horiz-adv-x="1088" 
d="M631 1054q139 0 226 -62.5t120 -177.5t11 -272l-9 -68h-701q-14 -98 5 -177.5t74.5 -126.5t149.5 -47q93 0 167 46t105 133h169q-32 -103 -98 -170.5t-154 -107.5q-87 -39 -136 -77t-57 -87q-3 -36 14 -54.5t62 -18.5q46 0 83 12.5t59 24.5l-15 -97q-26 -14 -76 -27.5
t-106 -13.5q-93 0 -135 42.5t-31 115.5q5 40 35 76.5t64 61.5q-128 7 -216 71t-126 179.5t-14 274.5q23 163 94 286t182 192t254 69zM296 599h528q13 89 -5 160.5t-70 113t-140 41.5q-91 0 -157 -46.5t-105.5 -119t-50.5 -149.5z" />
    <glyph glyph-name="Ecaron" unicode="&#x11a;" horiz-adv-x="1202" 
d="M118 0l210 1446h865l-25 -163h-684l-68 -472h615l-23 -162h-615l-70 -482l704 -2l-25 -165h-884zM692 1566l-207 226h160l124 -135l151 135h168l-265 -226h-131z" />
    <glyph glyph-name="ecaron" unicode="&#x11b;" horiz-adv-x="1081" 
d="M489 -20q-138 0 -233.5 63t-137 181t-17.5 283q23 163 94 286t182 192t254 69q139 0 226.5 -63t120.5 -177.5t10 -271.5l-9 -68h-701q-14 -98 5 -177.5t74.5 -126.5t149.5 -47q93 0 167 46t105 133h169q-33 -105 -105 -177t-165 -108.5t-189 -36.5zM296 599h528
q13 89 -5 160.5t-70 113t-140 41.5q-91 0 -157 -46.5t-105.5 -119t-50.5 -149.5zM577 1154l-207 226h160l124 -135l151 135h168l-265 -226h-131z" />
    <glyph glyph-name="Gcircumflex" unicode="&#x11c;" horiz-adv-x="1414" 
d="M618 -20q-182 0 -300.5 87.5t-165 252.5t-12.5 399q34 236 131 403t242.5 255.5t327.5 88.5q140 0 244.5 -66t160 -172t45.5 -228h-192q-2 80 -37.5 149t-98.5 111t-150 42q-118 0 -215.5 -61.5t-165.5 -189.5t-97 -328q-22 -154 -8 -264t59 -178.5t113.5 -101
t153.5 -32.5q84 0 152 32t118 82.5t80.5 109t41.5 112.5l24 128h-331l20 136l519 -1l-107 -746h-136l32 220q-45 -62 -108.5 -117t-147.5 -89t-192 -34zM540 1567l256 225h129l217 -225h-170l-120 130l-153 -130h-159z" />
    <glyph glyph-name="gcircumflex" unicode="&#x11d;" horiz-adv-x="1189" 
d="M455 -342q-236 0 -357.5 73t-103.5 207q7 54 36.5 92.5t66.5 64t69 40.5t43 23q-14 10 -36 25t-38 41.5t-10 68.5q6 46 54 85t140 60q-79 45 -118 123t-27 169q13 96 71.5 168t158.5 112t237 40q99 0 161 -24t111 -66q18 8 53.5 22.5t77.5 31.5t80 32.5t59 24.5l-21 -173
l-179 -38q24 -70 15 -144q-12 -89 -66.5 -162t-150.5 -115.5t-232 -42.5q-14 0 -32.5 1t-28.5 1q-102 -1 -143 -20t-43 -44q-1 -30 38.5 -43t133.5 -21q38 -3 92.5 -6t118.5 -8q157 -9 233 -84.5t59 -201.5q-19 -138 -148.5 -225t-373.5 -87zM490 -223q138 0 217.5 45.5
t90.5 134.5q8 59 -29.5 97t-126.5 44l-271 18q-37 2 -80.5 -19.5t-76.5 -60.5t-40 -89q-11 -80 66 -125t250 -45zM558 515q108 0 181 54.5t87 158.5q14 102 -41.5 155t-158.5 53q-108 0 -183 -58t-90 -165q-13 -95 41 -146.5t164 -51.5zM364 1155l256 225h129l217 -225h-170
l-120 130l-153 -130h-159z" />
    <glyph glyph-name="Gbreve" unicode="&#x11e;" horiz-adv-x="1414" 
d="M618 -20q-182 0 -300.5 87.5t-165 252.5t-12.5 399q34 236 131 403t242.5 255.5t327.5 88.5q140 0 244.5 -66t160 -172t45.5 -228h-192q-2 80 -37.5 149t-98.5 111t-150 42q-118 0 -215.5 -61.5t-165.5 -189.5t-97 -328q-22 -154 -8 -264t59 -178.5t113.5 -101
t153.5 -32.5q84 0 152 32t118 82.5t80.5 109t41.5 112.5l24 128h-331l20 136l519 -1l-107 -746h-136l32 220q-45 -62 -108.5 -117t-147.5 -89t-192 -34zM838 1567q-77 0 -131.5 29t-85.5 78t-38 110h130q9 -21 24 -45.5t43 -41.5t74 -17q64 0 106.5 34t69.5 70h131
q-25 -56 -71 -105.5t-110 -80.5t-142 -31z" />
    <glyph glyph-name="gbreve" unicode="&#x11f;" horiz-adv-x="1189" 
d="M455 -342q-236 0 -357.5 73t-103.5 207q7 54 36.5 92.5t66.5 64t69 40.5t43 23q-14 10 -36 25t-38 41.5t-10 68.5q6 46 54 85t140 60q-79 45 -118 123t-27 169q13 96 71.5 168t158.5 112t237 40q99 0 161 -24t111 -66q18 8 53.5 22.5t77.5 31.5t80 32.5t59 24.5l-21 -173
l-179 -38q24 -70 15 -144q-12 -89 -66.5 -162t-150.5 -115.5t-232 -42.5q-14 0 -32.5 1t-28.5 1q-102 -1 -143 -20t-43 -44q-1 -30 38.5 -43t133.5 -21q38 -3 92.5 -6t118.5 -8q157 -9 233 -84.5t59 -201.5q-19 -138 -148.5 -225t-373.5 -87zM490 -223q138 0 217.5 45.5
t90.5 134.5q8 59 -29.5 97t-126.5 44l-271 18q-37 2 -80.5 -19.5t-76.5 -60.5t-40 -89q-11 -80 66 -125t250 -45zM558 515q108 0 181 54.5t87 158.5q14 102 -41.5 155t-158.5 53q-108 0 -183 -58t-90 -165q-13 -95 41 -146.5t164 -51.5zM662 1155q-77 0 -131.5 29t-85.5 78
t-38 110h130q9 -21 24 -45.5t43 -41.5t74 -17q64 0 106.5 34t69.5 70h131q-25 -56 -71 -105.5t-110 -80.5t-142 -31z" />
    <glyph glyph-name="Gdotaccent" unicode="&#x120;" horiz-adv-x="1414" 
d="M618 -20q-182 0 -300.5 87.5t-165 252.5t-12.5 399q34 236 131 403t242.5 255.5t327.5 88.5q140 0 244.5 -66t160 -172t45.5 -228h-192q-2 80 -37.5 149t-98.5 111t-150 42q-118 0 -215.5 -61.5t-165.5 -189.5t-97 -328q-22 -154 -8 -264t59 -178.5t113.5 -101
t153.5 -32.5q84 0 152 32t118 82.5t80.5 109t41.5 112.5l24 128h-331l20 136l519 -1l-107 -746h-136l32 220q-45 -62 -108.5 -117t-147.5 -89t-192 -34zM766 1679l26 179h181l-26 -179h-181z" />
    <glyph glyph-name="gdotaccent" unicode="&#x121;" horiz-adv-x="1189" 
d="M455 -342q-236 0 -357.5 73t-103.5 207q7 54 36.5 92.5t66.5 64t69 40.5t43 23q-14 10 -36 25t-38 41.5t-10 68.5q6 46 54 85t140 60q-79 45 -118 123t-27 169q13 96 71.5 168t158.5 112t237 40q99 0 161 -24t111 -66q18 8 53.5 22.5t77.5 31.5t80 32.5t59 24.5l-21 -173
l-179 -38q24 -70 15 -144q-12 -89 -66.5 -162t-150.5 -115.5t-232 -42.5q-14 0 -32.5 1t-28.5 1q-102 -1 -143 -20t-43 -44q-1 -30 38.5 -43t133.5 -21q38 -3 92.5 -6t118.5 -8q157 -9 233 -84.5t59 -201.5q-19 -138 -148.5 -225t-373.5 -87zM490 -223q138 0 217.5 45.5
t90.5 134.5q8 59 -29.5 97t-126.5 44l-271 18q-37 2 -80.5 -19.5t-76.5 -60.5t-40 -89q-11 -80 66 -125t250 -45zM558 515q108 0 181 54.5t87 158.5q14 102 -41.5 155t-158.5 53q-108 0 -183 -58t-90 -165q-13 -95 41 -146.5t164 -51.5zM591 1267l26 179h181l-26 -179h-181z
" />
    <glyph glyph-name="uni0122" unicode="&#x122;" horiz-adv-x="1414" 
d="M618 -20q-182 0 -300.5 87.5t-165 252.5t-12.5 399q34 236 131 403t242.5 255.5t327.5 88.5q140 0 244.5 -66t160 -172t45.5 -228h-192q-2 80 -37.5 149t-98.5 111t-150 42q-118 0 -215.5 -61.5t-165.5 -189.5t-97 -328q-22 -154 -8 -264t59 -178.5t113.5 -101
t153.5 -32.5q84 0 152 32t118 82.5t80.5 109t41.5 112.5l24 128h-331l20 136l519 -1l-107 -746h-136l32 220q-45 -62 -108.5 -117t-147.5 -89t-192 -34zM448 -380l95 124l-59 5l22 154h180l-19 -129l-146 -154h-73z" />
    <glyph glyph-name="uni0123" unicode="&#x123;" horiz-adv-x="1189" 
d="M455 -342q-236 0 -357.5 73t-103.5 207q7 54 36.5 92.5t66.5 64t69 40.5t43 23q-14 10 -36 25t-38 41.5t-10 68.5q6 46 54 85t140 60q-79 45 -118 123t-27 169q13 96 71.5 168t158.5 112t237 40q99 0 161 -24t111 -66q18 8 53.5 22.5t77.5 31.5t80 32.5t59 24.5l-21 -173
l-179 -38q24 -70 15 -144q-12 -89 -66.5 -162t-150.5 -115.5t-232 -42.5q-14 0 -32.5 1t-28.5 1q-102 -1 -143 -20t-43 -44q-1 -30 38.5 -43t133.5 -21q38 -3 92.5 -6t118.5 -8q157 -9 233 -84.5t59 -201.5q-19 -138 -148.5 -225t-373.5 -87zM490 -223q138 0 217.5 45.5
t90.5 134.5q8 59 -29.5 97t-126.5 44l-271 18q-37 2 -80.5 -19.5t-76.5 -60.5t-40 -89q-11 -80 66 -125t250 -45zM558 515q108 0 181 54.5t87 158.5q14 102 -41.5 155t-158.5 53q-108 0 -183 -58t-90 -165q-13 -95 41 -146.5t164 -51.5zM581 1155l26 186l111 143h86
l-110 -154h72l-25 -175h-160z" />
    <glyph glyph-name="Hcircumflex" unicode="&#x124;" horiz-adv-x="1479" 
d="M118 0l204 1446h181l-87 -616h736l86 616h181l-203 -1446h-181l93 667h-735l-94 -667h-181zM595 1567l256 225h129l217 -225h-170l-120 130l-153 -130h-159z" />
    <glyph glyph-name="hcircumflex" unicode="&#x125;" horiz-adv-x="1127" 
d="M90 0l204 1486h178l-82 -597q45 64 126.5 111t199.5 47q96 0 168.5 -38.5t109 -107.5t22.5 -160l-101 -741h-181l96 705q13 90 -40 140.5t-148 50.5q-66 0 -125.5 -22.5t-100.5 -67.5t-50 -113l-95 -693h-181zM105 1567l256 225h129l217 -225h-170l-120 130l-153 -130
h-159z" />
    <glyph glyph-name="Hbar" unicode="&#x126;" horiz-adv-x="1556" 
d="M110 1112l19 121h1501l-19 -121h-1501zM169 0l204 1446h181l-87 -616h736l86 616h181l-203 -1446h-181l93 667h-735l-94 -667h-181z" />
    <glyph glyph-name="hbar" unicode="&#x127;" horiz-adv-x="1227" 
d="M137 1191l14 116h619l-15 -116h-618zM190 0l204 1486h178l-82 -597q45 64 126.5 111t199.5 47q96 0 168.5 -38.5t109 -107.5t22.5 -160l-101 -741h-181l96 705q13 90 -40 140.5t-148 50.5q-66 0 -125.5 -22.5t-100.5 -67.5t-50 -113l-95 -693h-181z" />
    <glyph glyph-name="Itilde" unicode="&#x128;" horiz-adv-x="569" 
d="M119 0l208 1446h181l-208 -1446h-181zM195 1635l-18 100q37 33 76 55t94 22q46 0 85.5 -14t77 -27.5t79.5 -13.5q43 0 76.5 17t64.5 38l15 -115q-27 -19 -70.5 -38.5t-103.5 -19.5q-50 0 -86 13t-70 26t-77 13q-47 0 -78 -16.5t-65 -39.5z" />
    <glyph glyph-name="itilde" unicode="&#x129;" horiz-adv-x="490" 
d="M80 0l150 1034h181l-150 -1034h-181zM97 1223l-18 100q37 33 76 55t94 22q46 0 85.5 -14t77 -27.5t79.5 -13.5q43 0 76.5 17t64.5 38l15 -115q-27 -19 -70.5 -38.5t-103.5 -19.5q-50 0 -86 13t-70 26t-77 13q-47 0 -78 -16.5t-65 -39.5z" />
    <glyph glyph-name="Imacron" unicode="&#x12a;" horiz-adv-x="569" 
d="M119 0l208 1446h181l-208 -1446h-181zM167 1647l19 130h570l-19 -130h-570z" />
    <glyph glyph-name="imacron" unicode="&#x12b;" horiz-adv-x="490" 
d="M80 0l150 1034h181l-150 -1034h-181zM69 1235l19 130h570l-19 -130h-570z" />
    <glyph glyph-name="Ibreve" unicode="&#x12c;" horiz-adv-x="569" 
d="M119 0l208 1446h181l-208 -1446h-181zM434 1567q-77 0 -131.5 29t-85.5 78t-38 110h130q9 -21 24 -45.5t43 -41.5t74 -17q64 0 106.5 34t69.5 70h131q-25 -56 -71 -105.5t-110 -80.5t-142 -31z" />
    <glyph glyph-name="ibreve" unicode="&#x12d;" horiz-adv-x="490" 
d="M80 0l150 1034h181l-150 -1034h-181zM336 1155q-77 0 -131.5 29t-85.5 78t-38 110h130q9 -21 24 -45.5t43 -41.5t74 -17q64 0 106.5 34t69.5 70h131q-25 -56 -71 -105.5t-110 -80.5t-142 -31z" />
    <glyph glyph-name="Iogonek" unicode="&#x12e;" horiz-adv-x="569" 
d="M119 0l208 1446h181l-208 -1446h-181zM114 -338q-93 0 -134.5 42.5t-31.5 115.5q9 60 56 107.5t164 85.5l131 -12q-103 -42 -150 -79t-55 -86q-4 -36 13 -54.5t63 -18.5t82.5 12.5t58.5 24.5l-14 -97q-26 -15 -76 -28t-107 -13z" />
    <glyph glyph-name="iogonek" unicode="&#x12f;" horiz-adv-x="491" 
d="M85 0l146 1034h175l-145 -1034h-176zM257 1255l27 191h184l-26 -191h-185zM71 -331q-93 0 -134.5 42.5t-31.5 115.5q9 60 56 107.5t164 85.5l131 -12q-103 -42 -150 -79t-55 -86q-4 -36 13 -54.5t63 -18.5t82.5 12.5t58.5 24.5l-14 -97q-26 -15 -76 -28t-107 -13z" />
    <glyph glyph-name="Idotaccent" unicode="&#x130;" horiz-adv-x="569" 
d="M119 0l208 1446h181l-208 -1446h-181zM362 1679l26 179h181l-26 -179h-181z" />
    <glyph glyph-name="dotlessi" unicode="&#x131;" horiz-adv-x="490" 
d="M80 0l150 1034h181l-150 -1034h-181z" />
    <glyph glyph-name="Jcircumflex" unicode="&#x134;" horiz-adv-x="759" 
d="M233 -20q-72 0 -134 18t-82 27l37 177q29 -11 64.5 -27.5t91.5 -16.5q93 0 135.5 54t59.5 182l153 1052h179l-159 -1105q-17 -115 -53.5 -196t-106 -123t-185.5 -42zM360 1567l256 225h129l217 -225h-170l-120 130l-153 -130h-159z" />
    <glyph glyph-name="jcircumflex" unicode="&#x135;" horiz-adv-x="493" 
d="M-42 -332q-80 0 -100.5 8t-20.5 16l18 123l98 5q66 5 97.5 37t41.5 103l155 1074h180l-156 -1080q-20 -145 -91.5 -215.5t-221.5 -70.5zM46 1155l256 225h129l217 -225h-170l-120 130l-153 -130h-159z" />
    <glyph glyph-name="uni0136" unicode="&#x136;" horiz-adv-x="1315" 
d="M118 0l210 1446h186l-106 -748l714 748h214l-533 -564l366 -882h-204l-317 744l-276 -289l-66 -455h-188zM423 -380l95 124l-59 5l22 154h180l-19 -129l-146 -154h-73z" />
    <glyph glyph-name="uni0137" unicode="&#x137;" horiz-adv-x="1081" 
d="M80 0l214 1486h181l-139 -969l529 517h205l-411 -394l284 -640h-190l-228 519l-221 -211l-44 -308h-180zM303 -380l95 124l-59 5l22 154h180l-19 -129l-146 -154h-73z" />
    <glyph glyph-name="kgreenlandic" unicode="&#x138;" horiz-adv-x="1099" 
d="M80 0l151 1034h179l-76 -532l551 532h196l-388 -362l271 -672h-210l-205 534l-245 -226l-43 -308h-181z" />
    <glyph glyph-name="Lacute" unicode="&#x139;" horiz-adv-x="1114" 
d="M118 0l210 1446h184l-185 -1280h644l-25 -166h-828zM346 1567l235 291h207l-300 -291h-142z" />
    <glyph glyph-name="lacute" unicode="&#x13a;" horiz-adv-x="600" 
d="M328 -13q-80 0 -126.5 23t-67 62t-22.5 89.5t5 104.5l177 1220h178l-174 -1202q-11 -78 12 -117t75 -43l52 -1l-17 -120q-25 -7 -49.5 -11.5t-42.5 -4.5zM317 1647l235 291h207l-300 -291h-142z" />
    <glyph glyph-name="uni013B" unicode="&#x13b;" horiz-adv-x="1114" 
d="M118 0l210 1446h184l-185 -1280h644l-25 -166h-828zM360 -380l95 124l-59 5l22 154h180l-19 -129l-146 -154h-73z" />
    <glyph glyph-name="uni013C" unicode="&#x13c;" horiz-adv-x="593" 
d="M328 -13q-80 0 -126.5 23t-67 62t-22.5 89.5t5 104.5l177 1220h178l-174 -1202q-11 -78 12 -117t75 -43l52 -1l-17 -120q-25 -7 -49.5 -11.5t-42.5 -4.5zM22 -379l95 124l-59 5l22 154h180l-19 -129l-146 -154h-73z" />
    <glyph glyph-name="Lcaron" unicode="&#x13d;" horiz-adv-x="1114" 
d="M118 0l210 1446h184l-185 -1280h644l-25 -166h-828zM784 1058l98 184l-50 10l28 194h146l-29 -204l-102 -184h-91z" />
    <glyph glyph-name="lcaron" unicode="&#x13e;" horiz-adv-x="593" 
d="M328 -13q-80 0 -126.5 23t-67 62t-22.5 89.5t5 104.5l177 1220h178l-174 -1202q-11 -78 12 -117t75 -43l52 -1l-17 -120q-25 -7 -49.5 -11.5t-42.5 -4.5zM524 1098l98 184l-50 10l28 194h146l-29 -204l-102 -184h-91z" />
    <glyph glyph-name="Ldot" unicode="&#x13f;" horiz-adv-x="1150" 
d="M118 0l210 1446h184l-185 -1280h644l-25 -166h-828zM783 678l33 221h219l-33 -221h-219z" />
    <glyph glyph-name="ldot" unicode="&#x140;" horiz-adv-x="714" 
d="M328 -13q-80 0 -126.5 23t-67 62t-22.5 89.5t5 104.5l177 1220h178l-174 -1202q-11 -78 12 -117t75 -43l52 -1l-17 -120q-25 -7 -49.5 -11.5t-42.5 -4.5zM505 678l33 221h219l-33 -221h-219z" />
    <glyph glyph-name="Lslash" unicode="&#x141;" horiz-adv-x="1156" 
d="M74 601v159l677 176v-151zM160 0l210 1446h184l-185 -1280h644l-25 -166h-828z" />
    <glyph glyph-name="lslash" unicode="&#x142;" horiz-adv-x="733" 
d="M70 348v171l589 441v-161zM431 -13q-79 0 -125.5 23t-67 62t-23 89.5t4.5 104.5l177 1220h179l-175 -1202q-11 -78 12.5 -117t75.5 -43l52 -1l-17 -120q-25 -7 -50 -11.5t-43 -4.5z" />
    <glyph glyph-name="Nacute" unicode="&#x143;" horiz-adv-x="1459" 
d="M118 0l210 1446h172l557 -1124l161 1124h181l-210 -1446h-160l-566 1140l-164 -1140h-181zM792 1567l235 291h207l-300 -291h-142z" />
    <glyph glyph-name="nacute" unicode="&#x144;" horiz-adv-x="1114" 
d="M80 0l150 1034h174l-19 -144q33 44 79.5 80t108 57.5t139.5 21.5q94 0 165.5 -42.5t106.5 -124.5t17 -202l-98 -680h-181l96 662q17 113 -34 173.5t-144 60.5q-66 0 -126.5 -22t-102 -67t-50.5 -112l-101 -695h-180zM583 1155l235 291h207l-300 -291h-142z" />
    <glyph glyph-name="uni0145" unicode="&#x145;" horiz-adv-x="1459" 
d="M118 0l210 1446h172l557 -1124l161 1124h181l-210 -1446h-160l-566 1140l-164 -1140h-181zM462 -380l95 124l-59 5l22 154h180l-19 -129l-146 -154h-73z" />
    <glyph glyph-name="uni0146" unicode="&#x146;" horiz-adv-x="1114" 
d="M80 0l150 1034h174l-19 -144q33 44 79.5 80t108 57.5t139.5 21.5q94 0 165.5 -42.5t106.5 -124.5t17 -202l-98 -680h-181l96 662q17 113 -34 173.5t-144 60.5q-66 0 -126.5 -22t-102 -67t-50.5 -112l-101 -695h-180zM331 -380l95 124l-59 5l22 154h180l-19 -129
l-146 -154h-73z" />
    <glyph glyph-name="Ncaron" unicode="&#x147;" horiz-adv-x="1459" 
d="M118 0l210 1446h172l557 -1124l161 1124h181l-210 -1446h-160l-566 1140l-164 -1140h-181zM814 1566l-207 226h160l124 -135l151 135h168l-265 -226h-131z" />
    <glyph glyph-name="ncaron" unicode="&#x148;" horiz-adv-x="1114" 
d="M80 0l150 1034h174l-19 -144q33 44 79.5 80t108 57.5t139.5 21.5q94 0 165.5 -42.5t106.5 -124.5t17 -202l-98 -680h-181l96 662q17 113 -34 173.5t-144 60.5q-66 0 -126.5 -22t-102 -67t-50.5 -112l-101 -695h-180zM605 1154l-207 226h160l124 -135l151 135h168
l-265 -226h-131z" />
    <glyph glyph-name="Eng" unicode="&#x14a;" horiz-adv-x="1459" 
d="M826 -480q-72 0 -133 18t-82 27l36 172q25 -11 65.5 -25t92.5 -14q87 0 131 48.5t61 164.5l17 117l-551 1112l-164 -1140h-181l210 1446h172l557 -1124l161 1124h181l-227 -1564q-18 -122 -56 -202t-108 -120t-182 -40z" />
    <glyph glyph-name="eng" unicode="&#x14b;" horiz-adv-x="1103" 
d="M573 -332q-74 0 -91 6.5t-16 14.5l18 124l82 3q61 5 93 36.5t43 105.5l105 752q13 90 -21 145.5t-133 55.5q-70 0 -144.5 -41.5t-150.5 -113.5l-106 -756h-172l149 1034h162l-21 -158q76 64 137 103t116.5 57t114.5 18q134 0 199.5 -82t46.5 -216l-112 -789
q-12 -94 -51.5 -161t-102 -102.5t-145.5 -35.5z" />
    <glyph glyph-name="Omacron" unicode="&#x14c;" horiz-adv-x="1410" 
d="M628 -20q-185 0 -306 86.5t-168.5 251.5t-13.5 399q34 238 131 405.5t243.5 255.5t329.5 88q182 0 301.5 -87.5t167.5 -254.5t14 -404q-34 -235 -129.5 -400.5t-241 -252.5t-328.5 -87zM653 141q125 0 222 61t161.5 189t92.5 327q30 202 1.5 332t-107.5 192.5t-203 62.5
q-187 0 -312.5 -142.5t-169.5 -444.5q-28 -199 1 -326.5t109.5 -189t204.5 -61.5zM583 1647l19 130h570l-19 -130h-570z" />
    <glyph glyph-name="omacron" unicode="&#x14d;" horiz-adv-x="1085" 
d="M470 -20q-136 0 -229 61.5t-132.5 180.5t-16.5 291q23 162 92 284t179.5 189.5t255.5 67.5q136 0 227.5 -62.5t130.5 -183.5t15 -295q-22 -158 -89.5 -278t-176.5 -187.5t-256 -67.5zM493 126q86 0 152.5 47t109.5 135t59 209q15 111 -0.5 199.5t-67.5 140.5t-148 52
q-89 0 -156 -46.5t-110 -134.5t-60 -211q-14 -109 1.5 -198t68.5 -141t151 -52zM342 1235l19 130h570l-19 -130h-570z" />
    <glyph glyph-name="Obreve" unicode="&#x14e;" horiz-adv-x="1410" 
d="M628 -20q-185 0 -306 86.5t-168.5 251.5t-13.5 399q34 238 131 405.5t243.5 255.5t329.5 88q182 0 301.5 -87.5t167.5 -254.5t14 -404q-34 -235 -129.5 -400.5t-241 -252.5t-328.5 -87zM653 141q125 0 222 61t161.5 189t92.5 327q30 202 1.5 332t-107.5 192.5t-203 62.5
q-187 0 -312.5 -142.5t-169.5 -444.5q-28 -199 1 -326.5t109.5 -189t204.5 -61.5zM850 1567q-77 0 -131.5 29t-85.5 78t-38 110h130q9 -21 24 -45.5t43 -41.5t74 -17q64 0 106.5 34t69.5 70h131q-25 -56 -71 -105.5t-110 -80.5t-142 -31z" />
    <glyph glyph-name="obreve" unicode="&#x14f;" horiz-adv-x="1085" 
d="M470 -20q-136 0 -229 61.5t-132.5 180.5t-16.5 291q23 162 92 284t179.5 189.5t255.5 67.5q136 0 227.5 -62.5t130.5 -183.5t15 -295q-22 -158 -89.5 -278t-176.5 -187.5t-256 -67.5zM493 126q86 0 152.5 47t109.5 135t59 209q15 111 -0.5 199.5t-67.5 140.5t-148 52
q-89 0 -156 -46.5t-110 -134.5t-60 -211q-14 -109 1.5 -198t68.5 -141t151 -52zM609 1155q-77 0 -131.5 29t-85.5 78t-38 110h130q9 -21 24 -45.5t43 -41.5t74 -17q64 0 106.5 34t69.5 70h131q-25 -56 -71 -105.5t-110 -80.5t-142 -31z" />
    <glyph glyph-name="Ohungarumlaut" unicode="&#x150;" horiz-adv-x="1410" 
d="M628 -20q-185 0 -306 86.5t-168.5 251.5t-13.5 399q34 238 131 405.5t243.5 255.5t329.5 88q182 0 301.5 -87.5t167.5 -254.5t14 -404q-34 -235 -129.5 -400.5t-241 -252.5t-328.5 -87zM653 141q125 0 222 61t161.5 189t92.5 327q30 202 1.5 332t-107.5 192.5t-203 62.5
q-187 0 -312.5 -142.5t-169.5 -444.5q-28 -199 1 -326.5t109.5 -189t204.5 -61.5zM915 1567l187 291h188l-239 -291h-136zM646 1567l148 291h184l-197 -291h-135z" />
    <glyph glyph-name="ohungarumlaut" unicode="&#x151;" horiz-adv-x="1047" 
d="M470 -20q-136 0 -229 61.5t-132.5 180.5t-16.5 291q23 162 92 284t179.5 189.5t255.5 67.5q136 0 227.5 -62.5t130.5 -183.5t15 -295q-22 -158 -89.5 -278t-176.5 -187.5t-256 -67.5zM493 126q86 0 152.5 47t109.5 135t59 209q15 111 -0.5 199.5t-67.5 140.5t-148 52
q-89 0 -156 -46.5t-110 -134.5t-60 -211q-14 -109 1.5 -198t68.5 -141t151 -52zM668 1155l187 291h188l-239 -291h-136zM399 1155l148 291h184l-197 -291h-135z" />
    <glyph glyph-name="OE" unicode="&#x152;" horiz-adv-x="2135" 
d="M2126 1446l-25 -163h-685l-67 -472h615l-23 -162h-616l-69 -482l703 -2l-25 -165h-884l33 228q-82 -121 -197.5 -184.5t-257.5 -63.5q-185 0 -306 86.5t-168.5 251.5t-13.5 399q34 238 131 405.5t243.5 255.5t329.5 88q141 0 239 -63.5t145 -187.5l32 231h866zM653 141
q125 0 222 61t161.5 189t92.5 327q30 202 1.5 332t-107.5 192.5t-203 62.5q-187 0 -312.5 -142.5t-169.5 -444.5q-28 -199 1 -326.5t109.5 -189t204.5 -61.5z" />
    <glyph glyph-name="oe" unicode="&#x153;" horiz-adv-x="1808" 
d="M1351 1054q139 0 226 -62.5t120 -177.5t11 -272l-10 -68h-701q-14 -98 5 -177.5t75 -126.5t149 -47t167 46t106 133h169q-33 -105 -105.5 -177t-165.5 -108.5t-189 -36.5q-126 0 -215 57.5t-129 167.5q-64 -106 -162.5 -165.5t-231.5 -59.5q-136 0 -229 61.5
t-132.5 180.5t-16.5 291q23 162 92 284t179.5 189.5t255.5 67.5q125 0 211.5 -57.5t122.5 -174.5q67 110 168 171t230 61zM493 126q86 0 152.5 47t109.5 135t59 209q15 111 -0.5 199.5t-67.5 140.5t-148 52q-89 0 -156 -46.5t-110 -134.5t-60 -211q-14 -109 1.5 -198
t68.5 -141t151 -52zM1015 599h528q13 89 -5 160.5t-69.5 113t-139.5 41.5q-91 0 -157 -46.5t-106 -119t-51 -149.5z" />
    <glyph glyph-name="Racute" unicode="&#x154;" horiz-adv-x="1305" 
d="M118 0l209 1446h531q149 0 241.5 -47.5t129.5 -136t19 -211.5q-17 -118 -67 -196t-118 -125.5t-137 -73.5l174 -656h-190l-159 623h-363l-90 -623h-180zM410 776h297q101 0 176 29.5t121 88.5t58 146q18 128 -46.5 191.5t-194.5 63.5h-336zM701 1567l235 291h207
l-300 -291h-142z" />
    <glyph glyph-name="racute" unicode="&#x155;" horiz-adv-x="746" 
d="M80 0l146 1034h172l-27 -199q35 74 86 122.5t112 72.5t125 24q21 0 41 -3t30 -10l-25 -179q-13 7 -34.5 9.5t-36.5 2.5q-79 6 -146.5 -16.5t-113 -75.5t-57.5 -139l-91 -643h-181zM431 1155l235 291h207l-300 -291h-142z" />
    <glyph glyph-name="uni0156" unicode="&#x156;" horiz-adv-x="1305" 
d="M118 0l209 1446h531q149 0 241.5 -47.5t129.5 -136t19 -211.5q-17 -118 -67 -196t-118 -125.5t-137 -73.5l174 -656h-190l-159 623h-363l-90 -623h-180zM410 776h297q101 0 176 29.5t121 88.5t58 146q18 128 -46.5 191.5t-194.5 63.5h-336zM416 -380l95 124l-59 5l22 154
h180l-19 -129l-146 -154h-73z" />
    <glyph glyph-name="uni0157" unicode="&#x157;" horiz-adv-x="755" 
d="M80 0l146 1034h172l-27 -199q35 74 86 122.5t112 72.5t125 24q21 0 41 -3t30 -10l-25 -179q-13 7 -34.5 9.5t-36.5 2.5q-79 6 -146.5 -16.5t-113 -75.5t-57.5 -139l-91 -643h-181zM-1 -380l95 124l-59 5l22 154h180l-19 -129l-146 -154h-73z" />
    <glyph glyph-name="Rcaron" unicode="&#x158;" horiz-adv-x="1305" 
d="M118 0l209 1446h531q149 0 241.5 -47.5t129.5 -136t19 -211.5q-17 -118 -67 -196t-118 -125.5t-137 -73.5l174 -656h-190l-159 623h-363l-90 -623h-180zM410 776h297q101 0 176 29.5t121 88.5t58 146q18 128 -46.5 191.5t-194.5 63.5h-336zM723 1566l-207 226h160
l124 -135l151 135h168l-265 -226h-131z" />
    <glyph glyph-name="rcaron" unicode="&#x159;" horiz-adv-x="755" 
d="M80 0l146 1034h172l-27 -199q35 74 86 122.5t112 72.5t125 24q21 0 41 -3t30 -10l-25 -179q-13 7 -34.5 9.5t-36.5 2.5q-79 6 -146.5 -16.5t-113 -75.5t-57.5 -139l-91 -643h-181zM404 1154l-207 226h160l124 -135l151 135h168l-265 -226h-131z" />
    <glyph glyph-name="Sacute" unicode="&#x15a;" horiz-adv-x="1310" 
d="M588 -20q-98 0 -186 25t-156.5 75.5t-107 126t-37.5 177.5h191q7 -82 49.5 -138t112 -84t155.5 -28q97 0 176.5 28.5t131 81.5t61.5 127q9 65 -13 113t-71 80t-123 50l-260 66q-149 35 -223.5 125t-55.5 238q17 125 94 220t196.5 148t262.5 53q159 0 263 -61t152 -157.5
t37 -200.5h-188q4 98 -33.5 155.5t-103.5 82t-148 24.5q-77 0 -150.5 -27.5t-124 -82.5t-61.5 -136q-11 -78 33 -127t173 -84l251 -66q102 -23 162 -68t88 -102t33 -119t-3 -122q-15 -109 -89.5 -198.5t-198.5 -142t-289 -52.5zM715 1567l235 291h207l-300 -291h-142z" />
    <glyph glyph-name="sacute" unicode="&#x15b;" horiz-adv-x="989" 
d="M430 -20q-102 0 -185.5 33.5t-132 105t-48.5 182.5h164q4 -61 33.5 -101.5t78 -61t109.5 -20.5q99 0 164.5 39t76.5 120q9 57 -18.5 91.5t-91.5 50.5l-195 53q-116 30 -178 94t-47 179q13 91 64.5 160t141 109t214.5 40q161 0 249.5 -75.5t72.5 -221.5h-160
q1 74 -46 117.5t-136 43.5q-93 0 -157 -39.5t-76 -122.5q-8 -55 29.5 -86.5t116.5 -52.5l187 -52q66 -19 107 -50t62 -69t25.5 -79.5t-0.5 -79.5q-13 -95 -68 -163.5t-145 -106t-211 -37.5zM525 1155l235 291h207l-300 -291h-142z" />
    <glyph glyph-name="Scircumflex" unicode="&#x15c;" horiz-adv-x="1310" 
d="M588 -20q-98 0 -186 25t-156.5 75.5t-107 126t-37.5 177.5h191q7 -82 49.5 -138t112 -84t155.5 -28q97 0 176.5 28.5t131 81.5t61.5 127q9 65 -13 113t-71 80t-123 50l-260 66q-149 35 -223.5 125t-55.5 238q17 125 94 220t196.5 148t262.5 53q159 0 263 -61t152 -157.5
t37 -200.5h-188q4 98 -33.5 155.5t-103.5 82t-148 24.5q-77 0 -150.5 -27.5t-124 -82.5t-61.5 -136q-11 -78 33 -127t173 -84l251 -66q102 -23 162 -68t88 -102t33 -119t-3 -122q-15 -109 -89.5 -198.5t-198.5 -142t-289 -52.5zM501 1567l256 225h129l217 -225h-170
l-120 130l-153 -130h-159z" />
    <glyph glyph-name="scircumflex" unicode="&#x15d;" horiz-adv-x="977" 
d="M430 -20q-102 0 -185.5 33.5t-132 105t-48.5 182.5h164q4 -61 33.5 -101.5t78 -61t109.5 -20.5q99 0 164.5 39t76.5 120q9 57 -18.5 91.5t-91.5 50.5l-195 53q-116 30 -178 94t-47 179q13 91 64.5 160t141 109t214.5 40q161 0 249.5 -75.5t72.5 -221.5h-160
q1 74 -46 117.5t-136 43.5q-93 0 -157 -39.5t-76 -122.5q-8 -55 29.5 -86.5t116.5 -52.5l187 -52q66 -19 107 -50t62 -69t25.5 -79.5t-0.5 -79.5q-13 -95 -68 -163.5t-145 -106t-211 -37.5zM294 1155l256 225h129l217 -225h-170l-120 130l-153 -130h-159z" />
    <glyph glyph-name="Scedilla" unicode="&#x15e;" horiz-adv-x="1310" 
d="M482 -412q-51 0 -95 12t-79 38l41 78q22 -19 51.5 -33t71.5 -14q52 0 79.5 19t32.5 54q7 43 -25.5 64.5t-112.5 23.5q-10 0 -12.5 3t2.5 10l92 167h95l-62 -121q64 -3 97.5 -25.5t44.5 -55t7 -65.5q-7 -51 -40.5 -85t-83 -52t-104.5 -18zM588 -20q-98 0 -186 25
t-156.5 75.5t-107 126t-37.5 177.5h191q7 -82 49.5 -138t112 -84t155.5 -28q97 0 176.5 28.5t131 81.5t61.5 127q9 65 -13 113t-71 80t-123 50l-260 66q-149 35 -223.5 125t-55.5 238q17 125 94 220t196.5 148t262.5 53q159 0 263 -61t152 -157.5t37 -200.5h-188
q4 98 -33.5 155.5t-103.5 82t-148 24.5q-77 0 -150.5 -27.5t-124 -82.5t-61.5 -136q-11 -78 33 -127t173 -84l251 -66q102 -23 162 -68t88 -102t33 -119t-3 -122q-15 -109 -89.5 -198.5t-198.5 -142t-289 -52.5z" />
    <glyph glyph-name="scedilla" unicode="&#x15f;" horiz-adv-x="977" 
d="M347 -412q-52 0 -96 12t-79 38l41 78q22 -19 51.5 -33t71.5 -14q52 0 79.5 19t32.5 54q7 43 -25.5 64.5t-112.5 23.5q-10 0 -12.5 3t2.5 10l92 167h95l-62 -121q64 -3 97.5 -25.5t44.5 -55t7 -65.5q-7 -51 -40.5 -85t-83 -52t-103.5 -18zM430 -20q-102 0 -185.5 33.5
t-132 105t-48.5 182.5h164q4 -61 33.5 -101.5t78 -61t109.5 -20.5q99 0 164.5 39t76.5 120q9 57 -18.5 91.5t-91.5 50.5l-195 53q-116 30 -178 94t-47 179q13 91 64.5 160t141 109t214.5 40q161 0 249.5 -75.5t72.5 -221.5h-160q1 74 -46 117.5t-136 43.5q-93 0 -157 -39.5
t-76 -122.5q-8 -55 29.5 -86.5t116.5 -52.5l187 -52q66 -19 107 -50t62 -69t25.5 -79.5t-0.5 -79.5q-13 -95 -68 -163.5t-145 -106t-211 -37.5z" />
    <glyph glyph-name="Scaron" unicode="&#x160;" horiz-adv-x="1310" 
d="M588 -20q-98 0 -186 25t-156.5 75.5t-107 126t-37.5 177.5h191q7 -82 49.5 -138t112 -84t155.5 -28q97 0 176.5 28.5t131 81.5t61.5 127q9 65 -13 113t-71 80t-123 50l-260 66q-149 35 -223.5 125t-55.5 238q17 125 94 220t196.5 148t262.5 53q159 0 263 -61t152 -157.5
t37 -200.5h-188q4 98 -33.5 155.5t-103.5 82t-148 24.5q-77 0 -150.5 -27.5t-124 -82.5t-61.5 -136q-11 -78 33 -127t173 -84l251 -66q102 -23 162 -68t88 -102t33 -119t-3 -122q-15 -109 -89.5 -198.5t-198.5 -142t-289 -52.5zM736 1566l-207 226h160l124 -135l151 135h168
l-265 -226h-131z" />
    <glyph glyph-name="scaron" unicode="&#x161;" horiz-adv-x="970" 
d="M430 -20q-102 0 -185.5 33.5t-132 105t-48.5 182.5h164q4 -61 33.5 -101.5t78 -61t109.5 -20.5q99 0 164.5 39t76.5 120q9 57 -18.5 91.5t-91.5 50.5l-195 53q-116 30 -178 94t-47 179q13 91 64.5 160t141 109t214.5 40q161 0 249.5 -75.5t72.5 -221.5h-160
q1 74 -46 117.5t-136 43.5q-93 0 -157 -39.5t-76 -122.5q-8 -55 29.5 -86.5t116.5 -52.5l187 -52q66 -19 107 -50t62 -69t25.5 -79.5t-0.5 -79.5q-13 -95 -68 -163.5t-145 -106t-211 -37.5zM551 1154l-207 226h160l124 -135l151 135h168l-265 -226h-131z" />
    <glyph glyph-name="uni0162" unicode="&#x162;" horiz-adv-x="1136" 
d="M424 -409q-52 0 -95.5 12t-79.5 38l41 77q23 -19 52 -32.5t72 -13.5q51 0 78.5 19t33.5 54q6 43 -26.5 64t-112.5 23q-10 0 -12.5 3t3.5 11l92 167h94l-62 -121q64 -3 98 -25.5t45 -55.5t7 -66q-8 -50 -41.5 -84.5t-82.5 -52t-104 -17.5zM411 0l183 1276h-439l25 170
h1036l-23 -170h-418l-184 -1276h-180z" />
    <glyph glyph-name="uni0163" unicode="&#x163;" horiz-adv-x="755" 
d="M290 -406q-52 0 -96 12t-79 39l41 77q22 -19 51.5 -33t71.5 -14q52 0 79.5 19.5t32.5 53.5q7 43 -25.5 64.5t-112.5 23.5q-10 0 -12.5 3t2.5 10l92 167h95l-62 -120q64 -4 97.5 -26.5t45 -55t6.5 -65.5q-7 -50 -40.5 -84.5t-83 -52.5t-103.5 -18zM438 -5
q-103 0 -155.5 29t-67 86t-3.5 140l94 649h-160l21 135h162l77 301h144l-43 -300h222l-21 -136h-221l-91 -636q-11 -83 13.5 -105t87.5 -22h108l-18 -124q-19 -7 -56.5 -12t-92.5 -5z" />
    <glyph glyph-name="Tcaron" unicode="&#x164;" horiz-adv-x="1136" 
d="M411 0l183 1276h-439l25 170h1036l-23 -170h-418l-184 -1276h-180zM669 1566l-207 226h160l124 -135l151 135h168l-265 -226h-131z" />
    <glyph glyph-name="tcaron" unicode="&#x165;" horiz-adv-x="779" 
d="M438 -5q-103 0 -155.5 29t-67 86t-3.5 140l94 649h-160l21 135h162l77 301h144l-43 -300h222l-21 -136h-221l-91 -636q-11 -83 13.5 -105t87.5 -22h108l-18 -124q-19 -7 -56.5 -12t-92.5 -5zM612 1132l98 184l-50 10l28 194h146l-29 -204l-102 -184h-91z" />
    <glyph glyph-name="Tbar" unicode="&#x166;" horiz-adv-x="1136" 
d="M202 649l20 148h762l-20 -148h-762zM411 0l183 1276h-439l25 170h1036l-23 -170h-418l-184 -1276h-180z" />
    <glyph glyph-name="tbar" unicode="&#x167;" horiz-adv-x="741" 
d="M108 513l18 117h541l-17 -117h-542zM449 -5q-103 0 -156 29t-67 86t-3 140l93 649h-159l21 135h162l77 301h143l-42 -300h221l-20 -136h-222l-90 -636q-12 -83 13 -105t88 -22h108l-19 -124q-19 -7 -56 -12t-92 -5z" />
    <glyph glyph-name="Utilde" unicode="&#x168;" horiz-adv-x="1351" 
d="M615 -20q-179 0 -280.5 62t-135 182t-8.5 295l134 927h186l-137 -955q-17 -117 8.5 -194.5t90.5 -116t166 -38.5q152 0 249 86t122 263l137 955h181l-135 -946q-24 -167 -93 -283t-188.5 -176.5t-296.5 -60.5zM604 1635l-18 100q37 33 76 55t94 22q46 0 85.5 -14
t77 -27.5t79.5 -13.5q43 0 76.5 17t64.5 38l15 -115q-27 -19 -70.5 -38.5t-103.5 -19.5q-50 0 -86 13t-70 26t-77 13q-47 0 -78 -16.5t-65 -39.5z" />
    <glyph glyph-name="utilde" unicode="&#x169;" horiz-adv-x="1124" 
d="M439 -20q-76 1 -141 23.5t-111.5 66.5t-67 109.5t-8.5 152.5l98 702h182l-96 -683q-15 -101 35 -164t168 -63q108 0 181 59.5t90 177.5l95 673h180l-146 -1034h-142l8 198q-28 -78 -78.5 -126t-114 -70.5t-132.5 -21.5zM403 1223l-18 100q37 33 76 55t94 22
q46 0 85.5 -14t77 -27.5t79.5 -13.5q43 0 76.5 17t64.5 38l15 -115q-27 -19 -70.5 -38.5t-103.5 -19.5q-50 0 -86 13t-70 26t-77 13q-47 0 -78 -16.5t-65 -39.5z" />
    <glyph glyph-name="Umacron" unicode="&#x16a;" horiz-adv-x="1351" 
d="M615 -20q-179 0 -280.5 62t-135 182t-8.5 295l134 927h186l-137 -955q-17 -117 8.5 -194.5t90.5 -116t166 -38.5q152 0 249 86t122 263l137 955h181l-135 -946q-24 -167 -93 -283t-188.5 -176.5t-296.5 -60.5zM575 1647l19 130h570l-19 -130h-570z" />
    <glyph glyph-name="umacron" unicode="&#x16b;" horiz-adv-x="1124" 
d="M439 -20q-76 1 -141 23.5t-111.5 66.5t-67 109.5t-8.5 152.5l98 702h182l-96 -683q-15 -101 35 -164t168 -63q108 0 181 59.5t90 177.5l95 673h180l-146 -1034h-142l8 198q-28 -78 -78.5 -126t-114 -70.5t-132.5 -21.5zM374 1235l19 130h570l-19 -130h-570z" />
    <glyph glyph-name="Ubreve" unicode="&#x16c;" horiz-adv-x="1351" 
d="M615 -20q-179 0 -280.5 62t-135 182t-8.5 295l134 927h186l-137 -955q-17 -117 8.5 -194.5t90.5 -116t166 -38.5q152 0 249 86t122 263l137 955h181l-135 -946q-24 -167 -93 -283t-188.5 -176.5t-296.5 -60.5zM842 1567q-77 0 -131.5 29t-85.5 78t-38 110h130
q9 -21 24 -45.5t43 -41.5t74 -17q64 0 106.5 34t69.5 70h131q-25 -56 -71 -105.5t-110 -80.5t-142 -31z" />
    <glyph glyph-name="ubreve" unicode="&#x16d;" horiz-adv-x="1124" 
d="M439 -20q-76 1 -141 23.5t-111.5 66.5t-67 109.5t-8.5 152.5l98 702h182l-96 -683q-15 -101 35 -164t168 -63q108 0 181 59.5t90 177.5l95 673h180l-146 -1034h-142l8 198q-28 -78 -78.5 -126t-114 -70.5t-132.5 -21.5zM642 1155q-77 0 -131.5 29t-85.5 78t-38 110h130
q9 -21 24 -45.5t43 -41.5t74 -17q64 0 106.5 34t69.5 70h131q-25 -56 -71 -105.5t-110 -80.5t-142 -31z" />
    <glyph glyph-name="Uring" unicode="&#x16e;" horiz-adv-x="1351" 
d="M615 -20q-179 0 -280.5 62t-135 182t-8.5 295l134 927h186l-137 -955q-17 -117 8.5 -194.5t90.5 -116t166 -38.5q152 0 249 86t122 263l137 955h181l-135 -946q-24 -167 -93 -283t-188.5 -176.5t-296.5 -60.5zM845 1566q-81 0 -129.5 60.5t-35.5 149.5q8 55 41 100
t81.5 72t102.5 27q82 0 130.5 -59t35.5 -144q-8 -59 -41 -105.5t-82 -73.5t-103 -27zM857 1662q43 0 76.5 33t40.5 76q6 47 -18.5 76.5t-67.5 29.5q-40 0 -74.5 -29.5t-42.5 -76.5q-6 -43 19.5 -76t66.5 -33z" />
    <glyph glyph-name="uring" unicode="&#x16f;" horiz-adv-x="1124" 
d="M439 -20q-76 1 -141 23.5t-111.5 66.5t-67 109.5t-8.5 152.5l98 702h182l-96 -683q-15 -101 35 -164t168 -63q108 0 181 59.5t90 177.5l95 673h180l-146 -1034h-142l8 198q-28 -78 -78.5 -126t-114 -70.5t-132.5 -21.5zM644 1154q-81 0 -129.5 60.5t-35.5 149.5
q8 55 41 100t81.5 72t102.5 27q82 0 130.5 -59t35.5 -144q-8 -59 -41 -105.5t-82 -73.5t-103 -27zM656 1250q43 0 76.5 33t40.5 76q6 47 -18.5 76.5t-67.5 29.5q-40 0 -74.5 -29.5t-42.5 -76.5q-6 -43 19.5 -76t66.5 -33z" />
    <glyph glyph-name="Uhungarumlaut" unicode="&#x170;" horiz-adv-x="1334" 
d="M615 -20q-179 0 -280.5 62t-135 182t-8.5 295l134 927h186l-137 -955q-17 -117 8.5 -194.5t90.5 -116t166 -38.5q152 0 249 86t122 263l137 955h181l-135 -946q-24 -167 -93 -283t-188.5 -176.5t-296.5 -60.5zM905 1567l187 291h188l-239 -291h-136zM636 1567l148 291
h184l-197 -291h-135z" />
    <glyph glyph-name="uhungarumlaut" unicode="&#x171;" horiz-adv-x="1063" 
d="M439 -20q-76 1 -141 23.5t-111.5 66.5t-67 109.5t-8.5 152.5l98 702h182l-96 -683q-15 -101 35 -164t168 -63q108 0 181 59.5t90 177.5l95 673h180l-146 -1034h-142l8 198q-28 -78 -78.5 -126t-114 -70.5t-132.5 -21.5zM712 1155l187 291h188l-239 -291h-136zM443 1155
l148 291h184l-197 -291h-135z" />
    <glyph glyph-name="Uogonek" unicode="&#x172;" horiz-adv-x="1351" 
d="M582 -343q-93 0 -135 42.5t-31 115.5q8 60 55 107.5t164 85.5l131 -12q-102 -42 -149.5 -79t-55.5 -86q-4 -36 13.5 -54.5t62.5 -18.5q46 0 83 12.5t59 24.5l-15 -97q-26 -14 -76 -27.5t-106 -13.5zM615 -20q-179 0 -280.5 62t-135 182t-8.5 295l134 927h186l-137 -955
q-17 -117 8.5 -194.5t90.5 -116t166 -38.5q152 0 249 86t122 263l137 955h181l-135 -946q-24 -167 -93 -283t-188.5 -176.5t-296.5 -60.5z" />
    <glyph glyph-name="uogonek" unicode="&#x173;" horiz-adv-x="1124" 
d="M439 -20q-76 1 -141 23.5t-111.5 66.5t-67 109.5t-8.5 152.5l98 702h182l-96 -683q-15 -101 35 -164t168 -63q108 0 181 59.5t90 177.5l95 673h180l-146 -1034h-142l8 198q-28 -78 -78.5 -126t-114 -70.5t-132.5 -21.5zM712 -333q-93 0 -134.5 42.5t-31.5 115.5
q9 60 56 107.5t164 85.5l131 -12q-103 -42 -150 -79t-55 -86q-4 -36 13 -54.5t63 -18.5t82.5 12.5t58.5 24.5l-14 -97q-26 -15 -76 -28t-107 -13z" />
    <glyph glyph-name="Wcircumflex" unicode="&#x174;" horiz-adv-x="1814" 
d="M365 0l-186 1446h183l135 -1151l469 1151h140l141 -1151l470 1151h180l-608 -1446h-164l-137 1121l-463 -1121h-160zM754 1567l256 225h129l217 -225h-170l-120 130l-153 -130h-159z" />
    <glyph glyph-name="wcircumflex" unicode="&#x175;" horiz-adv-x="1483" 
d="M279 0l-154 1034h167l108 -795h14l333 795h136l113 -793h14l327 793h167l-447 -1034h-173l-112 763l-320 -763h-173zM538 1155l256 225h129l217 -225h-170l-120 130l-153 -130h-159z" />
    <glyph glyph-name="Ycircumflex" unicode="&#x176;" horiz-adv-x="1158" 
d="M413 0l87 616l-345 830h196l265 -665l451 665h198l-584 -831l-89 -615h-179zM420 1570l256 225h129l217 -225h-170l-120 130l-153 -130h-159z" />
    <glyph glyph-name="ycircumflex" unicode="&#x177;" horiz-adv-x="1021" 
d="M123 -330q-86 0 -117 13l-31 13l17 120l101 -2q73 -3 115.5 15t65 45t35.5 53l48 98l-237 1009h182l171 -798l398 798h176l-570 -1112q-53 -98 -109 -153t-116.5 -77t-128.5 -22zM299 1155l256 225h129l217 -225h-170l-120 130l-153 -130h-159z" />
    <glyph glyph-name="Ydieresis" unicode="&#x178;" horiz-adv-x="1158" 
d="M413 0l87 616l-345 830h196l265 -665l451 665h198l-584 -831l-89 -615h-179zM814 1682l25 179h181l-26 -179h-180zM477 1682l26 179h181l-26 -179h-181z" />
    <glyph glyph-name="Zacute" unicode="&#x179;" horiz-adv-x="1228" 
d="M54 0l16 102l915 1183h-713l24 161h967l-14 -98l-924 -1185h749l-25 -163h-995zM715 1567l235 291h207l-300 -291h-142z" />
    <glyph glyph-name="zacute" unicode="&#x17a;" horiz-adv-x="968" 
d="M6 0l14 115l662 783h-513l19 136h730l-14 -115l-662 -783h555l-20 -136h-771zM529 1155l235 291h207l-300 -291h-142z" />
    <glyph glyph-name="Zdotaccent" unicode="&#x17b;" horiz-adv-x="1228" 
d="M54 0l16 102l915 1183h-713l24 161h967l-14 -98l-924 -1185h749l-25 -163h-995zM729 1679l26 179h181l-26 -179h-181z" />
    <glyph glyph-name="zdotaccent" unicode="&#x17c;" horiz-adv-x="927" 
d="M6 0l14 115l662 783h-513l19 136h730l-14 -115l-662 -783h555l-20 -136h-771zM502 1267l26 179h181l-26 -179h-181z" />
    <glyph glyph-name="Zcaron" unicode="&#x17d;" horiz-adv-x="1228" 
d="M54 0l16 102l915 1183h-713l24 161h967l-14 -98l-924 -1185h749l-25 -163h-995zM737 1566l-207 226h160l124 -135l151 135h168l-265 -226h-131z" />
    <glyph glyph-name="zcaron" unicode="&#x17e;" horiz-adv-x="950" 
d="M6 0l14 115l662 783h-513l19 136h730l-14 -115l-662 -783h555l-20 -136h-771zM556 1154l-207 226h160l124 -135l151 135h168l-265 -226h-131z" />
    <glyph glyph-name="uni018F" unicode="&#x18f;" horiz-adv-x="1415" 
d="M633 -20q-179 0 -301 85.5t-171 261t-12 445.5h977q35 245 -45 380.5t-267 135.5q-93 0 -169.5 -30.5t-133 -80.5t-90 -107.5t-40.5 -111.5h-208q12 84 66 172.5t142.5 164.5t205.5 123.5t255 47.5q186 0 307 -87.5t169.5 -252.5t15.5 -398q-35 -248 -132.5 -414
t-243 -250t-325.5 -84zM657 150q126 0 218.5 61.5t150 169t78.5 243.5h-755q-19 -137 8.5 -244t102.5 -168.5t197 -61.5z" />
    <glyph glyph-name="florin" unicode="&#x192;" horiz-adv-x="868" 
d="M-257 -333l38 130l110 2q65 1 101.5 35t62.5 121l292 944h-158l43 135h159l47 160q41 123 123 187.5t196 64.5h185l-40 -131h-137q-50 0 -93 -39.5t-63 -102.5l-43 -139h241l-43 -135h-237l-299 -972q-38 -123 -119.5 -191.5t-201.5 -68.5h-164z" />
    <glyph glyph-name="Ohorn" unicode="&#x1a0;" horiz-adv-x="1527" 
d="M628 -20q-185 0 -306 86.5t-168.5 251.5t-13.5 399q34 238 131 405.5t243.5 255.5t329.5 88q133 0 233.5 -47.5t163.5 -138.5q53 0 88 14t58 56.5t40 127.5h137q-15 -102 -47 -169.5t-85 -102t-133 -38.5q33 -87 40.5 -199.5t-12.5 -248.5q-34 -235 -129.5 -400.5
t-241 -252.5t-328.5 -87zM653 141q125 0 222 61t161.5 189t92.5 327q30 202 1.5 332t-107.5 192.5t-203 62.5q-187 0 -312.5 -142.5t-169.5 -444.5q-28 -199 1 -326.5t109.5 -189t204.5 -61.5z" />
    <glyph glyph-name="ohorn" unicode="&#x1a1;" horiz-adv-x="1173" 
d="M470 -20q-136 0 -229 61.5t-132.5 180.5t-16.5 291q23 162 92 284t179.5 189.5t255.5 67.5q100 0 177.5 -35t126.5 -101q63 3 98 44t56 151h137q-21 -144 -77.5 -219.5t-160.5 -87.5q19 -58 23.5 -131t-7.5 -162q-22 -158 -89.5 -278t-176.5 -187.5t-256 -67.5zM493 126
q86 0 152.5 47t109.5 135t59 209q15 111 -0.5 199.5t-67.5 140.5t-148 52q-89 0 -156 -46.5t-110 -134.5t-60 -211q-14 -109 1.5 -198t68.5 -141t151 -52z" />
    <glyph glyph-name="Uhorn" unicode="&#x1af;" horiz-adv-x="1558" 
d="M615 -20q-179 0 -280.5 62t-135 182t-8.5 295l134 927h186l-137 -955q-17 -117 8.5 -194.5t90.5 -116t166 -38.5q152 0 249 86t122 263l137 955h181l-23 -166q43 3 72.5 19.5t49.5 58.5t36 119h137q-16 -111 -53 -181t-99.5 -101.5t-159.5 -27.5l-95 -667
q-24 -167 -93 -283t-188.5 -176.5t-296.5 -60.5z" />
    <glyph glyph-name="uhorn" unicode="&#x1b0;" horiz-adv-x="1251" 
d="M439 -20q-76 1 -141 23.5t-111.5 66.5t-67 109.5t-7.5 152.5l98 702h182l-97 -683q-14 -101 35.5 -164t168.5 -63q108 0 181 59.5t89 177.5l95 673h180l-16 -118q44 2 75 19t51.5 58.5t35.5 119.5h137q-16 -111 -53 -181.5t-100.5 -102t-161.5 -25.5l-113 -804h-143
l9 198q-29 -78 -79 -126t-113.5 -70.5t-133.5 -21.5z" />
    <glyph glyph-name="uni01D4" unicode="&#x1d4;" horiz-adv-x="1124" 
d="M439 -20q-76 1 -141 23.5t-111.5 66.5t-67 109.5t-8.5 152.5l98 702h182l-96 -683q-15 -101 35 -164t168 -63q108 0 181 59.5t90 177.5l95 673h180l-146 -1034h-142l8 198q-28 -78 -78.5 -126t-114 -70.5t-132.5 -21.5zM578 1154l-207 226h160l124 -135l151 135h168
l-265 -226h-131z" />
    <glyph glyph-name="uni01EA" unicode="&#x1ea;" horiz-adv-x="1410" 
d="M616 -336q-92 0 -134 42.5t-32 115.5q9 60 56 107.5t164 85.5l131 -12q-102 -42 -149.5 -79t-55.5 -86q-4 -36 13.5 -54.5t62.5 -18.5q46 0 83 12.5t58 24.5l-14 -97q-26 -15 -76 -28t-107 -13zM628 -20q-185 0 -306 86.5t-168.5 251.5t-13.5 399q34 238 131 405.5
t243.5 255.5t329.5 88q182 0 301.5 -87.5t167.5 -254.5t14 -404q-34 -235 -129.5 -400.5t-241 -252.5t-328.5 -87zM653 141q125 0 222 61t161.5 189t92.5 327q30 202 1.5 332t-107.5 192.5t-203 62.5q-187 0 -312.5 -142.5t-169.5 -444.5q-28 -199 1 -326.5t109.5 -189
t204.5 -61.5z" />
    <glyph glyph-name="uni01EB" unicode="&#x1eb;" horiz-adv-x="1085" 
d="M410 -335q-92 0 -134 42.5t-32 115.5q9 60 56 108t164 85l131 -12q-102 -42 -149.5 -79t-55.5 -86q-4 -35 13.5 -54t62.5 -19q46 0 83 12.5t58 24.5l-14 -97q-26 -14 -76 -27.5t-107 -13.5zM470 -20q-136 0 -229 61.5t-132.5 180.5t-16.5 291q23 162 92 284t179.5 189.5
t255.5 67.5q136 0 227.5 -62.5t130.5 -183.5t15 -295q-22 -158 -89.5 -278t-176.5 -187.5t-256 -67.5zM493 126q86 0 152.5 47t109.5 135t59 209q15 111 -0.5 199.5t-67.5 140.5t-148 52q-89 0 -156 -46.5t-110 -134.5t-60 -211q-14 -109 1.5 -198t68.5 -141t151 -52z" />
    <glyph glyph-name="Aringacute" unicode="&#x1fa;" horiz-adv-x="1362" 
d="M1018 1910l-74 -137q50 -21 77 -69.5t17 -112.5q-12 -87 -75.5 -142.5t-144.5 -55.5q-80 0 -126 57t-34 145q9 71 61 123t119 63l48 129h132zM945 1588q8 47 -17 77.5t-68 30.5q-40 0 -75 -30.5t-42 -77.5q-6 -42 20 -75.5t67 -33.5q42 0 75.5 33.5t39.5 75.5zM13 0
l704 1446h202l285 -1446h-183l-76 396h-556l-193 -396h-183zM459 566h463l-129 697z" />
    <glyph glyph-name="aringacute" unicode="&#x1fb;" horiz-adv-x="1065" 
d="M817 1498l-74 -137q51 -21 77.5 -69.5t17.5 -112.5q-12 -87 -75.5 -142.5t-144.5 -55.5q-80 0 -126 57t-34 145q9 71 60.5 123t118.5 63l49 129h131zM745 1176q7 47 -18 77.5t-67 30.5q-40 0 -75.5 -30.5t-41.5 -77.5q-6 -42 20 -75.5t66 -33.5q43 0 76 33.5t40 75.5z
M349 -20q-95 0 -163 35.5t-99 102.5t-18 162q24 172 150.5 256t378.5 90l172 5l12 81q14 99 -38.5 152.5t-152.5 53.5q-81 -1 -154 -44t-103 -132h-159q18 90 78 160.5t154 111t213 40.5q127 0 207 -41t112.5 -115.5t17.5 -175.5l-104 -722h-154l13 188
q-75 -121 -167 -164.5t-196 -43.5zM422 113q49 0 99.5 19t95 51.5t74.5 73t36 83.5l25 177l-141 -3q-110 -2 -187.5 -24t-121.5 -69t-56 -123q-12 -87 37.5 -136t138.5 -49z" />
    <glyph glyph-name="AEacute" unicode="&#x1fc;" horiz-adv-x="1860" 
d="M-73 0l963 1446h958l-23 -160h-651l-69 -477h589l-23 -159h-589l-70 -489h674l-23 -161h-880l58 401h-467l-264 -401h-183zM470 566h394l108 746zM1282 1567l235 291h207l-300 -291h-142z" />
    <glyph glyph-name="aeacute" unicode="&#x1fd;" horiz-adv-x="1755" 
d="M351 -20q-95 0 -163.5 35.5t-100.5 102.5t-18 162q24 172 150 256.5t380 89.5l174 5l11 81q14 99 -38 152.5t-153 53.5q-82 -1 -153 -44t-102 -132h-159q18 90 77 160.5t152.5 111t212.5 40.5q128 0 209 -49t105 -137q65 90 157.5 138t205.5 48q140 0 227 -63
t120.5 -177.5t10.5 -271.5l-10 -68h-701q-14 -98 4.5 -177.5t74.5 -126.5t150 -47q93 0 167 46t105 133h169q-33 -105 -105 -177t-165 -108.5t-189 -36.5q-139 0 -235 66.5t-133 189.5q-30 -78 -95.5 -136t-154 -89t-187.5 -31zM425 113q83 0 150 41t109.5 100.5t51.5 117.5
l21 145l-145 -3q-110 -2 -188 -24t-122 -69t-55 -123q-12 -87 38 -136t140 -49zM963 599h528q13 89 -5 160.5t-69.5 113t-140.5 41.5q-90 0 -156.5 -46.5t-106 -119t-50.5 -149.5zM888 1155l235 291h207l-300 -291h-142z" />
    <glyph glyph-name="Oslashacute" unicode="&#x1fe;" horiz-adv-x="1433" 
d="M75 -27l-81 98l187 187q-36 88 -45 203.5t12 255.5q34 238 130.5 405.5t243 255.5t328.5 88q128 0 224.5 -43.5t160.5 -126.5l178 175l81 -96l-193 -193q36 -89 45 -205t-11 -257q-33 -235 -129 -400.5t-242 -252.5t-329 -87q-128 0 -224.5 42.5t-159.5 123.5zM661 140
q175 0 283.5 123.5t152.5 381.5q19 103 23 195t-6 174l-718 -734q75 -140 265 -140zM368 426l719 735q-36 75 -101 111t-159 36q-178 0 -289.5 -130t-157.5 -398q-16 -101 -19.5 -189t7.5 -165zM776 1567l235 291h207l-300 -291h-142z" />
    <glyph glyph-name="oslashacute" unicode="&#x1ff;" horiz-adv-x="1059" 
d="M52 -11l-75 79l1010 974l74 -79zM426 -20q-136 0 -229 61.5t-132.5 180.5t-15.5 291q22 162 91 284t179.5 189.5t255.5 67.5q136 0 228 -62.5t130.5 -183.5t14.5 -295q-22 -158 -89.5 -278t-176.5 -187.5t-256 -67.5zM449 126q86 0 152.5 47t110 135t59.5 209
q15 111 -1 199.5t-68 140.5t-148 52q-89 0 -156 -46.5t-110 -134.5t-59 -211q-15 -109 0.5 -198t69 -141t150.5 -52zM450 1155l235 291h207l-300 -291h-142z" />
    <glyph glyph-name="uni0200" unicode="&#x200;" horiz-adv-x="1362" 
d="M13 0l704 1446h202l285 -1446h-183l-76 396h-556l-193 -396h-183zM459 566h463l-129 697zM612 1567l-239 291h188l187 -291h-136zM882 1567l-197 291h184l148 -291h-135z" />
    <glyph glyph-name="uni0201" unicode="&#x201;" horiz-adv-x="1149" 
d="M402 -20q-95 0 -163 35.5t-99 102.5t-18 162q24 172 150.5 256t378.5 90l172 5l12 81q14 99 -38.5 152.5t-152.5 53.5q-81 -1 -154 -44t-103 -132h-159q18 90 78 160.5t154 111t213 40.5q127 0 207 -41t112.5 -115.5t17.5 -175.5l-104 -722h-154l13 188
q-75 -121 -167 -164.5t-196 -43.5zM475 113q49 0 99.5 19t95 51.5t74.5 73t36 83.5l25 177l-141 -3q-110 -2 -187.5 -24t-121.5 -69t-56 -123q-12 -87 37.5 -136t138.5 -49zM481 1155l-239 291h188l187 -291h-136zM751 1155l-197 291h184l148 -291h-135z" />
    <glyph glyph-name="uni0202" unicode="&#x202;" horiz-adv-x="1362" 
d="M13 0l704 1446h202l285 -1446h-183l-76 396h-556l-193 -396h-183zM459 566h463l-129 697zM542 1583q24 61 69 110t107.5 77.5t138.5 28.5q79 0 134.5 -30.5t87.5 -80t41 -105.5h-131q-16 36 -49 70t-97 34q-46 0 -79 -17.5t-55.5 -41.5t-36.5 -45h-130z" />
    <glyph glyph-name="uni0203" unicode="&#x203;" horiz-adv-x="1096" 
d="M349 -20q-95 0 -163 35.5t-99 102.5t-18 162q24 172 150.5 256t378.5 90l172 5l12 81q14 99 -38.5 152.5t-152.5 53.5q-81 -1 -154 -44t-103 -132h-159q18 90 78 160.5t154 111t213 40.5q127 0 207 -41t112.5 -115.5t17.5 -175.5l-104 -722h-154l13 188
q-75 -121 -167 -164.5t-196 -43.5zM422 113q49 0 99.5 19t95 51.5t74.5 73t36 83.5l25 177l-141 -3q-110 -2 -187.5 -24t-121.5 -69t-56 -123q-12 -87 37.5 -136t138.5 -49zM339 1171q24 61 69 110t107.5 77.5t138.5 28.5q79 0 134.5 -30.5t87.5 -80t41 -105.5h-131
q-16 36 -49 70t-97 34q-46 0 -79 -17.5t-55.5 -41.5t-36.5 -45h-130z" />
    <glyph glyph-name="uni0204" unicode="&#x204;" horiz-adv-x="1202" 
d="M118 0l210 1446h865l-25 -163h-684l-68 -472h615l-23 -162h-615l-70 -482l704 -2l-25 -165h-884zM535 1567l-239 291h188l187 -291h-136zM805 1567l-197 291h184l148 -291h-135z" />
    <glyph glyph-name="uni0205" unicode="&#x205;" horiz-adv-x="1088" 
d="M489 -20q-138 0 -233.5 63t-137 181t-17.5 283q23 163 94 286t182 192t254 69q139 0 226.5 -63t120.5 -177.5t10 -271.5l-9 -68h-701q-14 -98 5 -177.5t74.5 -126.5t149.5 -47q93 0 167 46t105 133h169q-33 -105 -105 -177t-165 -108.5t-189 -36.5zM296 599h528
q13 89 -5 160.5t-70 113t-140 41.5q-91 0 -157 -46.5t-105.5 -119t-50.5 -149.5zM423 1155l-239 291h188l187 -291h-136zM693 1155l-197 291h184l148 -291h-135z" />
    <glyph glyph-name="uni0206" unicode="&#x206;" horiz-adv-x="1202" 
d="M118 0l210 1446h865l-25 -163h-684l-68 -472h615l-23 -162h-615l-70 -482l704 -2l-25 -165h-884zM465 1583q24 61 69 110t107.5 77.5t138.5 28.5q79 0 134.5 -30.5t87.5 -80t41 -105.5h-131q-16 36 -49 70t-97 34q-46 0 -79 -17.5t-55.5 -41.5t-36.5 -45h-130z" />
    <glyph glyph-name="uni0207" unicode="&#x207;" horiz-adv-x="1088" 
d="M489 -20q-138 0 -233.5 63t-137 181t-17.5 283q23 163 94 286t182 192t254 69q139 0 226.5 -63t120.5 -177.5t10 -271.5l-9 -68h-701q-14 -98 5 -177.5t74.5 -126.5t149.5 -47q93 0 167 46t105 133h169q-33 -105 -105 -177t-165 -108.5t-189 -36.5zM296 599h528
q13 89 -5 160.5t-70 113t-140 41.5q-91 0 -157 -46.5t-105.5 -119t-50.5 -149.5zM353 1171q24 61 69 110t107.5 77.5t138.5 28.5q79 0 134.5 -30.5t87.5 -80t41 -105.5h-131q-16 36 -49 70t-97 34q-46 0 -79 -17.5t-55.5 -41.5t-36.5 -45h-130z" />
    <glyph glyph-name="uni0208" unicode="&#x208;" horiz-adv-x="569" 
d="M119 0l208 1446h181l-208 -1446h-181zM214 1567l-239 291h188l187 -291h-136zM484 1567l-197 291h184l148 -291h-135z" />
    <glyph glyph-name="uni0209" unicode="&#x209;" horiz-adv-x="490" 
d="M80 0l150 1034h181l-150 -1034h-181zM116 1155l-239 291h188l187 -291h-136zM386 1155l-197 291h184l148 -291h-135z" />
    <glyph glyph-name="uni020A" unicode="&#x20a;" horiz-adv-x="569" 
d="M119 0l208 1446h181l-208 -1446h-181zM143 1583q24 61 69 110t107.5 77.5t138.5 28.5q79 0 134.5 -30.5t87.5 -80t41 -105.5h-131q-16 36 -49 70t-97 34q-46 0 -79 -17.5t-55.5 -41.5t-36.5 -45h-130z" />
    <glyph glyph-name="uni020B" unicode="&#x20b;" horiz-adv-x="490" 
d="M80 0l150 1034h181l-150 -1034h-181zM46 1171q24 61 69 110t107.5 77.5t138.5 28.5q79 0 134.5 -30.5t87.5 -80t41 -105.5h-131q-16 36 -49 70t-97 34q-46 0 -79 -17.5t-55.5 -41.5t-36.5 -45h-130z" />
    <glyph glyph-name="uni020C" unicode="&#x20c;" horiz-adv-x="1410" 
d="M628 -20q-185 0 -306 86.5t-168.5 251.5t-13.5 399q34 238 131 405.5t243.5 255.5t329.5 88q182 0 301.5 -87.5t167.5 -254.5t14 -404q-34 -235 -129.5 -400.5t-241 -252.5t-328.5 -87zM653 141q125 0 222 61t161.5 189t92.5 327q30 202 1.5 332t-107.5 192.5t-203 62.5
q-187 0 -312.5 -142.5t-169.5 -444.5q-28 -199 1 -326.5t109.5 -189t204.5 -61.5zM630 1567l-239 291h188l187 -291h-136zM900 1567l-197 291h184l148 -291h-135z" />
    <glyph glyph-name="uni020D" unicode="&#x20d;" horiz-adv-x="1085" 
d="M470 -20q-136 0 -229 61.5t-132.5 180.5t-16.5 291q23 162 92 284t179.5 189.5t255.5 67.5q136 0 227.5 -62.5t130.5 -183.5t15 -295q-22 -158 -89.5 -278t-176.5 -187.5t-256 -67.5zM493 126q86 0 152.5 47t109.5 135t59 209q15 111 -0.5 199.5t-67.5 140.5t-148 52
q-89 0 -156 -46.5t-110 -134.5t-60 -211q-14 -109 1.5 -198t68.5 -141t151 -52zM389 1155l-239 291h188l187 -291h-136zM659 1155l-197 291h184l148 -291h-135z" />
    <glyph glyph-name="uni020E" unicode="&#x20e;" horiz-adv-x="1410" 
d="M628 -20q-185 0 -306 86.5t-168.5 251.5t-13.5 399q34 238 131 405.5t243.5 255.5t329.5 88q182 0 301.5 -87.5t167.5 -254.5t14 -404q-34 -235 -129.5 -400.5t-241 -252.5t-328.5 -87zM653 141q125 0 222 61t161.5 189t92.5 327q30 202 1.5 332t-107.5 192.5t-203 62.5
q-187 0 -312.5 -142.5t-169.5 -444.5q-28 -199 1 -326.5t109.5 -189t204.5 -61.5zM560 1583q24 61 69 110t107.5 77.5t138.5 28.5q79 0 134.5 -30.5t87.5 -80t41 -105.5h-131q-16 36 -49 70t-97 34q-46 0 -79 -17.5t-55.5 -41.5t-36.5 -45h-130z" />
    <glyph glyph-name="uni020F" unicode="&#x20f;" horiz-adv-x="1085" 
d="M470 -20q-136 0 -229 61.5t-132.5 180.5t-16.5 291q23 162 92 284t179.5 189.5t255.5 67.5q136 0 227.5 -62.5t130.5 -183.5t15 -295q-22 -158 -89.5 -278t-176.5 -187.5t-256 -67.5zM493 126q86 0 152.5 47t109.5 135t59 209q15 111 -0.5 199.5t-67.5 140.5t-148 52
q-89 0 -156 -46.5t-110 -134.5t-60 -211q-14 -109 1.5 -198t68.5 -141t151 -52zM319 1171q24 61 69 110t107.5 77.5t138.5 28.5q79 0 134.5 -30.5t87.5 -80t41 -105.5h-131q-16 36 -49 70t-97 34q-46 0 -79 -17.5t-55.5 -41.5t-36.5 -45h-130z" />
    <glyph glyph-name="uni0210" unicode="&#x210;" horiz-adv-x="1305" 
d="M118 0l209 1446h531q149 0 241.5 -47.5t129.5 -136t19 -211.5q-17 -118 -67 -196t-118 -125.5t-137 -73.5l174 -656h-190l-159 623h-363l-90 -623h-180zM410 776h297q101 0 176 29.5t121 88.5t58 146q18 128 -46.5 191.5t-194.5 63.5h-336zM566 1567l-239 291h188
l187 -291h-136zM836 1567l-197 291h184l148 -291h-135z" />
    <glyph glyph-name="uni0211" unicode="&#x211;" horiz-adv-x="755" 
d="M80 0l146 1034h172l-27 -199q35 74 86 122.5t112 72.5t125 24q21 0 41 -3t30 -10l-25 -179q-13 7 -34.5 9.5t-36.5 2.5q-79 6 -146.5 -16.5t-113 -75.5t-57.5 -139l-91 -643h-181zM247 1155l-239 291h188l187 -291h-136zM517 1155l-197 291h184l148 -291h-135z" />
    <glyph glyph-name="uni0212" unicode="&#x212;" horiz-adv-x="1305" 
d="M118 0l209 1446h531q149 0 241.5 -47.5t129.5 -136t19 -211.5q-17 -118 -67 -196t-118 -125.5t-137 -73.5l174 -656h-190l-159 623h-363l-90 -623h-180zM410 776h297q101 0 176 29.5t121 88.5t58 146q18 128 -46.5 191.5t-194.5 63.5h-336zM438 1583q24 61 69 110
t107.5 77.5t138.5 28.5q79 0 134.5 -30.5t87.5 -80t41 -105.5h-131q-16 36 -49 70t-97 34q-46 0 -79 -17.5t-55.5 -41.5t-36.5 -45h-130z" />
    <glyph glyph-name="uni0213" unicode="&#x213;" horiz-adv-x="755" 
d="M80 0l146 1034h172l-27 -199q35 74 86 122.5t112 72.5t125 24q21 0 41 -3t30 -10l-25 -179q-13 7 -34.5 9.5t-36.5 2.5q-79 6 -146.5 -16.5t-113 -75.5t-57.5 -139l-91 -643h-181zM177 1171q24 61 69 110t107.5 77.5t138.5 28.5q79 0 134.5 -30.5t87.5 -80t41 -105.5
h-131q-16 36 -49 70t-97 34q-46 0 -79 -17.5t-55.5 -41.5t-36.5 -45h-130z" />
    <glyph glyph-name="uni0214" unicode="&#x214;" horiz-adv-x="1351" 
d="M615 -20q-179 0 -280.5 62t-135 182t-8.5 295l134 927h186l-137 -955q-17 -117 8.5 -194.5t90.5 -116t166 -38.5q152 0 249 86t122 263l137 955h181l-135 -946q-24 -167 -93 -283t-188.5 -176.5t-296.5 -60.5zM622 1567l-239 291h188l187 -291h-136zM892 1567l-197 291
h184l148 -291h-135z" />
    <glyph glyph-name="uni0215" unicode="&#x215;" horiz-adv-x="1124" 
d="M439 -20q-76 1 -141 23.5t-111.5 66.5t-67 109.5t-8.5 152.5l98 702h182l-96 -683q-15 -101 35 -164t168 -63q108 0 181 59.5t90 177.5l95 673h180l-146 -1034h-142l8 198q-28 -78 -78.5 -126t-114 -70.5t-132.5 -21.5zM421 1155l-239 291h188l187 -291h-136zM691 1155
l-197 291h184l148 -291h-135z" />
    <glyph glyph-name="uni0216" unicode="&#x216;" horiz-adv-x="1351" 
d="M615 -20q-179 0 -280.5 62t-135 182t-8.5 295l134 927h186l-137 -955q-17 -117 8.5 -194.5t90.5 -116t166 -38.5q152 0 249 86t122 263l137 955h181l-135 -946q-24 -167 -93 -283t-188.5 -176.5t-296.5 -60.5zM552 1583q24 61 69 110t107.5 77.5t138.5 28.5
q79 0 134.5 -30.5t87.5 -80t41 -105.5h-131q-16 36 -49 70t-97 34q-46 0 -79 -17.5t-55.5 -41.5t-36.5 -45h-130z" />
    <glyph glyph-name="uni0217" unicode="&#x217;" horiz-adv-x="1124" 
d="M439 -20q-76 1 -141 23.5t-111.5 66.5t-67 109.5t-8.5 152.5l98 702h182l-96 -683q-15 -101 35 -164t168 -63q108 0 181 59.5t90 177.5l95 673h180l-146 -1034h-142l8 198q-28 -78 -78.5 -126t-114 -70.5t-132.5 -21.5zM351 1171q24 61 69 110t107.5 77.5t138.5 28.5
q79 0 134.5 -30.5t87.5 -80t41 -105.5h-131q-16 36 -49 70t-97 34q-46 0 -79 -17.5t-55.5 -41.5t-36.5 -45h-130z" />
    <glyph glyph-name="uni0218" unicode="&#x218;" horiz-adv-x="1310" 
d="M588 -20q-98 0 -186 25t-156.5 75.5t-107 126t-37.5 177.5h191q7 -82 49.5 -138t112 -84t155.5 -28q97 0 176.5 28.5t131 81.5t61.5 127q9 65 -13 113t-71 80t-123 50l-260 66q-149 35 -223.5 125t-55.5 238q17 125 94 220t196.5 148t262.5 53q159 0 263 -61t152 -157.5
t37 -200.5h-188q4 98 -33.5 155.5t-103.5 82t-148 24.5q-77 0 -150.5 -27.5t-124 -82.5t-61.5 -136q-11 -78 33 -127t173 -84l251 -66q102 -23 162 -68t88 -102t33 -119t-3 -122q-15 -109 -89.5 -198.5t-198.5 -142t-289 -52.5zM406 -380l95 124l-59 5l22 154h180l-19 -129
l-146 -154h-73z" />
    <glyph glyph-name="uni0219" unicode="&#x219;" horiz-adv-x="977" 
d="M430 -20q-102 0 -185.5 33.5t-132 105t-48.5 182.5h164q4 -61 33.5 -101.5t78 -61t109.5 -20.5q99 0 164.5 39t76.5 120q9 57 -18.5 91.5t-91.5 50.5l-195 53q-116 30 -178 94t-47 179q13 91 64.5 160t141 109t214.5 40q161 0 249.5 -75.5t72.5 -221.5h-160
q1 74 -46 117.5t-136 43.5q-93 0 -157 -39.5t-76 -122.5q-8 -55 29.5 -86.5t116.5 -52.5l187 -52q66 -19 107 -50t62 -69t25.5 -79.5t-0.5 -79.5q-13 -95 -68 -163.5t-145 -106t-211 -37.5zM270 -380l95 124l-59 5l22 154h180l-19 -129l-146 -154h-73z" />
    <glyph glyph-name="uni021A" unicode="&#x21a;" horiz-adv-x="1136" 
d="M411 0l183 1276h-439l25 170h1036l-23 -170h-418l-184 -1276h-180zM348 -377l95 124l-59 5l22 154h180l-19 -129l-146 -154h-73z" />
    <glyph glyph-name="uni021B" unicode="&#x21b;" horiz-adv-x="755" 
d="M438 -5q-103 0 -155.5 29t-67 86t-3.5 140l94 649h-160l21 135h162l77 301h144l-43 -300h222l-21 -136h-221l-91 -636q-11 -83 13.5 -105t87.5 -22h108l-18 -124q-19 -7 -56.5 -12t-92.5 -5zM213 -374l95 124l-59 5l22 154h180l-19 -129l-146 -154h-73z" />
    <glyph glyph-name="uni0237" unicode="&#x237;" horiz-adv-x="506" 
d="M-42 -332q-80 0 -100.5 8t-20.5 16l18 123l98 5q66 5 97.5 37t41.5 103l155 1074h180l-156 -1080q-20 -145 -91.5 -215.5t-221.5 -70.5z" />
    <glyph glyph-name="uni0259" unicode="&#x259;" horiz-adv-x="1088" 
d="M457 -20q-138 0 -225.5 63t-121 177.5t-10.5 271.5l10 68h700q16 98 -3.5 178t-75 126.5t-150.5 46.5q-93 0 -166.5 -46t-105.5 -133h-169q33 106 105.5 177.5t165.5 108t189 36.5q138 0 233.5 -63t136.5 -181t17 -283q-23 -163 -94 -286t-181.5 -192t-254.5 -69z
M479 120q91 0 157.5 46.5t106 119t50.5 149.5h-528q-13 -89 4.5 -160t69.5 -113t140 -42z" />
    <glyph glyph-name="uni02BB" unicode="&#x2bb;" horiz-adv-x="431" 
d="M166 988l29 193q8 55 33.5 103.5t62.5 84t79 52t82 7.5l-11 -70l-16 -1q-37 -3 -73 -43t-43 -90l-3 -12l112 -7l-31 -217h-221z" />
    <glyph glyph-name="uni02BC" unicode="&#x2bc;" horiz-adv-x="483" 
d="M167 991l20 70l16 1q36 3 76 43t54 89l4 13l-106 6l62 218h212l-56 -193q-15 -55 -46.5 -104t-72 -84t-83 -51.5t-80.5 -7.5z" />
    <glyph glyph-name="circumflex" unicode="&#x2c6;" horiz-adv-x="621" 
d="M100 1155l256 225h129l217 -225h-170l-120 130l-153 -130h-159z" />
    <glyph glyph-name="caron" unicode="&#x2c7;" horiz-adv-x="630" 
d="M339 1154l-207 226h160l124 -135l151 135h168l-265 -226h-131z" />
    <glyph glyph-name="breve" unicode="&#x2d8;" horiz-adv-x="618" 
d="M396 1155q-77 0 -131.5 29t-85.5 78t-38 110h130q9 -21 24 -45.5t43 -41.5t74 -17q64 0 106.5 34t69.5 70h131q-25 -56 -71 -105.5t-110 -80.5t-142 -31z" />
    <glyph glyph-name="dotaccent" unicode="&#x2d9;" horiz-adv-x="203" 
d="M116 1267l26 179h181l-26 -179h-181z" />
    <glyph glyph-name="ring" unicode="&#x2da;" horiz-adv-x="449" 
d="M309 1146q-81 0 -129.5 60.5t-35.5 149.5q8 55 41 100t81.5 72t102.5 27q82 0 130.5 -59t35.5 -144q-8 -59 -41 -105.5t-82 -73.5t-103 -27zM321 1242q43 0 76.5 33t40.5 76q6 47 -18.5 76.5t-67.5 29.5q-40 0 -74.5 -29.5t-42.5 -76.5q-6 -43 19.5 -76t66.5 -33z" />
    <glyph glyph-name="ogonek" unicode="&#x2db;" horiz-adv-x="425" 
d="M95 -332q-93 0 -134.5 42.5t-31.5 115.5q9 60 56 107.5t164 85.5l131 -12q-103 -42 -150 -79t-55 -86q-4 -36 13 -54.5t63 -18.5t82.5 12.5t58.5 24.5l-14 -97q-26 -15 -76 -28t-107 -13z" />
    <glyph glyph-name="tilde" unicode="&#x2dc;" horiz-adv-x="661" 
d="M173 1223l-18 100q37 33 76 55t94 22q46 0 85.5 -14t77 -27.5t79.5 -13.5q43 0 76.5 17t64.5 38l15 -115q-27 -19 -70.5 -38.5t-103.5 -19.5q-50 0 -86 13t-70 26t-77 13q-47 0 -78 -16.5t-65 -39.5z" />
    <glyph glyph-name="hungarumlaut" unicode="&#x2dd;" horiz-adv-x="624" 
d="M370 1155l187 291h188l-239 -291h-136zM101 1155l148 291h184l-197 -291h-135z" />
    <glyph glyph-name="gravecomb" unicode="&#x300;" 
d="M448 1155l-254 291h201l189 -291h-136z" />
    <glyph glyph-name="acutecomb" unicode="&#x301;" 
d="M100 1155l235 291h207l-300 -291h-142z" />
    <glyph glyph-name="uni0302" unicode="&#x302;" 
d="M100 1155l256 225h129l217 -225h-170l-120 130l-153 -130h-159z" />
    <glyph glyph-name="tildecomb" unicode="&#x303;" 
d="M173 1223l-18 100q37 33 76 55t94 22q46 0 85.5 -14t77 -27.5t79.5 -13.5q43 0 76.5 17t64.5 38l15 -115q-27 -19 -70.5 -38.5t-103.5 -19.5q-50 0 -86 13t-70 26t-77 13q-47 0 -78 -16.5t-65 -39.5z" />
    <glyph glyph-name="uni0304" unicode="&#x304;" 
d="M131 1235l19 130h570l-19 -130h-570z" />
    <glyph glyph-name="uni0306" unicode="&#x306;" 
d="M396 1155q-77 0 -131.5 29t-85.5 78t-38 110h130q9 -21 24 -45.5t43 -41.5t74 -17q64 0 106.5 34t69.5 70h131q-25 -56 -71 -105.5t-110 -80.5t-142 -31z" />
    <glyph glyph-name="uni0307" unicode="&#x307;" 
d="M116 1267l26 179h181l-26 -179h-181z" />
    <glyph glyph-name="uni0308" unicode="&#x308;" 
d="M450 1267l25 179h181l-26 -179h-180zM113 1267l26 179h181l-26 -179h-181z" />
    <glyph glyph-name="hookabovecomb" unicode="&#x309;" 
d="M742 1148l-39 85q44 27 65 63t7 70q-14 33 -53.5 32.5t-82.5 -27.5l-40 84q89 55 164 44t105 -74q37 -76 2.5 -149t-128.5 -128z" />
    <glyph glyph-name="uni030A" unicode="&#x30a;" 
d="M309 1146q-81 0 -129.5 60.5t-35.5 149.5q8 55 41 100t81.5 72t102.5 27q82 0 130.5 -59t35.5 -144q-8 -59 -41 -105.5t-82 -73.5t-103 -27zM321 1242q43 0 76.5 33t40.5 76q6 47 -18.5 76.5t-67.5 29.5q-40 0 -74.5 -29.5t-42.5 -76.5q-6 -43 19.5 -76t66.5 -33z" />
    <glyph glyph-name="uni030B" unicode="&#x30b;" 
d="M370 1155l187 291h188l-239 -291h-136zM101 1155l148 291h184l-197 -291h-135z" />
    <glyph glyph-name="uni030C" unicode="&#x30c;" 
d="M339 1154l-207 226h160l124 -135l151 135h168l-265 -226h-131z" />
    <glyph glyph-name="uni030F" unicode="&#x30f;" 
d="M380 1155l-239 291h188l187 -291h-136zM650 1155l-197 291h184l148 -291h-135z" />
    <glyph glyph-name="uni0311" unicode="&#x311;" 
d="M101 1171q24 61 69 110t107.5 77.5t138.5 28.5q79 0 134.5 -30.5t87.5 -80t41 -105.5h-131q-16 36 -49 70t-97 34q-46 0 -79 -17.5t-55.5 -41.5t-36.5 -45h-130z" />
    <glyph glyph-name="uni0312" unicode="&#x312;" 
d="M546 1155l26 186l111 143h86l-110 -154h72l-25 -175h-160z" />
    <glyph glyph-name="uni031B" unicode="&#x31b;" 
d="M60 946l17 115q43 -1 74 4t53 24t38 57.5t29 105.5h142q-17 -119 -58 -191t-112 -100t-183 -15z" />
    <glyph glyph-name="dotbelowcomb" unicode="&#x323;" 
d="M-113 -359l26 179h181l-26 -179h-181z" />
    <glyph glyph-name="uni0326" unicode="&#x326;" 
d="M-126 -380l95 124l-59 5l22 154h180l-19 -129l-146 -154h-73z" />
    <glyph glyph-name="uni0327" unicode="&#x327;" 
d="M74 -412q-51 0 -95 12t-79 38l41 78q22 -19 51 -33t72 -14q51 0 78.5 19t33.5 54q7 43 -26 64.5t-113 23.5q-10 0 -12.5 3t3.5 10l92 167h94l-62 -121q64 -3 98 -25.5t45 -55t7 -65.5q-8 -51 -41.5 -85t-82.5 -52t-104 -18z" />
    <glyph glyph-name="uni0328" unicode="&#x328;" 
d="M95 -332q-93 0 -134.5 42.5t-31.5 115.5q9 60 56 107.5t164 85.5l131 -12q-103 -42 -150 -79t-55 -86q-4 -36 13 -54.5t63 -18.5t82.5 12.5t58.5 24.5l-14 -97q-26 -15 -76 -28t-107 -13z" />
    <glyph glyph-name="pi" unicode="&#x3c0;" horiz-adv-x="1325" 
d="M163 0q26 83 50.5 186t45.5 219t34.5 236.5t16.5 237.5q1 20 -15 20h-181l12 135h1205l-13 -135h-225l-37 -899h-179l35 899h-424q-4 -124 -18.5 -252.5t-36 -249.5t-47.5 -223.5t-53 -173.5h-170z" />
    <glyph glyph-name="uni1E0C" unicode="&#x1e0c;" horiz-adv-x="1342" 
d="M120 0l204 1446q7 0 69.5 -0.5t139.5 -0.5q136 -1 250.5 -17t204.5 -53.5t153 -100t96 -156.5t33 -223q0 -105 -16.5 -211.5t-54 -207t-100.5 -186.5t-156 -151t-220 -102t-293 -37h-310zM328 159h116q169 0 289.5 55t198 153.5t114 231t36.5 288.5q0 149 -54 236.5
t-157 125.5t-249 38h-132zM370 -359l26 179h181l-26 -179h-181z" />
    <glyph glyph-name="uni1E0D" unicode="&#x1e0d;" horiz-adv-x="1154" 
d="M437 -20q-193 0 -286 138t-58 403q33 242 153.5 387.5t319.5 145.5q70 0 121.5 -19t87 -48t57.5 -60t30 -57l83 616h183l-199 -1486h-138l9 212q-14 -30 -40.5 -69.5t-69.5 -77t-105 -61.5t-148 -24zM488 122q147 0 223.5 95.5t105.5 312.5q15 121 -1.5 206t-69.5 129.5
t-149 44.5q-120 0 -207.5 -91t-113.5 -289q-26 -194 28 -301t184 -107zM344 -359l26 179h181l-26 -179h-181z" />
    <glyph glyph-name="uni1E24" unicode="&#x1e24;" horiz-adv-x="1479" 
d="M118 0l204 1446h181l-87 -616h736l86 616h181l-203 -1446h-181l93 667h-735l-94 -667h-181zM528 -359l26 179h181l-26 -179h-181z" />
    <glyph glyph-name="uni1E25" unicode="&#x1e25;" horiz-adv-x="1127" 
d="M90 0l204 1486h178l-82 -597q45 64 126.5 111t199.5 47q96 0 168.5 -38.5t109 -107.5t22.5 -160l-101 -741h-181l96 705q13 90 -40 140.5t-148 50.5q-66 0 -125.5 -22.5t-100.5 -67.5t-50 -113l-95 -693h-181zM373 -359l26 179h181l-26 -179h-181z" />
    <glyph glyph-name="uni1E44" unicode="&#x1e44;" horiz-adv-x="1459" 
d="M118 0l210 1446h172l557 -1124l161 1124h181l-210 -1446h-160l-566 1140l-164 -1140h-181zM806 1679l26 179h181l-26 -179h-181z" />
    <glyph glyph-name="uni1E45" unicode="&#x1e45;" horiz-adv-x="1114" 
d="M80 0l150 1034h174l-19 -144q33 44 79.5 80t108 57.5t139.5 21.5q94 0 165.5 -42.5t106.5 -124.5t17 -202l-98 -680h-181l96 662q17 113 -34 173.5t-144 60.5q-66 0 -126.5 -22t-102 -67t-50.5 -112l-101 -695h-180zM596 1267l26 179h181l-26 -179h-181z" />
    <glyph glyph-name="uni1E5A" unicode="&#x1e5a;" horiz-adv-x="1305" 
d="M118 0l209 1446h531q149 0 241.5 -47.5t129.5 -136t19 -211.5q-17 -118 -67 -196t-118 -125.5t-137 -73.5l174 -656h-190l-159 623h-363l-90 -623h-180zM410 776h297q101 0 176 29.5t121 88.5t58 146q18 128 -46.5 191.5t-194.5 63.5h-336zM438 -359l26 179h181l-26 -179
h-181z" />
    <glyph glyph-name="uni1E5B" unicode="&#x1e5b;" horiz-adv-x="755" 
d="M80 0l146 1034h172l-27 -199q35 74 86 122.5t112 72.5t125 24q21 0 41 -3t30 -10l-25 -179q-13 7 -34.5 9.5t-36.5 2.5q-79 6 -146.5 -16.5t-113 -75.5t-57.5 -139l-91 -643h-181zM21 -359l26 179h181l-26 -179h-181z" />
    <glyph glyph-name="uni1E62" unicode="&#x1e62;" horiz-adv-x="1310" 
d="M588 -20q-98 0 -186 25t-156.5 75.5t-107 126t-37.5 177.5h191q7 -82 49.5 -138t112 -84t155.5 -28q97 0 176.5 28.5t131 81.5t61.5 127q9 65 -13 113t-71 80t-123 50l-260 66q-149 35 -223.5 125t-55.5 238q17 125 94 220t196.5 148t262.5 53q159 0 263 -61t152 -157.5
t37 -200.5h-188q4 98 -33.5 155.5t-103.5 82t-148 24.5q-77 0 -150.5 -27.5t-124 -82.5t-61.5 -136q-11 -78 33 -127t173 -84l251 -66q102 -23 162 -68t88 -102t33 -119t-3 -122q-15 -109 -89.5 -198.5t-198.5 -142t-289 -52.5zM428 -359l26 179h181l-26 -179h-181z" />
    <glyph glyph-name="uni1E63" unicode="&#x1e63;" horiz-adv-x="977" 
d="M430 -20q-102 0 -185.5 33.5t-132 105t-48.5 182.5h164q4 -61 33.5 -101.5t78 -61t109.5 -20.5q99 0 164.5 39t76.5 120q9 57 -18.5 91.5t-91.5 50.5l-195 53q-116 30 -178 94t-47 179q13 91 64.5 160t141 109t214.5 40q161 0 249.5 -75.5t72.5 -221.5h-160
q1 74 -46 117.5t-136 43.5q-93 0 -157 -39.5t-76 -122.5q-8 -55 29.5 -86.5t116.5 -52.5l187 -52q66 -19 107 -50t62 -69t25.5 -79.5t-0.5 -79.5q-13 -95 -68 -163.5t-145 -106t-211 -37.5zM292 -359l26 179h181l-26 -179h-181z" />
    <glyph glyph-name="uni1E6C" unicode="&#x1e6c;" horiz-adv-x="1136" 
d="M411 0l183 1276h-439l25 170h1036l-23 -170h-418l-184 -1276h-180zM369 -356l26 179h181l-26 -179h-181z" />
    <glyph glyph-name="uni1E6D" unicode="&#x1e6d;" horiz-adv-x="755" 
d="M438 -5q-103 0 -155.5 29t-67 86t-3.5 140l94 649h-160l21 135h162l77 301h144l-43 -300h222l-21 -136h-221l-91 -636q-11 -83 13.5 -105t87.5 -22h108l-18 -124q-19 -7 -56.5 -12t-92.5 -5zM235 -353l26 179h181l-26 -179h-181z" />
    <glyph glyph-name="Wgrave" unicode="&#x1e80;" horiz-adv-x="1814" 
d="M365 0l-186 1446h183l135 -1151l469 1151h140l141 -1151l470 1151h180l-608 -1446h-164l-137 1121l-463 -1121h-160zM987 1567l-254 291h201l189 -291h-136z" />
    <glyph glyph-name="wgrave" unicode="&#x1e81;" horiz-adv-x="1483" 
d="M279 0l-154 1034h167l108 -795h14l333 795h136l113 -793h14l327 793h167l-447 -1034h-173l-112 763l-320 -763h-173zM772 1155l-254 291h201l189 -291h-136z" />
    <glyph glyph-name="Wacute" unicode="&#x1e82;" horiz-adv-x="1814" 
d="M365 0l-186 1446h183l135 -1151l469 1151h140l141 -1151l470 1151h180l-608 -1446h-164l-137 1121l-463 -1121h-160zM967 1567l235 291h207l-300 -291h-142z" />
    <glyph glyph-name="wacute" unicode="&#x1e83;" horiz-adv-x="1483" 
d="M279 0l-154 1034h167l108 -795h14l333 795h136l113 -793h14l327 793h167l-447 -1034h-173l-112 763l-320 -763h-173zM751 1155l235 291h207l-300 -291h-142z" />
    <glyph glyph-name="Wdieresis" unicode="&#x1e84;" horiz-adv-x="1814" 
d="M365 0l-186 1446h183l135 -1151l469 1151h140l141 -1151l470 1151h180l-608 -1446h-164l-137 1121l-463 -1121h-160zM1148 1679l25 179h181l-26 -179h-180zM811 1679l26 179h181l-26 -179h-181z" />
    <glyph glyph-name="wdieresis" unicode="&#x1e85;" horiz-adv-x="1483" 
d="M279 0l-154 1034h167l108 -795h14l333 795h136l113 -793h14l327 793h167l-447 -1034h-173l-112 763l-320 -763h-173zM932 1267l25 179h181l-26 -179h-180zM595 1267l26 179h181l-26 -179h-181z" />
    <glyph glyph-name="uni1E92" unicode="&#x1e92;" horiz-adv-x="1228" 
d="M54 0l16 102l915 1183h-713l24 161h967l-14 -98l-924 -1185h749l-25 -163h-995zM429 -359l26 179h181l-26 -179h-181z" />
    <glyph glyph-name="uni1E93" unicode="&#x1e93;" horiz-adv-x="927" 
d="M6 0l14 115l662 783h-513l19 136h730l-14 -115l-662 -783h555l-20 -136h-771zM236 -359l26 179h181l-26 -179h-181z" />
    <glyph glyph-name="uni1EA0" unicode="&#x1ea0;" horiz-adv-x="1362" 
d="M13 0l704 1446h202l285 -1446h-183l-76 396h-556l-193 -396h-183zM459 566h463l-129 697zM467 -359l26 179h181l-26 -179h-181z" />
    <glyph glyph-name="uni1EA1" unicode="&#x1ea1;" horiz-adv-x="1096" 
d="M349 -20q-95 0 -163 35.5t-99 102.5t-18 162q24 172 150.5 256t378.5 90l172 5l12 81q14 99 -38.5 152.5t-152.5 53.5q-81 -1 -154 -44t-103 -132h-159q18 90 78 160.5t154 111t213 40.5q127 0 207 -41t112.5 -115.5t17.5 -175.5l-104 -722h-154l13 188
q-75 -121 -167 -164.5t-196 -43.5zM422 113q49 0 99.5 19t95 51.5t74.5 73t36 83.5l25 177l-141 -3q-110 -2 -187.5 -24t-121.5 -69t-56 -123q-12 -87 37.5 -136t138.5 -49zM317 -359l26 179h181l-26 -179h-181z" />
    <glyph glyph-name="uni1EA2" unicode="&#x1ea2;" horiz-adv-x="1362" 
d="M13 0l704 1446h202l285 -1446h-183l-76 396h-556l-193 -396h-183zM459 566h463l-129 697zM891 1543l-39 85q44 27 65 63t7 70q-14 33 -53.5 32.5t-82.5 -27.5l-40 84q89 55 164 44t105 -74q37 -76 2.5 -149t-128.5 -128z" />
    <glyph glyph-name="uni1EA3" unicode="&#x1ea3;" horiz-adv-x="1096" 
d="M349 -20q-95 0 -163 35.5t-99 102.5t-18 162q24 172 150.5 256t378.5 90l172 5l12 81q14 99 -38.5 152.5t-152.5 53.5q-81 -1 -154 -44t-103 -132h-159q18 90 78 160.5t154 111t213 40.5q127 0 207 -41t112.5 -115.5t17.5 -175.5l-104 -722h-154l13 188
q-75 -121 -167 -164.5t-196 -43.5zM422 113q49 0 99.5 19t95 51.5t74.5 73t36 83.5l25 177l-141 -3q-110 -2 -187.5 -24t-121.5 -69t-56 -123q-12 -87 37.5 -136t138.5 -49zM688 1132l-39 85q44 27 65 63t7 70q-14 33 -53.5 32.5t-82.5 -27.5l-40 84q89 55 164 44t105 -74
q37 -76 2.5 -149t-128.5 -128z" />
    <glyph glyph-name="uni1EA4" unicode="&#x1ea4;" horiz-adv-x="1362" 
d="M13 0l704 1446h202l285 -1446h-183l-76 396h-556l-193 -396h-183zM459 566h463l-129 697zM541 1567l256 225h129l217 -225h-170l-120 130l-153 -130h-159zM1040 1772l120 222h175l-180 -222h-115z" />
    <glyph glyph-name="uni1EA5" unicode="&#x1ea5;" horiz-adv-x="1073" 
d="M349 -20q-95 0 -163 35.5t-99 102.5t-18 162q24 172 150.5 256t378.5 90l172 5l12 81q14 99 -38.5 152.5t-152.5 53.5q-81 -1 -154 -44t-103 -132h-159q18 90 78 160.5t154 111t213 40.5q127 0 207 -41t112.5 -115.5t17.5 -175.5l-104 -722h-154l13 188
q-75 -121 -167 -164.5t-196 -43.5zM422 113q49 0 99.5 19t95 51.5t74.5 73t36 83.5l25 177l-141 -3q-110 -2 -187.5 -24t-121.5 -69t-56 -123q-12 -87 37.5 -136t138.5 -49zM345 1155l256 225h129l217 -225h-170l-120 130l-153 -130h-159zM844 1360l120 222h175l-180 -222
h-115z" />
    <glyph glyph-name="uni1EA6" unicode="&#x1ea6;" horiz-adv-x="1362" 
d="M13 0l704 1446h202l285 -1446h-183l-76 396h-556l-193 -396h-183zM459 566h463l-129 697zM537 1567l256 225h129l217 -225h-170l-120 130l-153 -130h-159zM1101 1768l-144 223h169l85 -223h-110z" />
    <glyph glyph-name="uni1EA7" unicode="&#x1ea7;" horiz-adv-x="1084" 
d="M349 -20q-95 0 -163 35.5t-99 102.5t-18 162q24 172 150.5 256t378.5 90l172 5l12 81q14 99 -38.5 152.5t-152.5 53.5q-81 -1 -154 -44t-103 -132h-159q18 90 78 160.5t154 111t213 40.5q127 0 207 -41t112.5 -115.5t17.5 -175.5l-104 -722h-154l13 188
q-75 -121 -167 -164.5t-196 -43.5zM422 113q49 0 99.5 19t95 51.5t74.5 73t36 83.5l25 177l-141 -3q-110 -2 -187.5 -24t-121.5 -69t-56 -123q-12 -87 37.5 -136t138.5 -49zM333 1155l256 225h129l217 -225h-170l-120 130l-153 -130h-159zM897 1356l-144 223h169l85 -223
h-110z" />
    <glyph glyph-name="uni1EA8" unicode="&#x1ea8;" horiz-adv-x="1362" 
d="M13 0l704 1446h202l285 -1446h-183l-76 396h-556l-193 -396h-183zM459 566h463l-129 697zM524 1567l256 225h129l217 -225h-170l-120 130l-153 -130h-159zM1060 1698l-40 84q44 27 65.5 63.5t7.5 70.5q-14 32 -54 31.5t-83 -27.5l-39 84q89 55 164 44.5t105 -74.5
q36 -75 1.5 -148.5t-127.5 -127.5z" />
    <glyph glyph-name="uni1EA9" unicode="&#x1ea9;" horiz-adv-x="1094" 
d="M349 -20q-95 0 -163 35.5t-99 102.5t-18 162q24 172 150.5 256t378.5 90l172 5l12 81q14 99 -38.5 152.5t-152.5 53.5q-81 -1 -154 -44t-103 -132h-159q18 90 78 160.5t154 111t213 40.5q127 0 207 -41t112.5 -115.5t17.5 -175.5l-104 -722h-154l13 188
q-75 -121 -167 -164.5t-196 -43.5zM422 113q49 0 99.5 19t95 51.5t74.5 73t36 83.5l25 177l-141 -3q-110 -2 -187.5 -24t-121.5 -69t-56 -123q-12 -87 37.5 -136t138.5 -49zM328 1155l256 225h129l217 -225h-170l-120 130l-153 -130h-159zM864 1286l-40 84q44 27 65.5 63.5
t7.5 70.5q-14 32 -54 31.5t-83 -27.5l-39 84q89 55 164 44.5t105 -74.5q36 -75 1.5 -148.5t-127.5 -127.5z" />
    <glyph glyph-name="uni1EAA" unicode="&#x1eaa;" horiz-adv-x="1362" 
d="M13 0l704 1446h202l285 -1446h-183l-76 396h-556l-193 -396h-183zM459 566h463l-129 697zM545 1567l257 225h128l217 -225h-169l-120 130l-154 -130h-159zM619 1898l-19 101q37 32 76 54.5t94 22.5q47 0 86 -14t77 -28t80 -14t76 17t65 39l15 -115q-28 -20 -71.5 -39.5
t-102.5 -19.5q-50 0 -86 13t-70 26t-77 13q-48 0 -79 -16.5t-64 -39.5z" />
    <glyph glyph-name="uni1EAB" unicode="&#x1eab;" horiz-adv-x="1096" 
d="M349 -20q-95 0 -163 35.5t-99 102.5t-18 162q24 172 150.5 256t378.5 90l172 5l12 81q14 99 -38.5 152.5t-152.5 53.5q-81 -1 -154 -44t-103 -132h-159q18 90 78 160.5t154 111t213 40.5q127 0 207 -41t112.5 -115.5t17.5 -175.5l-104 -722h-154l13 188
q-75 -121 -167 -164.5t-196 -43.5zM422 113q49 0 99.5 19t95 51.5t74.5 73t36 83.5l25 177l-141 -3q-110 -2 -187.5 -24t-121.5 -69t-56 -123q-12 -87 37.5 -136t138.5 -49zM341 1155l257 225h128l217 -225h-169l-120 130l-154 -130h-159zM415 1486l-19 101q37 32 76 54.5
t94 22.5q47 0 86 -14t77 -28t80 -14t76 17t65 39l15 -115q-28 -20 -71.5 -39.5t-102.5 -19.5q-50 0 -86 13t-70 26t-77 13q-48 0 -79 -16.5t-64 -39.5z" />
    <glyph glyph-name="uni1EAC" unicode="&#x1eac;" horiz-adv-x="1362" 
d="M13 0l704 1446h202l285 -1446h-183l-76 396h-556l-193 -396h-183zM459 566h463l-129 697zM467 -359l26 179h181l-26 -179h-181zM534 1567l256 225h129l217 -225h-170l-120 130l-153 -130h-159z" />
    <glyph glyph-name="uni1EAD" unicode="&#x1ead;" horiz-adv-x="1096" 
d="M349 -20q-95 0 -163 35.5t-99 102.5t-18 162q24 172 150.5 256t378.5 90l172 5l12 81q14 99 -38.5 152.5t-152.5 53.5q-81 -1 -154 -44t-103 -132h-159q18 90 78 160.5t154 111t213 40.5q127 0 207 -41t112.5 -115.5t17.5 -175.5l-104 -722h-154l13 188
q-75 -121 -167 -164.5t-196 -43.5zM422 113q49 0 99.5 19t95 51.5t74.5 73t36 83.5l25 177l-141 -3q-110 -2 -187.5 -24t-121.5 -69t-56 -123q-12 -87 37.5 -136t138.5 -49zM317 -359l26 179h181l-26 -179h-181zM332 1155l256 225h129l217 -225h-170l-120 130l-153 -130
h-159z" />
    <glyph glyph-name="uni1EAE" unicode="&#x1eae;" horiz-adv-x="1362" 
d="M13 0l704 1446h202l285 -1446h-183l-76 396h-556l-193 -396h-183zM459 566h463l-129 697zM871 1567q-77 0 -131.5 29t-85.5 78t-38 110h130q9 -21 24 -45.5t43 -41.5t74 -17q64 0 106.5 34t69.5 70h131q-25 -56 -71 -105.5t-110 -80.5t-142 -31zM843 1829l120 223h175
l-181 -223h-114z" />
    <glyph glyph-name="uni1EAF" unicode="&#x1eaf;" horiz-adv-x="1096" 
d="M349 -20q-95 0 -163 35.5t-99 102.5t-18 162q24 172 150.5 256t378.5 90l172 5l12 81q14 99 -38.5 152.5t-152.5 53.5q-81 -1 -154 -44t-103 -132h-159q18 90 78 160.5t154 111t213 40.5q127 0 207 -41t112.5 -115.5t17.5 -175.5l-104 -722h-154l13 188
q-75 -121 -167 -164.5t-196 -43.5zM422 113q49 0 99.5 19t95 51.5t74.5 73t36 83.5l25 177l-141 -3q-110 -2 -187.5 -24t-121.5 -69t-56 -123q-12 -87 37.5 -136t138.5 -49zM668 1155q-77 0 -131.5 29t-85.5 78t-38 110h130q9 -21 24 -45.5t43 -41.5t74 -17q64 0 106.5 34
t69.5 70h131q-25 -56 -71 -105.5t-110 -80.5t-142 -31zM640 1417l120 223h175l-181 -223h-114z" />
    <glyph glyph-name="uni1EB0" unicode="&#x1eb0;" horiz-adv-x="1362" 
d="M13 0l704 1446h202l285 -1446h-183l-76 396h-556l-193 -396h-183zM459 566h463l-129 697zM867 1567q-77 0 -131.5 29t-85.5 78t-38 110h130q9 -21 24 -45.5t43 -41.5t74 -17q64 0 106.5 34t69.5 70h131q-25 -56 -71 -105.5t-110 -80.5t-142 -31zM851 1830l-144 223h169
l85 -223h-110z" />
    <glyph glyph-name="uni1EB1" unicode="&#x1eb1;" horiz-adv-x="1096" 
d="M349 -20q-95 0 -163 35.5t-99 102.5t-18 162q24 172 150.5 256t378.5 90l172 5l12 81q14 99 -38.5 152.5t-152.5 53.5q-81 -1 -154 -44t-103 -132h-159q18 90 78 160.5t154 111t213 40.5q127 0 207 -41t112.5 -115.5t17.5 -175.5l-104 -722h-154l13 188
q-75 -121 -167 -164.5t-196 -43.5zM422 113q49 0 99.5 19t95 51.5t74.5 73t36 83.5l25 177l-141 -3q-110 -2 -187.5 -24t-121.5 -69t-56 -123q-12 -87 37.5 -136t138.5 -49zM664 1155q-77 0 -131.5 29t-85.5 78t-38 110h130q9 -21 24 -45.5t43 -41.5t74 -17q64 0 106.5 34
t69.5 70h131q-25 -56 -71 -105.5t-110 -80.5t-142 -31zM648 1418l-144 223h169l85 -223h-110z" />
    <glyph glyph-name="uni1EB2" unicode="&#x1eb2;" horiz-adv-x="1362" 
d="M13 0l704 1446h202l285 -1446h-183l-76 396h-556l-193 -396h-183zM459 566h463l-129 697zM831 1567q-77 0 -131.5 29t-85.5 78t-38 110h130q9 -21 24 -45.5t43 -41.5t74 -17q64 0 106.5 34t69.5 70h131q-25 -56 -71 -105.5t-110 -80.5t-142 -31zM865 1750l-39 84
q44 27 65 63.5t7 70.5q-14 32 -53.5 31.5t-82.5 -27.5l-40 84q74 45 141 45q93 0 128 -75q36 -75 1.5 -148.5t-127.5 -127.5z" />
    <glyph glyph-name="uni1EB3" unicode="&#x1eb3;" horiz-adv-x="1096" 
d="M349 -20q-95 0 -163 35.5t-99 102.5t-18 162q24 172 150.5 256t378.5 90l172 5l12 81q14 99 -38.5 152.5t-152.5 53.5q-81 -1 -154 -44t-103 -132h-159q18 90 78 160.5t154 111t213 40.5q127 0 207 -41t112.5 -115.5t17.5 -175.5l-104 -722h-154l13 188
q-75 -121 -167 -164.5t-196 -43.5zM422 113q49 0 99.5 19t95 51.5t74.5 73t36 83.5l25 177l-141 -3q-110 -2 -187.5 -24t-121.5 -69t-56 -123q-12 -87 37.5 -136t138.5 -49zM642 1155q-77 0 -131.5 29t-85.5 78t-38 110h130q9 -21 24 -45.5t43 -41.5t74 -17q64 0 106.5 34
t69.5 70h131q-25 -56 -71 -105.5t-110 -80.5t-142 -31zM676 1338l-39 84q44 27 65 63.5t7 70.5q-14 32 -53.5 31.5t-82.5 -27.5l-40 84q74 45 141 45q93 0 128 -75q36 -75 1.5 -148.5t-127.5 -127.5z" />
    <glyph glyph-name="uni1EB4" unicode="&#x1eb4;" horiz-adv-x="1362" 
d="M13 0l704 1446h202l285 -1446h-183l-76 396h-556l-193 -396h-183zM459 566h463l-129 697zM864 1567q-76 0 -131 29t-86 78t-38 110h130q9 -21 24.5 -45.5t43 -41.5t74.5 -17q64 0 106.5 34t68.5 70h131q-24 -56 -70.5 -105.5t-110.5 -80.5t-142 -31zM624 1903l-18 101
q37 33 76 55t94 22q46 0 85.5 -14t77 -28t79.5 -14q43 0 77 17t64 39l16 -115q-28 -19 -71.5 -39t-103.5 -20q-50 0 -86 13t-70 26.5t-77 13.5q-47 0 -78 -16.5t-65 -40.5z" />
    <glyph glyph-name="uni1EB5" unicode="&#x1eb5;" horiz-adv-x="1096" 
d="M349 -20q-95 0 -163 35.5t-99 102.5t-18 162q24 172 150.5 256t378.5 90l172 5l12 81q14 99 -38.5 152.5t-152.5 53.5q-81 -1 -154 -44t-103 -132h-159q18 90 78 160.5t154 111t213 40.5q127 0 207 -41t112.5 -115.5t17.5 -175.5l-104 -722h-154l13 188
q-75 -121 -167 -164.5t-196 -43.5zM422 113q49 0 99.5 19t95 51.5t74.5 73t36 83.5l25 177l-141 -3q-110 -2 -187.5 -24t-121.5 -69t-56 -123q-12 -87 37.5 -136t138.5 -49zM658 1155q-76 0 -131 29t-86 78t-38 110h130q9 -21 24.5 -45.5t43 -41.5t74.5 -17q64 0 106.5 34
t68.5 70h131q-24 -56 -70.5 -105.5t-110.5 -80.5t-142 -31zM418 1491l-18 101q37 33 76 55t94 22q46 0 85.5 -14t77 -28t79.5 -14q43 0 77 17t64 39l16 -115q-28 -19 -71.5 -39t-103.5 -20q-50 0 -86 13t-70 26.5t-77 13.5q-47 0 -78 -16.5t-65 -40.5z" />
    <glyph glyph-name="uni1EB6" unicode="&#x1eb6;" horiz-adv-x="1362" 
d="M13 0l704 1446h202l285 -1446h-183l-76 396h-556l-193 -396h-183zM459 566h463l-129 697zM467 -359l26 179h181l-26 -179h-181zM833 1567q-77 0 -131.5 29t-85.5 78t-38 110h130q9 -21 24 -45.5t43 -41.5t74 -17q64 0 106.5 34t69.5 70h131q-25 -56 -71 -105.5
t-110 -80.5t-142 -31z" />
    <glyph glyph-name="uni1EB7" unicode="&#x1eb7;" horiz-adv-x="1065" 
d="M349 -20q-95 0 -163 35.5t-99 102.5t-18 162q24 172 150.5 256t378.5 90l172 5l12 81q14 99 -38.5 152.5t-152.5 53.5q-81 -1 -154 -44t-103 -132h-159q18 90 78 160.5t154 111t213 40.5q127 0 207 -41t112.5 -115.5t17.5 -175.5l-104 -722h-154l13 188
q-75 -121 -167 -164.5t-196 -43.5zM422 113q49 0 99.5 19t95 51.5t74.5 73t36 83.5l25 177l-141 -3q-110 -2 -187.5 -24t-121.5 -69t-56 -123q-12 -87 37.5 -136t138.5 -49zM317 -359l26 179h181l-26 -179h-181zM629 1152q-77 0 -131.5 29t-85.5 78t-38 110h130
q9 -21 24 -45.5t43 -41.5t74 -17q64 0 106.5 34t69.5 70h131q-25 -56 -71 -105.5t-110 -80.5t-142 -31z" />
    <glyph glyph-name="uni1EB8" unicode="&#x1eb8;" horiz-adv-x="1202" 
d="M118 0l210 1446h865l-25 -163h-684l-68 -472h615l-23 -162h-615l-70 -482l704 -2l-25 -165h-884zM424 -359l26 179h181l-26 -179h-181z" />
    <glyph glyph-name="uni1EB9" unicode="&#x1eb9;" horiz-adv-x="1088" 
d="M489 -20q-138 0 -233.5 63t-137 181t-17.5 283q23 163 94 286t182 192t254 69q139 0 226.5 -63t120.5 -177.5t10 -271.5l-9 -68h-701q-14 -98 5 -177.5t74.5 -126.5t149.5 -47q93 0 167 46t105 133h169q-33 -105 -105 -177t-165 -108.5t-189 -36.5zM296 599h528
q13 89 -5 160.5t-70 113t-140 41.5q-91 0 -157 -46.5t-105.5 -119t-50.5 -149.5zM346 -359l26 179h181l-26 -179h-181z" />
    <glyph glyph-name="uni1EBA" unicode="&#x1eba;" horiz-adv-x="1202" 
d="M118 0l210 1446h865l-25 -163h-684l-68 -472h615l-23 -162h-615l-70 -482l704 -2l-25 -165h-884zM814 1543l-39 85q44 27 65 63t7 70q-14 33 -53.5 32.5t-82.5 -27.5l-40 84q89 55 164 44t105 -74q37 -76 2.5 -149t-128.5 -128z" />
    <glyph glyph-name="uni1EBB" unicode="&#x1ebb;" horiz-adv-x="1088" 
d="M489 -20q-138 0 -233.5 63t-137 181t-17.5 283q23 163 94 286t182 192t254 69q139 0 226.5 -63t120.5 -177.5t10 -271.5l-9 -68h-701q-14 -98 5 -177.5t74.5 -126.5t149.5 -47q93 0 167 46t105 133h169q-33 -105 -105 -177t-165 -108.5t-189 -36.5zM296 599h528
q13 89 -5 160.5t-70 113t-140 41.5q-91 0 -157 -46.5t-105.5 -119t-50.5 -149.5zM702 1131l-39 85q44 27 65 63t7 70q-14 33 -53.5 32.5t-82.5 -27.5l-40 84q89 55 164 44t105 -74q37 -76 2.5 -149t-128.5 -128z" />
    <glyph glyph-name="uni1EBC" unicode="&#x1ebc;" horiz-adv-x="1202" 
d="M118 0l210 1446h865l-25 -163h-684l-68 -472h615l-23 -162h-615l-70 -482l704 -2l-25 -165h-884zM517 1635l-18 100q37 33 76 55t94 22q46 0 85.5 -14t77 -27.5t79.5 -13.5q43 0 76.5 17t64.5 38l15 -115q-27 -19 -70.5 -38.5t-103.5 -19.5q-50 0 -86 13t-70 26t-77 13
q-47 0 -78 -16.5t-65 -39.5z" />
    <glyph glyph-name="uni1EBD" unicode="&#x1ebd;" horiz-adv-x="1088" 
d="M489 -20q-138 0 -233.5 63t-137 181t-17.5 283q23 163 94 286t182 192t254 69q139 0 226.5 -63t120.5 -177.5t10 -271.5l-9 -68h-701q-14 -98 5 -177.5t74.5 -126.5t149.5 -47q93 0 167 46t105 133h169q-33 -105 -105 -177t-165 -108.5t-189 -36.5zM296 599h528
q13 89 -5 160.5t-70 113t-140 41.5q-91 0 -157 -46.5t-105.5 -119t-50.5 -149.5zM405 1223l-18 100q37 33 76 55t94 22q46 0 85.5 -14t77 -27.5t79.5 -13.5q43 0 76.5 17t64.5 38l15 -115q-27 -19 -70.5 -38.5t-103.5 -19.5q-50 0 -86 13t-70 26t-77 13q-47 0 -78 -16.5
t-65 -39.5z" />
    <glyph glyph-name="uni1EBE" unicode="&#x1ebe;" horiz-adv-x="1202" 
d="M118 0l210 1446h865l-25 -163h-684l-68 -472h615l-23 -162h-615l-70 -482l704 -2l-25 -165h-884zM464 1567l256 225h129l217 -225h-170l-120 130l-153 -130h-159zM963 1772l120 222h175l-180 -222h-115z" />
    <glyph glyph-name="uni1EBF" unicode="&#x1ebf;" horiz-adv-x="1088" 
d="M489 -20q-138 0 -233.5 63t-137 181t-17.5 283q23 163 94 286t182 192t254 69q139 0 226.5 -63t120.5 -177.5t10 -271.5l-9 -68h-701q-14 -98 5 -177.5t74.5 -126.5t149.5 -47q93 0 167 46t105 133h169q-33 -105 -105 -177t-165 -108.5t-189 -36.5zM296 599h528
q13 89 -5 160.5t-70 113t-140 41.5q-91 0 -157 -46.5t-105.5 -119t-50.5 -149.5zM352 1155l256 225h129l217 -225h-170l-120 130l-153 -130h-159zM851 1360l120 222h175l-180 -222h-115z" />
    <glyph glyph-name="uni1EC0" unicode="&#x1ec0;" horiz-adv-x="1202" 
d="M118 0l210 1446h865l-25 -163h-684l-68 -472h615l-23 -162h-615l-70 -482l704 -2l-25 -165h-884zM460 1567l256 225h129l217 -225h-170l-120 130l-153 -130h-159zM1024 1768l-144 223h169l85 -223h-110z" />
    <glyph glyph-name="uni1EC1" unicode="&#x1ec1;" horiz-adv-x="1073" 
d="M489 -20q-138 0 -233.5 63t-137 181t-17.5 283q23 163 94 286t182 192t254 69q139 0 226.5 -63t120.5 -177.5t10 -271.5l-9 -68h-701q-14 -98 5 -177.5t74.5 -126.5t149.5 -47q93 0 167 46t105 133h169q-33 -105 -105 -177t-165 -108.5t-189 -36.5zM296 599h528
q13 89 -5 160.5t-70 113t-140 41.5q-91 0 -157 -46.5t-105.5 -119t-50.5 -149.5zM339 1155l256 225h129l217 -225h-170l-120 130l-153 -130h-159zM903 1356l-144 223h169l85 -223h-110z" />
    <glyph glyph-name="uni1EC2" unicode="&#x1ec2;" horiz-adv-x="1202" 
d="M118 0l210 1446h865l-25 -163h-684l-68 -472h615l-23 -162h-615l-70 -482l704 -2l-25 -165h-884zM447 1567l256 225h129l217 -225h-170l-120 130l-153 -130h-159zM983 1698l-40 84q44 27 65.5 63.5t7.5 70.5q-14 32 -54 31.5t-83 -27.5l-39 84q89 55 164 44.5t105 -74.5
q36 -75 1.5 -148.5t-127.5 -127.5z" />
    <glyph glyph-name="uni1EC3" unicode="&#x1ec3;" horiz-adv-x="1088" 
d="M489 -20q-138 0 -233.5 63t-137 181t-17.5 283q23 163 94 286t182 192t254 69q139 0 226.5 -63t120.5 -177.5t10 -271.5l-9 -68h-701q-14 -98 5 -177.5t74.5 -126.5t149.5 -47q93 0 167 46t105 133h169q-33 -105 -105 -177t-165 -108.5t-189 -36.5zM296 599h528
q13 89 -5 160.5t-70 113t-140 41.5q-91 0 -157 -46.5t-105.5 -119t-50.5 -149.5zM335 1155l256 225h129l217 -225h-170l-120 130l-153 -130h-159zM871 1286l-40 84q44 27 65.5 63.5t7.5 70.5q-14 32 -54 31.5t-83 -27.5l-39 84q89 55 164 44.5t105 -74.5q36 -75 1.5 -148.5
t-127.5 -127.5z" />
    <glyph glyph-name="uni1EC4" unicode="&#x1ec4;" horiz-adv-x="1202" 
d="M118 0l210 1446h865l-25 -163h-684l-68 -472h615l-23 -162h-615l-70 -482l704 -2l-25 -165h-884zM468 1567l257 225h128l217 -225h-169l-120 130l-154 -130h-159zM542 1898l-19 101q37 32 76 54.5t94 22.5q47 0 86 -14t77 -28t80 -14t76 17t65 39l15 -115
q-28 -20 -71.5 -39.5t-102.5 -19.5q-50 0 -86 13t-70 26t-77 13q-48 0 -79 -16.5t-64 -39.5z" />
    <glyph glyph-name="uni1EC5" unicode="&#x1ec5;" horiz-adv-x="1088" 
d="M489 -20q-138 0 -233.5 63t-137 181t-17.5 283q23 163 94 286t182 192t254 69q139 0 226.5 -63t120.5 -177.5t10 -271.5l-9 -68h-701q-14 -98 5 -177.5t74.5 -126.5t149.5 -47q93 0 167 46t105 133h169q-33 -105 -105 -177t-165 -108.5t-189 -36.5zM296 599h528
q13 89 -5 160.5t-70 113t-140 41.5q-91 0 -157 -46.5t-105.5 -119t-50.5 -149.5zM356 1155l257 225h128l217 -225h-169l-120 130l-154 -130h-159zM430 1486l-19 101q37 32 76 54.5t94 22.5q47 0 86 -14t77 -28t80 -14t76 17t65 39l15 -115q-28 -20 -71.5 -39.5t-102.5 -19.5
q-50 0 -86 13t-70 26t-77 13q-48 0 -79 -16.5t-64 -39.5z" />
    <glyph glyph-name="uni1EC6" unicode="&#x1ec6;" horiz-adv-x="1202" 
d="M118 0l210 1446h865l-25 -163h-684l-68 -472h615l-23 -162h-615l-70 -482l704 -2l-25 -165h-884zM424 -359l26 179h181l-26 -179h-181zM457 1567l256 225h129l217 -225h-170l-120 130l-153 -130h-159z" />
    <glyph glyph-name="uni1EC7" unicode="&#x1ec7;" horiz-adv-x="1088" 
d="M489 -20q-138 0 -233.5 63t-137 181t-17.5 283q23 163 94 286t182 192t254 69q139 0 226.5 -63t120.5 -177.5t10 -271.5l-9 -68h-701q-14 -98 5 -177.5t74.5 -126.5t149.5 -47q93 0 167 46t105 133h169q-33 -105 -105 -177t-165 -108.5t-189 -36.5zM296 599h528
q13 89 -5 160.5t-70 113t-140 41.5q-91 0 -157 -46.5t-105.5 -119t-50.5 -149.5zM346 -359l26 179h181l-26 -179h-181zM345 1155l256 225h129l217 -225h-170l-120 130l-153 -130h-159z" />
    <glyph glyph-name="uni1EC8" unicode="&#x1ec8;" horiz-adv-x="569" 
d="M119 0l208 1446h181l-208 -1446h-181zM493 1543l-39 85q44 27 65 63t7 70q-14 33 -53.5 32.5t-82.5 -27.5l-40 84q89 55 164 44t105 -74q37 -76 2.5 -149t-128.5 -128z" />
    <glyph glyph-name="uni1EC9" unicode="&#x1ec9;" horiz-adv-x="486" 
d="M80 0l150 1034h181l-150 -1034h-181zM397 1131l-39 85q44 27 65 63t7 70q-14 33 -53.5 32.5t-82.5 -27.5l-40 84q89 55 164 44t105 -74q37 -76 2.5 -149t-128.5 -128z" />
    <glyph glyph-name="uni1ECA" unicode="&#x1eca;" horiz-adv-x="569" 
d="M119 0l208 1446h181l-208 -1446h-181zM77 -359l26 179h181l-26 -179h-181z" />
    <glyph glyph-name="uni1ECB" unicode="&#x1ecb;" horiz-adv-x="492" 
d="M85 0l146 1034h175l-145 -1034h-176zM257 1255l27 191h184l-26 -191h-185zM32 -359l26 179h181l-26 -179h-181z" />
    <glyph glyph-name="uni1ECC" unicode="&#x1ecc;" horiz-adv-x="1410" 
d="M628 -20q-185 0 -306 86.5t-168.5 251.5t-13.5 399q34 238 131 405.5t243.5 255.5t329.5 88q182 0 301.5 -87.5t167.5 -254.5t14 -404q-34 -235 -129.5 -400.5t-241 -252.5t-328.5 -87zM653 141q125 0 222 61t161.5 189t92.5 327q30 202 1.5 332t-107.5 192.5t-203 62.5
q-187 0 -312.5 -142.5t-169.5 -444.5q-28 -199 1 -326.5t109.5 -189t204.5 -61.5zM493 -359l26 179h181l-26 -179h-181z" />
    <glyph glyph-name="uni1ECD" unicode="&#x1ecd;" horiz-adv-x="1085" 
d="M470 -20q-136 0 -229 61.5t-132.5 180.5t-16.5 291q23 162 92 284t179.5 189.5t255.5 67.5q136 0 227.5 -62.5t130.5 -183.5t15 -295q-22 -158 -89.5 -278t-176.5 -187.5t-256 -67.5zM493 126q86 0 152.5 47t109.5 135t59 209q15 111 -0.5 199.5t-67.5 140.5t-148 52
q-89 0 -156 -46.5t-110 -134.5t-60 -211q-14 -109 1.5 -198t68.5 -141t151 -52zM310 -359l26 179h181l-26 -179h-181z" />
    <glyph glyph-name="uni1ECE" unicode="&#x1ece;" horiz-adv-x="1410" 
d="M628 -20q-185 0 -306 86.5t-168.5 251.5t-13.5 399q34 238 131 405.5t243.5 255.5t329.5 88q182 0 301.5 -87.5t167.5 -254.5t14 -404q-34 -235 -129.5 -400.5t-241 -252.5t-328.5 -87zM653 141q125 0 222 61t161.5 189t92.5 327q30 202 1.5 332t-107.5 192.5t-203 62.5
q-187 0 -312.5 -142.5t-169.5 -444.5q-28 -199 1 -326.5t109.5 -189t204.5 -61.5zM909 1543l-39 85q44 27 65 63t7 70q-14 33 -53.5 32.5t-82.5 -27.5l-40 84q89 55 164 44t105 -74q37 -76 2.5 -149t-128.5 -128z" />
    <glyph glyph-name="uni1ECF" unicode="&#x1ecf;" horiz-adv-x="1085" 
d="M470 -20q-136 0 -229 61.5t-132.5 180.5t-16.5 291q23 162 92 284t179.5 189.5t255.5 67.5q136 0 227.5 -62.5t130.5 -183.5t15 -295q-22 -158 -89.5 -278t-176.5 -187.5t-256 -67.5zM493 126q86 0 152.5 47t109.5 135t59 209q15 111 -0.5 199.5t-67.5 140.5t-148 52
q-89 0 -156 -46.5t-110 -134.5t-60 -211q-14 -109 1.5 -198t68.5 -141t151 -52zM668 1131l-39 85q44 27 65 63t7 70q-14 33 -53.5 32.5t-82.5 -27.5l-40 84q89 55 164 44t105 -74q37 -76 2.5 -149t-128.5 -128z" />
    <glyph glyph-name="uni1ED0" unicode="&#x1ed0;" horiz-adv-x="1410" 
d="M628 -20q-185 0 -306 86.5t-168.5 251.5t-13.5 399q34 238 131 405.5t243.5 255.5t329.5 88q182 0 301.5 -87.5t167.5 -254.5t14 -404q-34 -235 -129.5 -400.5t-241 -252.5t-328.5 -87zM653 141q125 0 222 61t161.5 189t92.5 327q30 202 1.5 332t-107.5 192.5t-203 62.5
q-187 0 -312.5 -142.5t-169.5 -444.5q-28 -199 1 -326.5t109.5 -189t204.5 -61.5zM558 1567l256 225h129l217 -225h-170l-120 130l-153 -130h-159zM1057 1772l120 222h175l-180 -222h-115z" />
    <glyph glyph-name="uni1ED1" unicode="&#x1ed1;" horiz-adv-x="1053" 
d="M470 -20q-136 0 -229 61.5t-132.5 180.5t-16.5 291q23 162 92 284t179.5 189.5t255.5 67.5q136 0 227.5 -62.5t130.5 -183.5t15 -295q-22 -158 -89.5 -278t-176.5 -187.5t-256 -67.5zM493 126q86 0 152.5 47t109.5 135t59 209q15 111 -0.5 199.5t-67.5 140.5t-148 52
q-89 0 -156 -46.5t-110 -134.5t-60 -211q-14 -109 1.5 -198t68.5 -141t151 -52zM311 1155l256 225h129l217 -225h-170l-120 130l-153 -130h-159zM810 1360l120 222h175l-180 -222h-115z" />
    <glyph glyph-name="uni1ED2" unicode="&#x1ed2;" horiz-adv-x="1410" 
d="M628 -20q-185 0 -306 86.5t-168.5 251.5t-13.5 399q34 238 131 405.5t243.5 255.5t329.5 88q182 0 301.5 -87.5t167.5 -254.5t14 -404q-34 -235 -129.5 -400.5t-241 -252.5t-328.5 -87zM653 141q125 0 222 61t161.5 189t92.5 327q30 202 1.5 332t-107.5 192.5t-203 62.5
q-187 0 -312.5 -142.5t-169.5 -444.5q-28 -199 1 -326.5t109.5 -189t204.5 -61.5zM554 1567l256 225h129l217 -225h-170l-120 130l-153 -130h-159zM1118 1768l-144 223h169l85 -223h-110z" />
    <glyph glyph-name="uni1ED3" unicode="&#x1ed3;" horiz-adv-x="1085" 
d="M470 -20q-136 0 -229 61.5t-132.5 180.5t-16.5 291q23 162 92 284t179.5 189.5t255.5 67.5q136 0 227.5 -62.5t130.5 -183.5t15 -295q-22 -158 -89.5 -278t-176.5 -187.5t-256 -67.5zM493 126q86 0 152.5 47t109.5 135t59 209q15 111 -0.5 199.5t-67.5 140.5t-148 52
q-89 0 -156 -46.5t-110 -134.5t-60 -211q-14 -109 1.5 -198t68.5 -141t151 -52zM314 1155l256 225h129l217 -225h-170l-120 130l-153 -130h-159zM878 1356l-144 223h169l85 -223h-110z" />
    <glyph glyph-name="uni1ED4" unicode="&#x1ed4;" horiz-adv-x="1410" 
d="M628 -20q-185 0 -306 86.5t-168.5 251.5t-13.5 399q34 238 131 405.5t243.5 255.5t329.5 88q182 0 301.5 -87.5t167.5 -254.5t14 -404q-34 -235 -129.5 -400.5t-241 -252.5t-328.5 -87zM653 141q125 0 222 61t161.5 189t92.5 327q30 202 1.5 332t-107.5 192.5t-203 62.5
q-187 0 -312.5 -142.5t-169.5 -444.5q-28 -199 1 -326.5t109.5 -189t204.5 -61.5zM541 1567l256 225h129l217 -225h-170l-120 130l-153 -130h-159zM1077 1698l-40 84q44 27 65.5 63.5t7.5 70.5q-14 32 -54 31.5t-83 -27.5l-39 84q89 55 164 44.5t105 -74.5
q36 -75 1.5 -148.5t-127.5 -127.5z" />
    <glyph glyph-name="uni1ED5" unicode="&#x1ed5;" horiz-adv-x="1085" 
d="M470 -20q-136 0 -229 61.5t-132.5 180.5t-16.5 291q23 162 92 284t179.5 189.5t255.5 67.5q136 0 227.5 -62.5t130.5 -183.5t15 -295q-22 -158 -89.5 -278t-176.5 -187.5t-256 -67.5zM493 126q86 0 152.5 47t109.5 135t59 209q15 111 -0.5 199.5t-67.5 140.5t-148 52
q-89 0 -156 -46.5t-110 -134.5t-60 -211q-14 -109 1.5 -198t68.5 -141t151 -52zM301 1155l256 225h129l217 -225h-170l-120 130l-153 -130h-159zM837 1286l-40 84q44 27 65.5 63.5t7.5 70.5q-14 32 -54 31.5t-83 -27.5l-39 84q89 55 164 44.5t105 -74.5q36 -75 1.5 -148.5
t-127.5 -127.5z" />
    <glyph glyph-name="uni1ED6" unicode="&#x1ed6;" horiz-adv-x="1410" 
d="M628 -20q-185 0 -306 86.5t-168.5 251.5t-13.5 399q34 238 131 405.5t243.5 255.5t329.5 88q182 0 301.5 -87.5t167.5 -254.5t14 -404q-34 -235 -129.5 -400.5t-241 -252.5t-328.5 -87zM653 141q125 0 222 61t161.5 189t92.5 327q30 202 1.5 332t-107.5 192.5t-203 62.5
q-187 0 -312.5 -142.5t-169.5 -444.5q-28 -199 1 -326.5t109.5 -189t204.5 -61.5zM563 1567l257 225h128l217 -225h-169l-120 130l-154 -130h-159zM637 1898l-19 101q37 32 76 54.5t94 22.5q47 0 86 -14t77 -28t80 -14t76 17t65 39l15 -115q-28 -20 -71.5 -39.5
t-102.5 -19.5q-50 0 -86 13t-70 26t-77 13q-48 0 -79 -16.5t-64 -39.5z" />
    <glyph glyph-name="uni1ED7" unicode="&#x1ed7;" horiz-adv-x="1085" 
d="M470 -20q-136 0 -229 61.5t-132.5 180.5t-16.5 291q23 162 92 284t179.5 189.5t255.5 67.5q136 0 227.5 -62.5t130.5 -183.5t15 -295q-22 -158 -89.5 -278t-176.5 -187.5t-256 -67.5zM493 126q86 0 152.5 47t109.5 135t59 209q15 111 -0.5 199.5t-67.5 140.5t-148 52
q-89 0 -156 -46.5t-110 -134.5t-60 -211q-14 -109 1.5 -198t68.5 -141t151 -52zM322 1155l257 225h128l217 -225h-169l-120 130l-154 -130h-159zM396 1486l-19 101q37 32 76 54.5t94 22.5q47 0 86 -14t77 -28t80 -14t76 17t65 39l15 -115q-28 -20 -71.5 -39.5t-102.5 -19.5
q-50 0 -86 13t-70 26t-77 13q-48 0 -79 -16.5t-64 -39.5z" />
    <glyph glyph-name="uni1ED8" unicode="&#x1ed8;" horiz-adv-x="1410" 
d="M628 -20q-185 0 -306 86.5t-168.5 251.5t-13.5 399q34 238 131 405.5t243.5 255.5t329.5 88q182 0 301.5 -87.5t167.5 -254.5t14 -404q-34 -235 -129.5 -400.5t-241 -252.5t-328.5 -87zM653 141q125 0 222 61t161.5 189t92.5 327q30 202 1.5 332t-107.5 192.5t-203 62.5
q-187 0 -312.5 -142.5t-169.5 -444.5q-28 -199 1 -326.5t109.5 -189t204.5 -61.5zM493 -359l26 179h181l-26 -179h-181zM552 1567l256 225h129l217 -225h-170l-120 130l-153 -130h-159z" />
    <glyph glyph-name="uni1ED9" unicode="&#x1ed9;" horiz-adv-x="1085" 
d="M470 -20q-136 0 -229 61.5t-132.5 180.5t-16.5 291q23 162 92 284t179.5 189.5t255.5 67.5q136 0 227.5 -62.5t130.5 -183.5t15 -295q-22 -158 -89.5 -278t-176.5 -187.5t-256 -67.5zM493 126q86 0 152.5 47t109.5 135t59 209q15 111 -0.5 199.5t-67.5 140.5t-148 52
q-89 0 -156 -46.5t-110 -134.5t-60 -211q-14 -109 1.5 -198t68.5 -141t151 -52zM310 -359l26 179h181l-26 -179h-181zM311 1155l256 225h129l217 -225h-170l-120 130l-153 -130h-159z" />
    <glyph glyph-name="uni1EDA" unicode="&#x1eda;" horiz-adv-x="1527" 
d="M628 -20q-185 0 -306 86.5t-168.5 251.5t-13.5 399q34 238 131 405.5t243.5 255.5t329.5 88q133 0 233.5 -47.5t163.5 -138.5q53 0 88 14t58 56.5t40 127.5h137q-15 -102 -47 -169.5t-85 -102t-133 -38.5q33 -87 40.5 -199.5t-12.5 -248.5q-34 -235 -129.5 -400.5
t-241 -252.5t-328.5 -87zM653 141q125 0 222 61t161.5 189t92.5 327q30 202 1.5 332t-107.5 192.5t-203 62.5q-187 0 -312.5 -142.5t-169.5 -444.5q-28 -199 1 -326.5t109.5 -189t204.5 -61.5zM765 1567l235 291h207l-300 -291h-142z" />
    <glyph glyph-name="uni1EDB" unicode="&#x1edb;" horiz-adv-x="1173" 
d="M555 1155l235 291h207l-300 -291h-142zM470 -20q-136 0 -229 61.5t-132.5 180.5t-16.5 291q23 162 92 284t179.5 189.5t255.5 67.5q100 0 177.5 -35t126.5 -101q63 3 98 44t56 151h137q-21 -144 -77.5 -219.5t-160.5 -87.5q19 -58 23.5 -131t-7.5 -162
q-22 -158 -89.5 -278t-176.5 -187.5t-256 -67.5zM493 126q86 0 152.5 47t109.5 135t59 209q15 111 -0.5 199.5t-67.5 140.5t-148 52q-89 0 -156 -46.5t-110 -134.5t-60 -211q-14 -109 1.5 -198t68.5 -141t151 -52z" />
    <glyph glyph-name="uni1EDC" unicode="&#x1edc;" horiz-adv-x="1527" 
d="M628 -20q-185 0 -306 86.5t-168.5 251.5t-13.5 399q34 238 131 405.5t243.5 255.5t329.5 88q133 0 233.5 -47.5t163.5 -138.5q53 0 88 14t58 56.5t40 127.5h137q-15 -102 -47 -169.5t-85 -102t-133 -38.5q33 -87 40.5 -199.5t-12.5 -248.5q-34 -235 -129.5 -400.5
t-241 -252.5t-328.5 -87zM653 141q125 0 222 61t161.5 189t92.5 327q30 202 1.5 332t-107.5 192.5t-203 62.5q-187 0 -312.5 -142.5t-169.5 -444.5q-28 -199 1 -326.5t109.5 -189t204.5 -61.5zM785 1567l-254 291h201l189 -291h-136z" />
    <glyph glyph-name="uni1EDD" unicode="&#x1edd;" horiz-adv-x="1188" 
d="M571 1155l-254 291h201l189 -291h-136zM485 -20q-136 0 -229 61.5t-132.5 180.5t-16.5 291q23 162 92 284t179.5 189.5t255.5 67.5q100 0 177.5 -35t126.5 -101q63 3 98 44t56 151h137q-21 -144 -77.5 -219.5t-160.5 -87.5q19 -58 23.5 -131t-7.5 -162
q-22 -158 -89.5 -278t-176.5 -187.5t-256 -67.5zM508 126q86 0 152.5 47t109.5 135t59 209q15 111 -0.5 199.5t-67.5 140.5t-148 52q-89 0 -156 -46.5t-110 -134.5t-60 -211q-14 -109 1.5 -198t68.5 -141t151 -52z" />
    <glyph glyph-name="uni1EDE" unicode="&#x1ede;" horiz-adv-x="1527" 
d="M628 -20q-185 0 -306 86.5t-168.5 251.5t-13.5 399q34 238 131 405.5t243.5 255.5t329.5 88q133 0 233.5 -47.5t163.5 -138.5q53 0 88 14t58 56.5t40 127.5h137q-15 -102 -47 -169.5t-85 -102t-133 -38.5q33 -87 40.5 -199.5t-12.5 -248.5q-34 -235 -129.5 -400.5
t-241 -252.5t-328.5 -87zM653 141q125 0 222 61t161.5 189t92.5 327q30 202 1.5 332t-107.5 192.5t-203 62.5q-187 0 -312.5 -142.5t-169.5 -444.5q-28 -199 1 -326.5t109.5 -189t204.5 -61.5zM909 1543l-39 85q44 27 65 63t7 70q-14 33 -53.5 32.5t-82.5 -27.5l-40 84
q89 55 164 44t105 -74q37 -76 2.5 -149t-128.5 -128z" />
    <glyph glyph-name="uni1EDF" unicode="&#x1edf;" horiz-adv-x="1173" 
d="M685 1131l-39 85q44 27 65 63t7 70q-14 33 -53.5 32.5t-82.5 -27.5l-40 84q89 55 164 44t105 -74q37 -76 2.5 -149t-128.5 -128zM470 -20q-136 0 -229 61.5t-132.5 180.5t-16.5 291q23 162 92 284t179.5 189.5t255.5 67.5q100 0 177.5 -35t126.5 -101q63 3 98 44t56 151
h137q-21 -144 -77.5 -219.5t-160.5 -87.5q19 -58 23.5 -131t-7.5 -162q-22 -158 -89.5 -278t-176.5 -187.5t-256 -67.5zM493 126q86 0 152.5 47t109.5 135t59 209q15 111 -0.5 199.5t-67.5 140.5t-148 52q-89 0 -156 -46.5t-110 -134.5t-60 -211q-14 -109 1.5 -198
t68.5 -141t151 -52z" />
    <glyph glyph-name="uni1EE0" unicode="&#x1ee0;" horiz-adv-x="1527" 
d="M628 -20q-185 0 -306 86.5t-168.5 251.5t-13.5 399q34 238 131 405.5t243.5 255.5t329.5 88q133 0 233.5 -47.5t163.5 -138.5q53 0 88 14t58 56.5t40 127.5h137q-15 -102 -47 -169.5t-85 -102t-133 -38.5q33 -87 40.5 -199.5t-12.5 -248.5q-34 -235 -129.5 -400.5
t-241 -252.5t-328.5 -87zM653 141q125 0 222 61t161.5 189t92.5 327q30 202 1.5 332t-107.5 192.5t-203 62.5q-187 0 -312.5 -142.5t-169.5 -444.5q-28 -199 1 -326.5t109.5 -189t204.5 -61.5zM612 1635l-18 100q37 33 76 55t94 22q46 0 85.5 -14t77 -27.5t79.5 -13.5
q43 0 76.5 17t64.5 38l15 -115q-27 -19 -70.5 -38.5t-103.5 -19.5q-50 0 -86 13t-70 26t-77 13q-47 0 -78 -16.5t-65 -39.5z" />
    <glyph glyph-name="uni1EE1" unicode="&#x1ee1;" horiz-adv-x="1173" 
d="M389 1223l-18 100q37 33 76 55t94 22q46 0 85.5 -14t77 -27.5t79.5 -13.5q43 0 76.5 17t64.5 38l15 -115q-27 -19 -70.5 -38.5t-103.5 -19.5q-50 0 -86 13t-70 26t-77 13q-47 0 -78 -16.5t-65 -39.5zM470 -20q-136 0 -229 61.5t-132.5 180.5t-16.5 291q23 162 92 284
t179.5 189.5t255.5 67.5q100 0 177.5 -35t126.5 -101q63 3 98 44t56 151h137q-21 -144 -77.5 -219.5t-160.5 -87.5q19 -58 23.5 -131t-7.5 -162q-22 -158 -89.5 -278t-176.5 -187.5t-256 -67.5zM493 126q86 0 152.5 47t109.5 135t59 209q15 111 -0.5 199.5t-67.5 140.5
t-148 52q-89 0 -156 -46.5t-110 -134.5t-60 -211q-14 -109 1.5 -198t68.5 -141t151 -52z" />
    <glyph glyph-name="uni1EE2" unicode="&#x1ee2;" horiz-adv-x="1527" 
d="M628 -20q-185 0 -306 86.5t-168.5 251.5t-13.5 399q34 238 131 405.5t243.5 255.5t329.5 88q133 0 233.5 -47.5t163.5 -138.5q53 0 88 14t58 56.5t40 127.5h137q-15 -102 -47 -169.5t-85 -102t-133 -38.5q33 -87 40.5 -199.5t-12.5 -248.5q-34 -235 -129.5 -400.5
t-241 -252.5t-328.5 -87zM653 141q125 0 222 61t161.5 189t92.5 327q30 202 1.5 332t-107.5 192.5t-203 62.5q-187 0 -312.5 -142.5t-169.5 -444.5q-28 -199 1 -326.5t109.5 -189t204.5 -61.5zM493 -359l26 179h181l-26 -179h-181z" />
    <glyph glyph-name="uni1EE3" unicode="&#x1ee3;" horiz-adv-x="1173" 
d="M312 -359l26 179h181l-26 -179h-181zM470 -20q-136 0 -229 61.5t-132.5 180.5t-16.5 291q23 162 92 284t179.5 189.5t255.5 67.5q100 0 177.5 -35t126.5 -101q63 3 98 44t56 151h137q-21 -144 -77.5 -219.5t-160.5 -87.5q19 -58 23.5 -131t-7.5 -162q-22 -158 -89.5 -278
t-176.5 -187.5t-256 -67.5zM493 126q86 0 152.5 47t109.5 135t59 209q15 111 -0.5 199.5t-67.5 140.5t-148 52q-89 0 -156 -46.5t-110 -134.5t-60 -211q-14 -109 1.5 -198t68.5 -141t151 -52z" />
    <glyph glyph-name="uni1EE4" unicode="&#x1ee4;" horiz-adv-x="1351" 
d="M615 -20q-179 0 -280.5 62t-135 182t-8.5 295l134 927h186l-137 -955q-17 -117 8.5 -194.5t90.5 -116t166 -38.5q152 0 249 86t122 263l137 955h181l-135 -946q-24 -167 -93 -283t-188.5 -176.5t-296.5 -60.5zM475 -356l26 179h181l-26 -179h-181z" />
    <glyph glyph-name="uni1EE5" unicode="&#x1ee5;" horiz-adv-x="1124" 
d="M439 -20q-76 1 -141 23.5t-111.5 66.5t-67 109.5t-8.5 152.5l98 702h182l-96 -683q-15 -101 35 -164t168 -63q108 0 181 59.5t90 177.5l95 673h180l-146 -1034h-142l8 198q-28 -78 -78.5 -126t-114 -70.5t-132.5 -21.5zM338 -359l26 179h181l-26 -179h-181z" />
    <glyph glyph-name="uni1EE6" unicode="&#x1ee6;" horiz-adv-x="1351" 
d="M615 -20q-179 0 -280.5 62t-135 182t-8.5 295l134 927h186l-137 -955q-17 -117 8.5 -194.5t90.5 -116t166 -38.5q152 0 249 86t122 263l137 955h181l-135 -946q-24 -167 -93 -283t-188.5 -176.5t-296.5 -60.5zM901 1543l-39 85q44 27 65 63t7 70q-14 33 -53.5 32.5
t-82.5 -27.5l-40 84q89 55 164 44t105 -74q37 -76 2.5 -149t-128.5 -128z" />
    <glyph glyph-name="uni1EE7" unicode="&#x1ee7;" horiz-adv-x="1124" 
d="M439 -20q-76 1 -141 23.5t-111.5 66.5t-67 109.5t-8.5 152.5l98 702h182l-96 -683q-15 -101 35 -164t168 -63q108 0 181 59.5t90 177.5l95 673h180l-146 -1034h-142l8 198q-28 -78 -78.5 -126t-114 -70.5t-132.5 -21.5zM700 1131l-39 85q44 27 65 63t7 70
q-14 33 -53.5 32.5t-82.5 -27.5l-40 84q89 55 164 44t105 -74q37 -76 2.5 -149t-128.5 -128z" />
    <glyph glyph-name="uni1EE8" unicode="&#x1ee8;" horiz-adv-x="1555" 
d="M1245 1171l16 109q43 -1 75 5t55 26t39.5 59.5t29.5 106.5h138q-18 -118 -58.5 -190t-112 -100.5t-182.5 -15.5zM615 -20q-179 0 -280.5 62t-135 182t-8.5 295l134 927h186l-137 -955q-17 -117 8.5 -194.5t90.5 -116t166 -38.5q152 0 249 86t122 263l137 955h181
l-135 -946q-24 -167 -93 -283t-188.5 -176.5t-296.5 -60.5zM768 1567l235 291h207l-300 -291h-142z" />
    <glyph glyph-name="uni1EE9" unicode="&#x1ee9;" horiz-adv-x="1241" 
d="M964 807l17 109q43 -1 75 5t55 26t39.5 60t29.5 106h138q-18 -118 -58.5 -190t-112 -100.5t-183.5 -15.5zM439 -20q-76 1 -141 23.5t-111 66.5t-67 109.5t-8 152.5l98 702h182l-97 -683q-14 -101 35.5 -164t168.5 -63q108 0 181 59.5t89 177.5l95 673h180l-145 -1034
h-143l9 198q-29 -78 -79 -126t-113.5 -70.5t-133.5 -21.5zM568 1155l235 291h208l-301 -291h-142z" />
    <glyph glyph-name="uni1EEA" unicode="&#x1eea;" horiz-adv-x="1555" 
d="M1245 1171l16 109q43 -1 75 5t55 26t39.5 59.5t29.5 106.5h138q-18 -118 -58.5 -190t-112 -100.5t-182.5 -15.5zM615 -20q-179 0 -280.5 62t-135 182t-8.5 295l134 927h186l-137 -955q-17 -117 8.5 -194.5t90.5 -116t166 -38.5q152 0 249 86t122 263l137 955h181
l-135 -946q-24 -167 -93 -283t-188.5 -176.5t-296.5 -60.5zM775 1567l-254 291h201l189 -291h-136z" />
    <glyph glyph-name="uni1EEB" unicode="&#x1eeb;" horiz-adv-x="1261" 
d="M591 1155l-254 291h201l189 -291h-136zM449 -20q-76 1 -141 23.5t-111.5 66.5t-67 109.5t-7.5 152.5l98 702h182l-97 -683q-14 -101 35.5 -164t168.5 -63q108 0 181 59.5t89 177.5l95 673h180l-16 -118q44 2 75 19t51.5 58.5t35.5 119.5h137q-16 -111 -53 -181.5
t-100.5 -102t-161.5 -25.5l-113 -804h-143l9 198q-29 -78 -79 -126t-113.5 -70.5t-133.5 -21.5z" />
    <glyph glyph-name="uni1EEC" unicode="&#x1eec;" horiz-adv-x="1555" 
d="M1245 1171l16 109q43 -1 75 5t55 26t39.5 59.5t29.5 106.5h138q-18 -118 -58.5 -190t-112 -100.5t-182.5 -15.5zM615 -20q-179 0 -280.5 62t-135 182t-8.5 295l134 927h186l-137 -955q-17 -117 8.5 -194.5t90.5 -116t166 -38.5q152 0 249 86t122 263l137 955h181
l-135 -946q-24 -167 -93 -283t-188.5 -176.5t-296.5 -60.5zM898 1544l-39 84q44 28 65 64t7 70q-14 33 -53.5 32.5t-82.5 -27.5l-40 84q89 54 164 43.5t105 -74.5q36 -75 1.5 -148.5t-127.5 -127.5z" />
    <glyph glyph-name="uni1EED" unicode="&#x1eed;" horiz-adv-x="1251" 
d="M711 1131l-39 85q44 27 65 63t7 70q-14 33 -53.5 32.5t-82.5 -27.5l-40 84q89 55 164 44t105 -74q37 -76 2.5 -149t-128.5 -128zM439 -20q-76 1 -141 23.5t-111.5 66.5t-67 109.5t-7.5 152.5l98 702h182l-97 -683q-14 -101 35.5 -164t168.5 -63q108 0 181 59.5t89 177.5
l95 673h180l-16 -118q44 2 75 19t51.5 58.5t35.5 119.5h137q-16 -111 -53 -181.5t-100.5 -102t-161.5 -25.5l-113 -804h-143l9 198q-29 -78 -79 -126t-113.5 -70.5t-133.5 -21.5z" />
    <glyph glyph-name="uni1EEE" unicode="&#x1eee;" horiz-adv-x="1551" 
d="M1245 1171l16 109q43 -1 75 5t55 26t39.5 59.5t29.5 106.5h138q-18 -118 -58.5 -190t-112 -100.5t-182.5 -15.5zM615 -20q-179 0 -280.5 62t-135 182t-8.5 295l134 927h186l-137 -955q-17 -117 8.5 -194.5t90.5 -116t166 -38.5q152 0 249 86t122 263l137 955h181
l-135 -946q-24 -167 -93 -283t-188.5 -176.5t-296.5 -60.5zM603 1635l-19 100q37 33 76 55t94 22q47 0 86 -14t77 -27.5t80 -13.5t76 17t65 38l15 -115q-28 -19 -71.5 -38.5t-102.5 -19.5q-51 0 -86.5 13t-69.5 26t-78 13q-47 0 -78 -16.5t-64 -39.5z" />
    <glyph glyph-name="uni1EEF" unicode="&#x1eef;" horiz-adv-x="1251" 
d="M414 1223l-18 100q37 33 76 55t94 22q46 0 85.5 -14t77 -27.5t79.5 -13.5q43 0 76.5 17t64.5 38l15 -115q-27 -19 -70.5 -38.5t-103.5 -19.5q-50 0 -86 13t-70 26t-77 13q-47 0 -78 -16.5t-65 -39.5zM439 -20q-76 1 -141 23.5t-111.5 66.5t-67 109.5t-7.5 152.5l98 702
h182l-97 -683q-14 -101 35.5 -164t168.5 -63q108 0 181 59.5t89 177.5l95 673h180l-16 -118q44 2 75 19t51.5 58.5t35.5 119.5h137q-16 -111 -53 -181.5t-100.5 -102t-161.5 -25.5l-113 -804h-143l9 198q-29 -78 -79 -126t-113.5 -70.5t-133.5 -21.5z" />
    <glyph glyph-name="uni1EF0" unicode="&#x1ef0;" horiz-adv-x="1555" 
d="M1245 1171l16 109q43 -1 75 5t55 26t39.5 59.5t29.5 106.5h138q-18 -118 -58.5 -190t-112 -100.5t-182.5 -15.5zM615 -20q-179 0 -280.5 62t-135 182t-8.5 295l134 927h186l-137 -955q-17 -117 8.5 -194.5t90.5 -116t166 -38.5q152 0 249 86t122 263l137 955h181
l-135 -946q-24 -167 -93 -283t-188.5 -176.5t-296.5 -60.5zM464 -356l25 179h181l-25 -179h-181z" />
    <glyph glyph-name="uni1EF1" unicode="&#x1ef1;" horiz-adv-x="1251" 
d="M340 -359l26 179h181l-26 -179h-181zM439 -20q-76 1 -141 23.5t-111.5 66.5t-67 109.5t-7.5 152.5l98 702h182l-97 -683q-14 -101 35.5 -164t168.5 -63q108 0 181 59.5t89 177.5l95 673h180l-16 -118q44 2 75 19t51.5 58.5t35.5 119.5h137q-16 -111 -53 -181.5
t-100.5 -102t-161.5 -25.5l-113 -804h-143l9 198q-29 -78 -79 -126t-113.5 -70.5t-133.5 -21.5z" />
    <glyph glyph-name="Ygrave" unicode="&#x1ef2;" horiz-adv-x="1158" 
d="M413 0l87 616l-345 830h196l265 -665l451 665h198l-584 -831l-89 -615h-179zM653 1570l-254 291h201l189 -291h-136z" />
    <glyph glyph-name="ygrave" unicode="&#x1ef3;" horiz-adv-x="1021" 
d="M123 -330q-86 0 -117 13l-31 13l17 120l101 -2q73 -3 115.5 15t65 45t35.5 53l48 98l-237 1009h182l171 -798l398 798h176l-570 -1112q-53 -98 -109 -153t-116.5 -77t-128.5 -22zM533 1155l-254 291h201l189 -291h-136z" />
    <glyph glyph-name="uni1EF4" unicode="&#x1ef4;" horiz-adv-x="1158" 
d="M413 0l87 616l-345 830h196l265 -665l451 665h198l-584 -831l-89 -615h-179zM362 -359l26 179h181l-26 -179h-181z" />
    <glyph glyph-name="uni1EF5" unicode="&#x1ef5;" horiz-adv-x="1021" 
d="M123 -330q-86 0 -117 13l-31 13l17 120l101 -2q73 -3 115.5 15t65 45t35.5 53l48 98l-237 1009h182l171 -798l398 798h176l-570 -1112q-53 -98 -109 -153t-116.5 -77t-128.5 -22zM577 -347l26 179h181l-26 -179h-181z" />
    <glyph glyph-name="uni1EF6" unicode="&#x1ef6;" horiz-adv-x="1158" 
d="M413 0l87 616l-345 830h196l265 -665l451 665h198l-584 -831l-89 -615h-179zM777 1546l-39 85q44 27 65 63t7 70q-14 33 -53.5 32.5t-82.5 -27.5l-40 84q89 55 164 44t105 -74q37 -76 2.5 -149t-128.5 -128z" />
    <glyph glyph-name="uni1EF7" unicode="&#x1ef7;" horiz-adv-x="1021" 
d="M123 -330q-86 0 -117 13l-31 13l17 120l101 -2q73 -3 115.5 15t65 45t35.5 53l48 98l-237 1009h182l171 -798l398 798h176l-570 -1112q-53 -98 -109 -153t-116.5 -77t-128.5 -22zM657 1131l-39 85q44 27 65 63t7 70q-14 33 -53.5 32.5t-82.5 -27.5l-40 84q89 55 164 44
t105 -74q37 -76 2.5 -149t-128.5 -128z" />
    <glyph glyph-name="uni1EF8" unicode="&#x1ef8;" horiz-adv-x="1158" 
d="M413 0l87 616l-345 830h196l265 -665l451 665h198l-584 -831l-89 -615h-179zM480 1638l-18 100q37 33 76 55t94 22q46 0 85.5 -14t77 -27.5t79.5 -13.5q43 0 76.5 17t64.5 38l15 -115q-27 -19 -70.5 -38.5t-103.5 -19.5q-50 0 -86 13t-70 26t-77 13q-47 0 -78 -16.5
t-65 -39.5z" />
    <glyph glyph-name="uni1EF9" unicode="&#x1ef9;" horiz-adv-x="1021" 
d="M123 -330q-86 0 -117 13l-31 13l17 120l101 -2q73 -3 115.5 15t65 45t35.5 53l48 98l-237 1009h182l171 -798l398 798h176l-570 -1112q-53 -98 -109 -153t-116.5 -77t-128.5 -22zM359 1223l-18 100q37 33 76 55t94 22q46 0 85.5 -14t77 -27.5t79.5 -13.5q43 0 76.5 17
t64.5 38l15 -115q-27 -19 -70.5 -38.5t-103.5 -19.5q-50 0 -86 13t-70 26t-77 13q-47 0 -78 -16.5t-65 -39.5z" />
    <glyph glyph-name="endash" unicode="&#x2013;" horiz-adv-x="1069" 
d="M112 428l21 146l820 1l-21 -145z" />
    <glyph glyph-name="emdash" unicode="&#x2014;" horiz-adv-x="2234" 
d="M358 428l21 146l1493 1l-21 -145z" />
    <glyph glyph-name="quoteleft" unicode="&#x2018;" horiz-adv-x="479" 
d="M175 1013l29 193l209 281h86l-146 -249l85 -5l-33 -220h-230z" />
    <glyph glyph-name="quoteright" unicode="&#x2019;" horiz-adv-x="464" 
d="M164 974l146 248l-85 5l33 219h230l-29 -192l-209 -280h-86z" />
    <glyph glyph-name="quotesinglbase" unicode="&#x201a;" horiz-adv-x="484" 
d="M-21 -249l143 246l-84 5l32 221h232l-27 -192l-209 -280h-87z" />
    <glyph glyph-name="quotedblleft" unicode="&#x201c;" horiz-adv-x="845" 
d="M540 1003l28 194l210 283h86l-146 -251l84 -5l-32 -221h-230zM174 1003l29 194l209 283h86l-146 -251l85 -5l-33 -221h-230z" />
    <glyph glyph-name="quotedblright" unicode="&#x201d;" horiz-adv-x="820" 
d="M520 974l146 248l-85 5l33 219h230l-29 -192l-209 -280h-86zM164 974l146 248l-85 5l33 219h230l-29 -192l-209 -280h-86z" />
    <glyph glyph-name="quotedblbase" unicode="&#x201e;" horiz-adv-x="852" 
d="M347 -249l143 246l-84 5l32 221h232l-27 -192l-209 -280h-87zM-21 -249l143 246l-84 5l32 221h232l-27 -192l-209 -280h-87z" />
    <glyph glyph-name="dagger" unicode="&#x2020;" horiz-adv-x="873" 
d="M219 -322l197 1123l-348 -27l25 173l333 -24l46 523h189l-106 -523l341 24l-27 -173l-340 27l-124 -1123h-186z" />
    <glyph glyph-name="daggerdbl" unicode="&#x2021;" horiz-adv-x="876" 
d="M221 -322l102 510l-342 -25l27 175l339 -28l68 477l-346 -27l24 173l334 -24l49 537h187l-107 -537l340 24l-26 -173l-338 27l-68 -477l347 28l-27 -175l-333 25l-42 -510h-188z" />
    <glyph glyph-name="bullet" unicode="&#x2022;" horiz-adv-x="637" 
d="M344 539q-54 0 -98.5 26.5t-70.5 71.5t-26 99t26 98.5t70.5 70.5t98.5 26t98.5 -26t71 -70.5t26.5 -98.5t-26.5 -99t-71 -71.5t-98.5 -26.5z" />
    <glyph glyph-name="ellipsis" unicode="&#x2026;" horiz-adv-x="1529" 
d="M1122 0l35 236h213l-35 -236h-213zM37 0l35 236h213l-35 -236h-213zM580 0l35 236h213l-35 -236h-213z" />
    <glyph glyph-name="perthousand" unicode="&#x2030;" horiz-adv-x="2419" 
d="M349 -8l-118 1l1135 1469h117zM440 643q-80 0 -139.5 40t-92.5 112t-33 169q0 77 22.5 164.5t69.5 164.5t119 126t169 49q79 0 138 -40t91.5 -112.5t32.5 -169.5q0 -82 -23.5 -170t-71 -164t-118 -122.5t-164.5 -46.5zM452 746q65 0 110 42.5t72 107t40 133t13 122.5
q0 98 -34.5 156t-113.5 58q-63 0 -107.5 -42t-73 -107t-41.5 -133.5t-13 -120.5q0 -98 34.5 -157t113.5 -59zM1178 -20q-79 0 -138.5 40t-92.5 112t-33 169q0 85 24.5 173.5t73 163.5t119.5 121.5t163 46.5q79 0 138 -40t91.5 -112.5t32.5 -169.5q0 -82 -23.5 -170.5
t-71 -164t-118 -122.5t-165.5 -47zM1191 84q64 0 109 42t72.5 106.5t40 133t12.5 122.5q0 98 -34 156.5t-113 58.5q-63 0 -107.5 -42.5t-72.5 -107.5t-41 -133.5t-13 -120.5q0 -97 34 -156t113 -59zM1917 -20q-80 0 -139.5 40t-92.5 112t-33 169q0 84 24.5 173t73 164
t119.5 121.5t163 46.5q79 0 138 -40t91.5 -112.5t32.5 -169.5q0 -82 -23.5 -170.5t-71 -164t-118 -122.5t-164.5 -47zM1929 84q64 0 109 42.5t72 107t40 133.5t13 122q0 98 -34.5 156t-112.5 58q-63 0 -107.5 -42.5t-72.5 -107t-41 -133t-13 -120.5q0 -98 33.5 -157
t113.5 -59z" />
    <glyph glyph-name="guilsinglleft" unicode="&#x2039;" horiz-adv-x="539" 
d="M272 140l-193 362l302 378h101l-243 -378l135 -362h-102z" />
    <glyph glyph-name="guilsinglright" unicode="&#x203a;" horiz-adv-x="538" 
d="M57 140l239 362l-135 378h102l192 -378l-300 -362h-98z" />
    <glyph glyph-name="fraction" unicode="&#x2044;" horiz-adv-x="412" 
d="M-268 -8l-119 1l1135 1469h117z" />
    <glyph glyph-name="uni2070" unicode="&#x2070;" horiz-adv-x="726" 
d="M368 752q-143 0 -209.5 117.5t-34.5 347.5q33 233 134 352t242 119q142 0 209.5 -118t34.5 -351q-33 -231 -133 -349t-243 -118zM383 853q92 0 151 85.5t87 280.5q27 197 -8.5 284t-126.5 87q-90 0 -151.5 -87.5t-89.5 -283.5q-27 -194 10 -280t128 -86z" />
    <glyph glyph-name="uni2074" unicode="&#x2074;" horiz-adv-x="749" 
d="M454 760l34 232h-405l16 107l482 571h115l-82 -575h141l-14 -103h-143l-33 -232h-111zM207 1095h294l60 422z" />
    <glyph glyph-name="uni2075" unicode="&#x2075;" horiz-adv-x="759" 
d="M396 746q-120 0 -202.5 65t-102.5 168l104 43q21 -78 71.5 -127.5t136.5 -49.5q91 0 154.5 56t76.5 153q13 91 -36.5 145.5t-129.5 54.5q-52 0 -97.5 -16t-101.5 -73q-5 -2 -7 -2t-6 3l-90 30l105 474h519l-17 -101h-419l-63 -294q49 42 102.5 60t112.5 18
q79 0 140 -33.5t92.5 -99.5t17.5 -162q-20 -142 -118 -227t-242 -85z" />
    <glyph glyph-name="uni2076" unicode="&#x2076;" horiz-adv-x="738" 
d="M390 756q-153 0 -225 121t-42 334q31 220 136.5 350.5t270.5 130.5q73 0 130 -28t90 -81t32 -127h-107q-8 63 -48.5 101t-108.5 38q-113 0 -184 -101t-87 -293q35 69 101 111.5t142 42.5q129 0 196.5 -77t48.5 -211q-12 -91 -59 -161t-120.5 -110t-165.5 -40zM402 852
q79 0 138 58t72 151q14 94 -26.5 146.5t-127.5 52.5q-47 0 -93 -23t-78.5 -61.5t-38.5 -85.5q-17 -104 26 -171t128 -67z" />
    <glyph glyph-name="uni2077" unicode="&#x2077;" horiz-adv-x="678" 
d="M203 760q24 83 82.5 216t149 288.5t210.5 304.5h-481l15 101h607l-17 -101q-68 -83 -139 -192.5t-133.5 -224t-108 -217.5t-62.5 -175h-123z" />
    <glyph glyph-name="uni2078" unicode="&#x2078;" horiz-adv-x="787" 
d="M399 754q-150 0 -230 71t-64 189q8 54 40 102.5t77 82t89 42.5q-55 26 -86.5 76t-21.5 125q17 119 110 183.5t218 64.5t199.5 -64.5t57.5 -183.5q-10 -75 -55 -125t-109 -76q43 -9 78 -42.5t54 -82t11 -102.5q-16 -118 -116.5 -189t-251.5 -71zM412 848q96 0 159 45.5
t73 121.5q11 75 -38.5 123.5t-145.5 48.5q-94 0 -158 -48.5t-75 -123.5q-10 -76 40.5 -121.5t144.5 -45.5zM474 1290q79 0 133.5 41t64.5 114t-33 115.5t-121 42.5q-76 0 -131.5 -43t-65.5 -115q-11 -73 32.5 -114t120.5 -41z" />
    <glyph glyph-name="uni2079" unicode="&#x2079;" horiz-adv-x="720" 
d="M350 756q-72 0 -130.5 28.5t-92.5 82t-33 126.5h111q6 -63 47 -101.5t108 -38.5q114 0 191 96t97 302q-32 -72 -99 -116.5t-148 -44.5q-128 0 -198 77.5t-51 214.5q13 91 59 161t119 109.5t166 39.5q151 0 223.5 -120.5t41.5 -333.5q-32 -229 -139 -355.5t-272 -126.5z
M427 1189q48 0 94 23t78 62t39 84q15 105 -27 172t-127 67q-79 0 -136.5 -58t-70.5 -152q-13 -91 25 -144.5t125 -53.5z" />
    <glyph glyph-name="colonmonetary" unicode="&#x20a1;" horiz-adv-x="1332" 
d="M623 -20q-176 0 -292 81.5t-165 237t-28 377.5q15 176 67 321t139 250t208 162t276 57q144 0 247 -62t157 -167.5t52 -236.5h-192q-4 85 -37 154t-96 110t-160 41q-106 0 -186.5 -46t-137.5 -130.5t-91.5 -201t-48.5 -257.5q-28 -271 50.5 -400t256.5 -129q96 0 170.5 43
t126.5 115t79 156h193q-24 -92 -72.5 -177.5t-121.5 -152.5t-171 -106t-223 -39zM411 -122l320 1682h101l-320 -1682h-101zM629 -122l320 1682h101l-320 -1682h-101z" />
    <glyph glyph-name="franc" unicode="&#x20a3;" horiz-adv-x="1163" 
d="M87 0l209 1446h898l-25 -160h-692l-72 -499h578l-24 -158h-576l-90 -629h-206zM-49 266l17 116l687 2l-17 -117z" />
    <glyph glyph-name="lira" unicode="&#x20a4;" horiz-adv-x="1172" 
d="M-42 0l23 159h71q66 0 123 61.5t81 193.5q4 15 6 33t5 41q0 12 -15 12h-200l17 116h200l-1 178h-175l17 116h157l2 61q1 180 66 289t169 157.5t224 48.5q83 0 157.5 -30t127 -83t70.5 -124l-167 -58q-20 61 -62 99t-126 38q-92 0 -163.5 -58t-88.5 -165q-2 -23 -2 -64.5
v-91.5q0 -19 17 -19l294 2l-16 -117l-295 -1v-178l270 2l-18 -116h-266q-8 -58 -28.5 -120.5t-53 -120t-77.5 -100.5h328q93 0 157 36.5t107 126.5l149 -42q-63 -139 -174 -210.5t-253 -71.5h-657z" />
    <glyph glyph-name="uni20A6" unicode="&#x20a6;" horiz-adv-x="1505" 
d="M67 0l408 1446h168l363 -1124l312 1124h177l-408 -1446h-156l-369 1140l-319 -1140h-176zM13 508l15 109l1476 1l-16 -109zM66 874l16 109l1475 1l-16 -109z" />
    <glyph glyph-name="uni20A9" unicode="&#x20a9;" horiz-adv-x="1992" 
d="M358 0l33 1446h177l-38 -1151l605 1151h135l-32 -1151l606 1151h175l-785 -1446h-158l32 1121l-595 -1121h-155zM46 649l17 115l1932 2l-16 -116zM92 954l17 116l1933 1l-17 -116z" />
    <glyph glyph-name="dong" unicode="&#x20ab;" horiz-adv-x="973" 
d="M377 247q-94 0 -162.5 48t-99.5 143t-10 237q20 136 80 237.5t147.5 158t187.5 56.5q76 0 120 -26t77 -63q12 -11 18 -8.5t7 18.5l58 397h155l-171 -1182h-151l18 117q-25 -23 -61 -54.5t-88 -55t-125 -23.5zM53 0l14 104h700l-15 -104h-699zM448 363q56 0 103.5 27
t77.5 67t36 81l53 374q-34 46 -75 70.5t-98 24.5q-98 0 -174 -82t-99 -245q-16 -112 4 -181.5t65.5 -102.5t106.5 -33zM518 1222l15 98h519l-14 -98h-520z" />
    <glyph glyph-name="Euro" unicode="&#x20ac;" horiz-adv-x="1144" 
d="M633 -20q-177 0 -292.5 91t-162 258t-13.5 397q34 231 127.5 396.5t233.5 254.5t314 89q105 0 191.5 -39.5t144.5 -109.5l-141 -114q-39 44 -87 74.5t-117 30.5q-177 0 -294 -144t-161 -440q-27 -193 -0.5 -321.5t103.5 -193t200 -64.5q45 0 90 14t85.5 36.5t73.5 50.5
l81 -118q-76 -65 -173.5 -106.5t-202.5 -41.5zM-20 508l17 117l752 1l-17 -117zM27 827l16 116l753 1l-17 -116z" />
    <glyph glyph-name="uni20B9" unicode="&#x20b9;" horiz-adv-x="1116" 
d="M600 0l-133 673h-424l21 145h366q163 0 249.5 62t107.5 206q18 124 -44 184t-202 60h-403l16 116h428q223 0 334 -93.5t85 -270.5q-15 -109 -65 -183t-118 -120t-138 -69q-13 -5 -8 -22l151 -688h-223zM98 1031l15 109l1050 2l-17 -110zM142 1337l15 109l1049 1l-16 -109
z" />
    <glyph glyph-name="uni20BA" unicode="&#x20ba;" horiz-adv-x="1083" 
d="M150 0l209 1446h206l-185 -1285h89q125 2 229 84t191 258l160 -38q-48 -105 -113 -190.5t-147.5 -147t-182.5 -94.5t-218 -33h-238zM64 389l-22 119l691 250l25 -119zM97 710l-23 119l692 250l26 -119z" />
    <glyph glyph-name="uni2113" unicode="&#x2113;" horiz-adv-x="975" 
d="M451 -15q-149 0 -216.5 92.5t-59.5 273.5l-107 -75l-39 113l164 115l72 505q34 237 146.5 347t255.5 110q98 0 154 -43t76 -116.5t7 -165.5q-15 -108 -66.5 -204t-127 -182.5t-163.5 -166t-176 -153.5q-26 -170 2 -238.5t116 -68.5q70 0 134 37.5t140 132.5l66 -72
q-28 -49 -64.5 -92.5t-82 -77t-103 -52.5t-128.5 -19zM391 616q57 47 119 108t118.5 133.5t97 154t52.5 169.5q11 76 -14.5 116t-88.5 40q-83 0 -142.5 -80t-88.5 -288z" />
    <glyph glyph-name="uni2116" unicode="&#x2116;" horiz-adv-x="2221" 
d="M118 0l210 1446h172l557 -1124l161 1124h181l-210 -1446h-160l-566 1140l-164 -1140h-181zM1878 795q-135 0 -197.5 93.5t-42.5 238.5q14 101 61 177t117.5 118.5t157.5 42.5q132 0 197 -94t44 -244q-13 -97 -59 -172t-116.5 -117.5t-161.5 -42.5zM1892 890
q80 0 130.5 64t66.5 178q15 110 -17 173t-112 63t-130 -63t-66 -173q-16 -114 16.5 -178t111.5 -64z" />
    <glyph glyph-name="uni2117" unicode="&#x2117;" horiz-adv-x="1552" 
d="M695 -20q-146 0 -265 57.5t-201 159.5t-117 237t-13 290q22 153 96 287.5t185.5 236.5t247 160t281.5 58q145 0 264 -58t200.5 -160t117 -236.5t13.5 -287.5q-23 -155 -97 -290t-185.5 -237t-247 -159.5t-279.5 -57.5zM713 105q119 0 229 43.5t201 124.5t152 195.5
t81 255.5q21 140 -7 254t-95.5 196t-165.5 126t-217 44q-121 0 -232 -44t-201 -126t-150.5 -196t-80.5 -254q-28 -189 28.5 -328t176 -215t281.5 -76zM494 332l113 776h292q78 0 137.5 -23.5t88.5 -72.5t18 -127q-18 -124 -101 -186.5t-199 -62.5h-178l-43 -304h-128z
M680 738h166q62 0 108.5 33.5t56.5 102.5q11 75 -29 102.5t-104 27.5h-159z" />
    <glyph glyph-name="uni2120" unicode="&#x2120;" horiz-adv-x="1930" 
d="M922 0l129 904h158l147 -747l365 747h155l-130 -904h-116l105 730l-351 -730h-103l-140 724l-104 -724h-115zM345 -13q-82 0 -151.5 28t-111.5 84.5t-42 140.5h120q5 -77 61.5 -117t136.5 -40q90 0 155.5 40t74.5 109q8 61 -26.5 97.5t-102.5 54.5l-163 41
q-93 22 -139.5 78.5t-34.5 148.5q11 78 59 137.5t122.5 92.5t164.5 33q99 0 164 -38.5t95 -98.5t23 -125h-117q2 61 -21.5 97t-65 51.5t-91.5 15.5q-49 0 -94.5 -17.5t-77.5 -51.5t-38 -85q-7 -49 20.5 -79.5t107.5 -52.5l157 -41q64 -15 101.5 -43t55 -63.5t20.5 -74.5
t-2 -76q-9 -68 -56 -124t-124 -89t-180 -33z" />
    <glyph glyph-name="trademark" unicode="&#x2122;" horiz-adv-x="1784" 
d="M776 0l130 904h158l146 -747l365 747h155l-129 -904h-116l104 730l-350 -730h-104l-139 724l-104 -724h-116zM234 0l114 798h-274l16 106h647l-15 -106h-261l-115 -798h-112z" />
    <glyph glyph-name="uni2126" unicode="&#x2126;" horiz-adv-x="1464" 
d="M90 0l25 168h293q-18 18 -53.5 54t-76 90.5t-73.5 129t-48 169.5t2 212q20 131 78 253t151 218.5t216.5 153t271.5 56.5q152 0 258 -58t169 -155.5t85 -218.5t3 -247q-14 -102 -46 -187t-84.5 -161t-129.5 -151t-183 -158h300l-25 -168h-501l23 155q53 37 119.5 92.5
t131 133.5t114 182.5t68.5 237.5q17 111 5 209t-52.5 172.5t-109.5 117t-169 42.5q-99 0 -181 -42t-144.5 -116t-103.5 -173t-58 -214q-20 -138 2.5 -250t84.5 -208t163 -184l-24 -155h-501z" />
    <glyph glyph-name="uni2153" unicode="&#x2153;" horiz-adv-x="1652" 
d="M214 552l104 724h-166l11 76q115 0 161 27.5t58 82.5h79l-131 -910h-116zM236 -8l-119 1l1135 1469h117zM1180 -20q-135 1 -208.5 75t-59.5 201h114q0 -85 46.5 -130.5t125.5 -45.5q95 0 158 46.5t73 119.5q12 83 -44.5 126.5t-146.5 44.5l-78 1l14 99l74 2q57 1 104 23
t78.5 58t37.5 78q7 56 -35.5 98.5t-130.5 42.5q-46 0 -91 -19t-78 -58.5t-43 -103.5h-113q12 89 61.5 151t122.5 94.5t156 32.5q90 0 155 -27t97 -79.5t21 -128.5q-10 -67 -58 -121t-136 -85q55 -17 92.5 -48.5t55 -77t8.5 -104.5q-11 -83 -63 -142.5t-132.5 -91.5
t-176.5 -31z" />
    <glyph glyph-name="uni2154" unicode="&#x2154;" horiz-adv-x="1940" 
d="M70 558l10 71l6 37q11 82 51.5 138t98.5 96.5t121 73.5t120 66.5t96 77t48 103.5q9 70 -31 113.5t-117 43.5q-84 0 -142.5 -50.5t-77.5 -134.5h-113q19 118 109 202.5t242 84.5q132 0 199.5 -71t50.5 -188q-12 -81 -52.5 -136.5t-97 -94.5t-118.5 -70.5t-118 -63.5
t-94.5 -74t-47.5 -103l-2 -18h456l-15 -103h-582zM525 -8l-119 1l1135 1469h117zM1469 -20q-135 1 -208.5 75t-59.5 201h114q0 -85 46.5 -130.5t125.5 -45.5q95 0 158 46.5t73 119.5q12 83 -44.5 126.5t-146.5 44.5l-78 1l14 99l74 2q57 1 104 23t78.5 58t37.5 78
q7 56 -35.5 98.5t-130.5 42.5q-46 0 -91 -19t-78 -58.5t-43 -103.5h-113q12 89 61.5 151t122.5 94.5t156 32.5q90 0 155 -27t97 -79.5t21 -128.5q-10 -67 -58 -121t-136 -85q55 -17 92.5 -48.5t55 -77t8.5 -104.5q-11 -83 -63 -142.5t-132.5 -91.5t-176.5 -31z" />
    <glyph glyph-name="oneeighth" unicode="&#x215b;" horiz-adv-x="1671" 
d="M214 552l104 724h-166l11 76q115 0 161 27.5t58 82.5h79l-131 -910h-116zM236 -8l-119 1l1135 1469h117zM1203 -22q-150 0 -230 71t-64 189q8 54 40 102.5t76.5 82.5t89.5 42q-56 26 -87.5 76t-20.5 125q17 119 110 183.5t217 64.5q125 0 199.5 -64.5t58.5 -183.5
q-11 -75 -56 -125t-108 -76q43 -8 78 -42t53.5 -82.5t11.5 -102.5q-17 -118 -117.5 -189t-250.5 -71zM1216 72q96 0 158.5 45.5t73.5 121.5q11 75 -39 123.5t-146 48.5q-94 0 -157.5 -48.5t-74.5 -123.5q-10 -76 40.5 -121.5t144.5 -45.5zM1278 514q78 0 132.5 41t64.5 114
q11 73 -32 115.5t-121 42.5q-77 0 -132.5 -43t-64.5 -115q-11 -73 32.5 -114t120.5 -41z" />
    <glyph glyph-name="threeeighths" unicode="&#x215c;" horiz-adv-x="1908" 
d="M376 544q-135 1 -208.5 75t-59.5 201h114q0 -85 46.5 -130.5t125.5 -45.5q95 0 158 46.5t73 119.5q12 83 -44.5 126.5t-146.5 44.5l-78 1l14 99l74 2q57 1 104 23t78.5 58t37.5 78q7 56 -35.5 98.5t-130.5 42.5q-46 0 -91 -19t-78 -58.5t-43 -103.5h-113q12 89 61.5 151
t122.5 94.5t156 32.5q90 0 155 -27t97 -79.5t21 -128.5q-10 -67 -58 -121t-136 -85q55 -17 92.5 -48.5t55 -77t8.5 -104.5q-11 -83 -63 -142.5t-132.5 -91.5t-176.5 -31zM473 -8l-119 1l1135 1469h117zM1440 -22q-150 0 -230 71t-64 189q8 54 40 102.5t76.5 82.5t89.5 42
q-56 26 -87.5 76t-20.5 125q17 119 110 183.5t217 64.5q125 0 199.5 -64.5t58.5 -183.5q-11 -75 -56 -125t-108 -76q43 -8 78 -42t53.5 -82.5t11.5 -102.5q-17 -118 -117.5 -189t-250.5 -71zM1453 72q96 0 158.5 45.5t73.5 121.5q11 75 -39 123.5t-146 48.5
q-94 0 -157.5 -48.5t-74.5 -123.5q-10 -76 40.5 -121.5t144.5 -45.5zM1515 514q78 0 132.5 41t64.5 114q11 73 -32 115.5t-121 42.5q-77 0 -132.5 -43t-64.5 -115q-11 -73 32.5 -114t120.5 -41z" />
    <glyph glyph-name="fiveeighths" unicode="&#x215d;" horiz-adv-x="1899" 
d="M396 538q-120 0 -202.5 65t-102.5 168l104 43q21 -78 71.5 -127.5t136.5 -49.5q91 0 154.5 56t76.5 153q13 91 -36.5 145.5t-129.5 54.5q-52 0 -97.5 -16t-101.5 -73q-5 -2 -7 -2t-6 3l-90 30l105 474h519l-17 -101h-419l-63 -294q49 42 102.5 60t112.5 18
q79 0 140 -33.5t92.5 -99.5t17.5 -162q-20 -142 -118 -227t-242 -85zM465 -8l-119 1l1135 1469h117zM1432 -22q-150 0 -230 71t-64 189q8 54 40 102.5t76.5 82.5t89.5 42q-56 26 -87.5 76t-20.5 125q17 119 110 183.5t217 64.5q125 0 199.5 -64.5t58.5 -183.5
q-11 -75 -56 -125t-108 -76q43 -8 78 -42t53.5 -82.5t11.5 -102.5q-17 -118 -117.5 -189t-250.5 -71zM1445 72q96 0 158.5 45.5t73.5 121.5q11 75 -39 123.5t-146 48.5q-94 0 -157.5 -48.5t-74.5 -123.5q-10 -76 40.5 -121.5t144.5 -45.5zM1507 514q78 0 132.5 41t64.5 114
q11 73 -32 115.5t-121 42.5q-77 0 -132.5 -43t-64.5 -115q-11 -73 32.5 -114t120.5 -41z" />
    <glyph glyph-name="seveneighths" unicode="&#x215e;" horiz-adv-x="1725" 
d="M203 550q24 83 82.5 216t149 288.5t210.5 304.5h-481l15 101h607l-17 -101q-68 -83 -139 -192.5t-133.5 -224t-108 -217.5t-62.5 -175h-123zM291 -8l-119 1l1135 1469h117zM1257 -22q-150 0 -230 71t-64 189q8 54 40 102.5t76.5 82.5t89.5 42q-56 26 -87.5 76t-20.5 125
q17 119 110 183.5t217 64.5q125 0 199.5 -64.5t58.5 -183.5q-11 -75 -56 -125t-108 -76q43 -8 78 -42t53.5 -82.5t11.5 -102.5q-17 -118 -117.5 -189t-250.5 -71zM1270 72q96 0 158.5 45.5t73.5 121.5q11 75 -39 123.5t-146 48.5q-94 0 -157.5 -48.5t-74.5 -123.5
q-10 -76 40.5 -121.5t144.5 -45.5zM1332 514q78 0 132.5 41t64.5 114q11 73 -32 115.5t-121 42.5q-77 0 -132.5 -43t-64.5 -115q-11 -73 32.5 -114t120.5 -41z" />
    <glyph glyph-name="partialdiff" unicode="&#x2202;" horiz-adv-x="1130" 
d="M463 -20q-135 0 -226 61.5t-130.5 166.5t-20.5 236t86.5 230.5t176.5 155t250 55.5q101 0 155.5 -27t110.5 -69q16 -12 21 -7.5t6 13.5q17 119 7.5 215t-47 164t-103.5 104.5t-161 36.5q-94 0 -158.5 -30t-121.5 -66l-37 115q35 34 95.5 64t134 49t151.5 19
q156 0 259.5 -81.5t143.5 -246t4 -413.5q-33 -233 -113.5 -400t-202.5 -256t-280 -89zM472 127h2q81 0 155 52.5t130.5 147t86.5 219.5q6 31 6 44.5t-8 25.5q-30 53 -102 91t-155 38q-81 0 -149.5 -40.5t-114.5 -110.5t-59 -159q-12 -89 12 -158.5t75 -109.5t121 -40z" />
    <glyph glyph-name="emptyset" unicode="&#x2205;" horiz-adv-x="1114" 
d="M144 278l-61 78l935 795l58 -77zM523 308q-110 0 -192 56.5t-121.5 152t-23.5 211.5q13 87 55 162.5t105 133t140 90t158 32.5q110 0 192.5 -56.5t122.5 -151.5t23 -210q-17 -116 -85 -211.5t-166.5 -152t-207.5 -56.5zM539 410q83 0 157 43t125 115t63 160
q13 86 -17.5 158t-92 115t-144.5 43q-84 0 -158 -43t-124 -115t-62 -158q-13 -88 16.5 -160t91.5 -115t145 -43z" />
    <glyph glyph-name="uni2206" unicode="&#x2206;" horiz-adv-x="1340" 
d="M-36 0l848 1446l419 -1446h-1267zM253 164h740l-238 895z" />
    <glyph glyph-name="product" unicode="&#x220f;" horiz-adv-x="1250" 
d="M143 0l185 1286h-186l23 160h1174l-23 -160h-188l-185 -1286h-189l185 1286h-422l-184 -1286h-190z" />
    <glyph glyph-name="summation" unicode="&#x2211;" horiz-adv-x="1011" 
d="M-18 0l17 122l491 599l-295 591l20 134h843l-24 -156h-595l280 -552l-473 -575h661l-24 -163h-901z" />
    <glyph glyph-name="minus" unicode="&#x2212;" horiz-adv-x="1068" 
d="M142 654l21 144l821 1l-21 -143z" />
    <glyph glyph-name="uni2215" unicode="&#x2215;" horiz-adv-x="1143" 
d="M144 -8l-121 1l1040 1469h117z" />
    <glyph glyph-name="uni2219" unicode="&#x2219;" horiz-adv-x="624" 
d="M319 610q-48 0 -77 36.5t-21 88.5q7 51 46.5 87t88.5 36t78 -36t21 -87q-6 -52 -46.5 -88.5t-89.5 -36.5z" />
    <glyph glyph-name="radical" unicode="&#x221a;" horiz-adv-x="1206" 
d="M404 -322l-181 897l-152 -59l-24 119l310 113l166 -878l689 1781h157l-773 -1973h-192z" />
    <glyph glyph-name="infinity" unicode="&#x221e;" horiz-adv-x="1403" 
d="M344 212q-78 0 -138.5 40t-90.5 113t-15 171q14 98 65 171t127.5 113.5t167.5 40.5q67 0 111.5 -22t77 -59t65.5 -83q13 -15 20.5 -15t22.5 15q35 36 79 74t100 64t127 26q81 0 140.5 -38.5t87 -108.5t13.5 -167l-1 -2q-15 -106 -67.5 -180.5t-127 -113.5t-155.5 -39
q-67 0 -112 24t-78.5 65t-66.5 89q-8 12 -13.5 13.5t-18.5 -13.5q-14 -13 -42 -41.5t-69 -60.5t-93.5 -54t-115.5 -22zM373 347h5q44 0 87 23.5t79.5 56.5t61.5 64q22 26 23 39t-14 43q-35 74 -79 116.5t-109 42.5q-74 0 -128 -53t-67 -137q-12 -86 29.5 -140.5t111.5 -54.5
zM987 347q51 0 90 29t63 73t30 91q11 76 -24 134t-109 58h-2q-67 0 -126 -49.5t-109 -101.5q-21 -23 -20.5 -43.5t9.5 -34.5q36 -69 73.5 -102t70 -43.5t54.5 -10.5z" />
    <glyph glyph-name="integral" unicode="&#x222b;" horiz-adv-x="844" 
d="M108 -343q-75 0 -118 12.5t-86 42.5l68 164q37 -24 69.5 -35.5t77.5 -11.5q61 0 112 50t67 168q22 150 33.5 306.5t19.5 312t18.5 306t29.5 288.5q30 204 128.5 307.5t240.5 103.5q76 0 120.5 -13t85.5 -43l-67 -163q-37 23 -70 35t-79 12q-64 0 -115 -50t-68 -166
q-22 -151 -33.5 -307t-19.5 -311.5t-18.5 -305t-29.5 -285.5q-20 -139 -71.5 -231.5t-126.5 -139t-168 -46.5z" />
    <glyph glyph-name="approxequal" unicode="&#x2248;" horiz-adv-x="1100" 
d="M212 766l-37 105q62 56 127 96.5t151 40.5q53 0 95 -16t78.5 -36.5t75 -36.5t85.5 -16q71 0 121 34.5t85 76.5l39 -108q-43 -56 -111 -93.5t-151 -37.5q-54 0 -95 15.5t-77 36.5t-74.5 36.5t-88.5 15.5q-72 0 -125.5 -35.5t-97.5 -77.5zM155 368l-38 107q63 56 128 95.5
t151 39.5q53 0 94.5 -16t78.5 -36.5t75.5 -36.5t85.5 -16q70 0 120.5 35t85.5 77l38 -107q-42 -56 -110 -94t-152 -38q-56 0 -97.5 16t-77.5 36.5t-73.5 36.5t-86.5 16q-72 0 -125.5 -36t-96.5 -79z" />
    <glyph glyph-name="notequal" unicode="&#x2260;" horiz-adv-x="1071" 
d="M243 118l526 1143h109l-520 -1143h-115zM172 848l21 143l820 1l-21 -143zM108 404l21 143l820 2l-21 -144z" />
    <glyph glyph-name="lessequal" unicode="&#x2264;" horiz-adv-x="1069" 
d="M927 455l-752 332l24 168l850 333l-25 -173l-624 -245l551 -243zM67 113l21 143l820 -1l-22 -143z" />
    <glyph glyph-name="greaterequal" unicode="&#x2265;" horiz-adv-x="1070" 
d="M125 455l25 172l624 243l-555 245l26 173l753 -333l-24 -168zM67 112l21 143l820 1l-21 -143z" />
    <glyph glyph-name="lozenge" unicode="&#x25ca;" horiz-adv-x="938" 
d="M326 0l-203 723l423 723h139l205 -719l-424 -727h-140zM424 145l311 578l-145 577l-310 -569z" />
    <glyph glyph-name="i.loclTRK" horiz-adv-x="490" 
d="M80 0l150 1034h181l-150 -1034h-181zM264 1267l26 179h181l-26 -179h-181z" />
    </font>
</defs>
</svg>
