<?xml version="1.0" standalone="no"?>
<!DOCTYPE svg PUBLIC "-//W3C//DTD SVG 1.1//EN" "http://www.w3.org/Graphics/SVG/1.1/DTD/svg11.dtd" >
<svg xmlns="http://www.w3.org/2000/svg" xmlns:xlink="http://www.w3.org/1999/xlink" version="1.1">
<metadata>
Created by FontForge 20190801 at Fri Apr 29 23:32:16 2022
 By www-data
Copyright 2015 The Public Sans Project Authors (https://github.com/uswds/public-sans)
</metadata>
<defs>
<font id="PublicSansSemiBold" horiz-adv-x="0" >
  <font-face 
    font-family="PublicSansSemiBold"
    font-weight="600"
    font-stretch="normal"
    units-per-em="2000"
    panose-1="0 0 0 0 0 0 0 0 0 0"
    ascent="1600"
    descent="-400"
    x-height="1034"
    cap-height="1446"
    bbox="-324 -480 2552 2166"
    underline-thickness="140"
    underline-position="-440"
    unicode-range="U+000D-FB02"
  />
<missing-glyph horiz-adv-x="1341" 
d="M213 1652h918q35 0 35 -42v-1876q0 -56 -65 -56h-873q-31 0 -42 12t-11 36v1880q0 46 38 46zM1064 -112v1632q0 34 -29 34h-687zM277 1433v-1617q0 -19 9.5 -29.5t34.5 -10.5h670z" />
    <glyph glyph-name="fi" unicode="fi" horiz-adv-x="1309" 
d="M264 0v862h-204v172h204v154q0 124 68.5 191t198.5 67h218l1 -166h-144q-59 0 -81 -30.5t-22 -95.5v-120h237v-172h-233v-862h-243zM935 0v1034h233v-1034h-233zM931 1215v230h241v-230h-241z" />
    <glyph glyph-name="fl" unicode="fl" horiz-adv-x="1427" 
d="M264 0v862h-204v172h204v154q0 124 68.5 191t198.5 67h218l1 -166h-144q-59 0 -81 -30.5t-22 -95.5v-120h237v-172h-233v-862h-243zM1229 -15q-100 0 -160 25t-90 67t-39 94.5t-9 107.5v1207h238v-1179q0 -67 27.5 -104t89.5 -43l52 -2v-153q-27 -8 -55 -14t-54 -6z" />
    <glyph glyph-name=".notdef" horiz-adv-x="1341" 
d="M213 1652h918q35 0 35 -42v-1876q0 -56 -65 -56h-873q-31 0 -42 12t-11 36v1880q0 46 38 46zM1064 -112v1632q0 34 -29 34h-687zM277 1433v-1617q0 -19 9.5 -29.5t34.5 -10.5h670z" />
    <glyph glyph-name="uni0000" horiz-adv-x="53" 
 />
    <glyph glyph-name="uni0000" horiz-adv-x="53" 
 />
    <glyph glyph-name="nonmarkingreturn" horiz-adv-x="666" 
 />
    <glyph glyph-name="CR" unicode="&#xd;" horiz-adv-x="472" 
 />
    <glyph glyph-name="space" unicode=" " horiz-adv-x="467" 
 />
    <glyph glyph-name="exclam" unicode="!" horiz-adv-x="536" 
d="M184 410l-67 1036h287l-64 -1036h-156zM123 0v276h274v-276h-274z" />
    <glyph glyph-name="quotedbl" unicode="&#x22;" horiz-adv-x="910" 
d="M590 929l-67 517h265l-70 -517h-128zM190 929l-67 517h265l-70 -517h-128z" />
    <glyph glyph-name="numbersign" unicode="#" horiz-adv-x="1220" 
d="M780 -4l-135 18l215 1435l135 -14zM63 458v135h1019v-135h-1019zM362 -4l-135 18l216 1435l133 -14zM127 868v135h1019v-135h-1019z" />
    <glyph glyph-name="dollar" unicode="$" horiz-adv-x="1341" 
d="M694 -20q-246 0 -403 102t-183 308l254 9q27 -110 114.5 -165.5t216.5 -55.5q77 0 141 26t102 72t38 106q0 87 -53.5 134.5t-167.5 74.5l-243 58q-162 37 -259 130.5t-99 251.5q-1 131 69.5 228.5t194.5 151t281 53.5t271 -57.5t176 -153.5t63 -211l-247 -8
q-17 111 -77 171.5t-184 60.5q-60 0 -112 -14t-91 -41t-61 -65.5t-22 -87.5q0 -70 48.5 -110.5t177.5 -77.5l236 -62q191 -49 274.5 -160t83.5 -264q0 -121 -67 -211.5t-188.5 -141.5t-283.5 -51zM582 -199v259h215v-259h-215zM590 1398v259h216v-259h-216z" />
    <glyph glyph-name="percent" unicode="%" horiz-adv-x="1846" 
d="M343 -8l977 1470h147l-972 -1470h-152zM455 645q-102 0 -182.5 53.5t-127 145.5t-46.5 210q0 119 47 212.5t127.5 147.5t181.5 54q100 0 180 -54t126 -147.5t46 -212.5q0 -118 -45.5 -210t-125.5 -145.5t-181 -53.5zM453 774q87 0 130 71.5t43 208.5q0 141 -44 214
t-129 73t-129 -73.5t-44 -213.5q0 -136 43.5 -208t129.5 -72zM1384 -20q-102 0 -183 52.5t-127 145t-46 213.5q0 119 46.5 212.5t127.5 147.5t182 54t181 -54t126 -147.5t46 -212.5q0 -121 -45.5 -213.5t-125.5 -145t-182 -52.5zM1382 109q87 0 130 71.5t43 208.5
q0 140 -44 213.5t-129 73.5t-128.5 -74t-43.5 -213q0 -136 43 -208t129 -72z" />
    <glyph glyph-name="ampersand" unicode="&#x26;" horiz-adv-x="1499" 
d="M543 -10q-151 0 -251.5 47.5t-150.5 131.5t-50 194q0 97 39 173.5t118 141.5t198 128q-54 58 -93.5 110t-61.5 105.5t-22 117.5q0 93 51 167.5t141.5 118t209.5 43.5q116 0 211.5 -39t152.5 -109t57 -164q0 -43 -17.5 -90t-56 -96t-101.5 -100t-155 -102l268 -313
q16 28 39.5 79.5t44.5 120t27 147.5h246q-20 -95 -59.5 -180t-87 -162t-93.5 -148l267 -312h-281l-131 150q-113 -87 -231.5 -123.5t-227.5 -36.5zM600 179q70 0 147.5 31t135.5 86l-317 368q-91 -51 -152 -124t-52 -166q5 -61 40 -105t87.5 -67t110.5 -23zM659 895
q87 52 134 94.5t65 81t18 77.5q0 59 -28 96t-72.5 53.5t-93.5 15.5q-82 -1 -126.5 -47.5t-44.5 -110.5q0 -40 17 -80.5t42.5 -76t49.5 -62.5z" />
    <glyph glyph-name="quotesingle" unicode="'" horiz-adv-x="510" 
d="M190 929l-67 517h265l-70 -517h-128z" />
    <glyph glyph-name="parenleft" unicode="(" horiz-adv-x="639" 
d="M403 -269q-83 141 -145 277.5t-96 283.5t-34 317q0 249 79 477t206 413h170q-102 -194 -166.5 -423.5t-64.5 -468.5q0 -226 56.5 -438t163.5 -438h-169z" />
    <glyph glyph-name="parenright" unicode=")" horiz-adv-x="648" 
d="M42 -269q108 226 164 438t56 438q0 239 -64 468.5t-167 423.5h170q127 -185 206 -413t79 -477q0 -170 -34 -317t-96 -283.5t-145 -277.5h-169z" />
    <glyph glyph-name="asterisk" unicode="*" horiz-adv-x="874" 
d="M272 702l-135 94l198 241l-280 78l53 146l266 -112l-21 297h166l-23 -298l270 118l47 -146l-273 -82l194 -235l-137 -96l-161 264z" />
    <glyph glyph-name="plus" unicode="+" horiz-adv-x="1146" 
d="M484 274l-1 908h181l1 -908h-181zM119 636v181l908 1v-181z" />
    <glyph glyph-name="comma" unicode="," horiz-adv-x="521" 
d="M91 -267l114 261l-95 7v255h266v-223l-187 -300h-98z" />
    <glyph glyph-name="hyphen" unicode="-" horiz-adv-x="772" 
d="M122 424v182l528 1v-182z" />
    <glyph glyph-name="period" unicode="." horiz-adv-x="499" 
d="M104 0v280h275v-280h-275z" />
    <glyph glyph-name="slash" unicode="/" horiz-adv-x="735" 
d="M25 -55l503 1501h177l-504 -1501h-176z" />
    <glyph glyph-name="zero" unicode="0" horiz-adv-x="1259" 
d="M630 -22q-251 0 -394.5 189t-143.5 551q0 244 66 410.5t187 252t286 85.5q248 0 392.5 -190.5t144.5 -555.5q0 -363 -143.5 -552.5t-394.5 -189.5zM631 181q141 0 210 125t69 413q0 294 -70 422t-210 128t-211.5 -129t-71.5 -421q0 -287 71.5 -412.5t212.5 -125.5z" />
    <glyph glyph-name="one" unicode="1" horiz-adv-x="837" 
d="M357 0v1114h-268v145q127 0 201.5 21.5t109 63.5t39.5 102h166v-1446h-248z" />
    <glyph glyph-name="two" unicode="2" horiz-adv-x="1235" 
d="M118 0v130v67q0 111 41 191.5t109 140.5t149.5 106.5t162 88t148.5 86t109.5 99.5t41.5 131q0 97 -68.5 158.5t-185.5 61.5q-124 0 -204.5 -71t-95.5 -200h-236q2 132 63 240t181 172.5t299 64.5q155 0 267.5 -53.5t174 -149t61.5 -222.5q0 -111 -40.5 -190t-107 -136.5
t-146 -101.5t-159 -82.5t-146 -80t-107 -94.5t-40.5 -127v-21h749v-208h-1020z" />
    <glyph glyph-name="three" unicode="3" horiz-adv-x="1298" 
d="M625 -22q-163 1 -281 56t-183.5 157t-68.5 242h237q21 -129 102.5 -191.5t198.5 -62.5q97 0 168 29.5t109.5 81.5t38.5 121q0 73 -41.5 125t-113.5 80t-162 30l-134 4v198l124 5q86 3 151.5 33t102.5 79t37 110q0 56 -34.5 101t-97.5 70.5t-149 25.5q-73 0 -137 -26
t-105.5 -83.5t-45.5 -150.5h-236q0 148 71 249.5t190.5 153t265.5 51.5q157 0 278.5 -42.5t191 -127.5t69.5 -211q0 -107 -65 -191t-205 -132q87 -24 156 -71.5t109.5 -118.5t40.5 -167q0 -103 -44.5 -183t-124 -134.5t-185.5 -82t-228 -27.5z" />
    <glyph glyph-name="four" unicode="4" horiz-adv-x="1287" 
d="M761 0l1 343h-673v207l666 896h242v-896h231v-207h-231v-343h-236zM317 550h443v594z" />
    <glyph glyph-name="five" unicode="5" horiz-adv-x="1318" 
d="M680 -22q-138 0 -256.5 45.5t-204 125.5t-127.5 183l197 104q37 -74 88.5 -133t121 -92.5t159.5 -33.5q141 0 226.5 78.5t85.5 209.5q0 81 -39.5 144t-107 98.5t-153.5 35.5q-51 0 -95.5 -9t-89.5 -33.5t-97 -73.5q-10 -5 -14.5 -4.5t-15.5 5.5l-187 76l66 742h899
l-9 -203h-692l-33 -402q77 54 155 78t172 24q138 0 251 -54t180 -159t67 -257t-67.5 -263t-190 -171.5t-289.5 -60.5z" />
    <glyph glyph-name="six" unicode="6" horiz-adv-x="1286" 
d="M666 -22q-177 0 -306 88t-198.5 249.5t-69.5 382.5q0 235 69 407.5t200.5 266.5t318.5 94q128 0 237 -47.5t179 -136.5t82 -215h-225q-28 97 -96 150t-172 53q-115 0 -192 -65t-110.5 -186.5t-21.5 -290.5q31 59 84 102.5t121 67.5t144 24q145 0 254 -55t170 -156
t61 -239q0 -143 -66 -254.5t-185 -175.5t-278 -64zM660 169q78 0 140.5 37t99 103t36.5 152q0 88 -34 149t-96.5 93t-146.5 32q-69 0 -133.5 -32t-105 -83t-40.5 -109q-1 -103 34 -180t98.5 -119.5t147.5 -42.5z" />
    <glyph glyph-name="seven" unicode="7" horiz-adv-x="1229" 
d="M351 0q12 93 48.5 232.5t100.5 308t159 348.5t222 354h-792v203h1051v-203q-73 -95 -145 -219.5t-138 -263t-118 -277t-85 -263.5t-40 -220h-263z" />
    <glyph glyph-name="eight" unicode="8" horiz-adv-x="1321" 
d="M660 -21q-171 0 -298.5 51.5t-198.5 145.5t-71 221q0 83 41.5 159t106.5 128.5t134 66.5q-93 42 -156 120.5t-63 193.5q0 129 66 218.5t180.5 136t258.5 46.5t258 -46.5t180.5 -136t66.5 -218.5q0 -115 -62 -193.5t-157 -120.5q69 -14 134 -66.5t107 -128.5t42 -159
q0 -127 -70.5 -221t-199 -145.5t-299.5 -51.5zM660 167q143 0 226 64t83 171q0 71 -38 125.5t-107 85.5t-164 31q-94 0 -163.5 -31t-107 -85.5t-37.5 -125.5q0 -107 83.5 -171t224.5 -64zM660 848q114 0 186.5 58.5t72.5 163.5q0 104 -73 165t-186 61t-186.5 -61t-73.5 -165
q0 -105 73.5 -163.5t186.5 -58.5z" />
    <glyph glyph-name="nine" unicode="9" horiz-adv-x="1286" 
d="M601 -22q-127 0 -238 49t-183 139t-84 212h233q21 -91 91 -147.5t172 -56.5q115 0 199.5 57t126.5 179t31 317q-27 -64 -78.5 -112t-122 -74.5t-156.5 -26.5q-145 0 -256.5 55.5t-174.5 159t-63 245.5q0 144 64.5 255t182 174t276.5 63q177 0 306 -87t198.5 -248
t69.5 -382q0 -252 -70.5 -423.5t-203 -259.5t-320.5 -88zM628 712q70 0 134 32t105 83t41 108q1 104 -34 180.5t-98.5 119t-148.5 42.5q-77 0 -137.5 -37t-94.5 -102.5t-34 -151.5q0 -128 71 -201t196 -73z" />
    <glyph glyph-name="colon" unicode=":" horiz-adv-x="499" 
d="M104 724v278h275v-278h-275zM104 6v276h275v-276h-275z" />
    <glyph glyph-name="semicolon" unicode=";" horiz-adv-x="522" 
d="M104 -298l124 298h-101v277h275v-245l-196 -330h-102zM122 717v281h275v-281h-275z" />
    <glyph glyph-name="less" unicode="&#x3c;" horiz-adv-x="1126" 
d="M1005 240l-886 344v209l887 348v-216l-611 -238l610 -233v-214z" />
    <glyph glyph-name="equal" unicode="=" horiz-adv-x="1146" 
d="M119 828v181l908 1v-181zM119 376v182l908 1v-182z" />
    <glyph glyph-name="greater" unicode="&#x3e;" horiz-adv-x="1126" 
d="M120 240v214l612 233l-613 238v216l888 -348v-209z" />
    <glyph glyph-name="question" unicode="?" horiz-adv-x="1057" 
d="M396 415q0 112 35 194t87 145.5t103.5 118t87 111.5t35.5 127q0 84 -61.5 133t-157.5 49q-59 0 -115.5 -24.5t-100.5 -68t-66 -100.5l-210 55q64 149 192.5 230t301.5 81q139 0 242.5 -45.5t161 -123t57.5 -174.5q0 -100 -40 -171.5t-98 -129.5t-116.5 -115t-98 -126.5
t-39.5 -165.5h-200zM359 0v276h274v-276h-274z" />
    <glyph glyph-name="at" unicode="@" horiz-adv-x="1658" 
d="M843 -220q-179 0 -319.5 57t-239 157.5t-150 232.5t-51.5 282q0 158 56 298.5t160.5 249t251 170t327.5 61.5q130 0 254 -36t224 -112t159.5 -194.5t59.5 -283.5q0 -149 -49 -262.5t-135.5 -177.5t-197.5 -64q-81 0 -124 28t-59 69q-6 13 -10 12.5t-14 -11.5
q-43 -54 -109 -90t-155 -36q-79 0 -144.5 42.5t-104.5 120.5t-39 182q0 121 48.5 224t136 165t203.5 62q81 0 132 -31t85 -78q4 -5 8.5 -3.5t5.5 10.5l14 52h149l-73 -437q-13 -76 6 -105t60 -29q54 0 101 39.5t77 116.5t30 189q0 137 -46.5 232t-124 153t-173.5 84t-196 26
q-159 0 -277.5 -50t-197.5 -138t-118.5 -203t-39.5 -244q0 -133 42 -242t123 -188t198 -121.5t266 -42.5q90 0 152.5 16.5t111.5 44.5t99 61l81 -107q-81 -64 -203 -107.5t-271 -43.5zM764 286q59 0 108.5 35t81.5 92.5t38 122.5q8 73 -12 125.5t-58.5 81t-87.5 28.5
q-62 0 -111.5 -38t-78 -101t-28.5 -141q0 -89 37.5 -147t110.5 -58z" />
    <glyph glyph-name="A" unicode="A" horiz-adv-x="1438" 
d="M68 0l519 1446h264l519 -1446h-244l-129 363h-554l-130 -363h-245zM501 579h435l-217 631z" />
    <glyph glyph-name="B" unicode="B" horiz-adv-x="1356" 
d="M175 0v1446h497q275 0 411.5 -97.5t136.5 -280.5q0 -111 -57 -192t-201 -137q88 -21 145.5 -57.5t89.5 -83t45 -99.5t13 -109q0 -198 -137.5 -294t-425.5 -96h-517zM418 194h277q154 0 233.5 55.5t79.5 160.5q0 76 -39 125.5t-106 73.5t-150 24h-295v-439zM418 830h295
q51 0 99 11t87 35t62.5 64t23.5 97q0 109 -82.5 162.5t-211.5 53.5h-273v-423z" />
    <glyph glyph-name="C" unicode="C" horiz-adv-x="1409" 
d="M738 -20q-199 0 -341.5 91.5t-219 260t-76.5 400.5q0 231 76 395t218.5 251.5t342.5 87.5q159 0 282 -64.5t198.5 -174.5t89.5 -245h-257q-15 80 -55.5 143t-106.5 100t-158 37q-115 0 -195.5 -54.5t-123 -172.5t-42.5 -306q0 -285 94 -415t267 -130q92 0 158 40.5
t106.5 108t55.5 147.5h257q-12 -98 -49.5 -188t-105.5 -160.5t-170.5 -111t-244.5 -40.5z" />
    <glyph glyph-name="D" unicode="D" horiz-adv-x="1416" 
d="M175 0v1446h53h104.5t123 -0.5t108.5 -1.5q264 -5 429.5 -90.5t243 -243t77.5 -379.5q0 -232 -82.5 -395t-252 -249.5t-430.5 -86.5h-374zM422 201h131q149 0 263 51.5t178.5 167.5t64.5 310q0 188 -60 301t-172 163.5t-268 50.5h-137v-1044z" />
    <glyph glyph-name="E" unicode="E" horiz-adv-x="1257" 
d="M175 0v1446h956l-1 -209h-710v-405h627v-206h-629v-414l727 -1v-211h-970z" />
    <glyph glyph-name="F" unicode="F" horiz-adv-x="1209" 
d="M175 0v1446h946l-1 -206h-698v-416h616v-203h-616v-621h-247z" />
    <glyph glyph-name="G" unicode="G" horiz-adv-x="1494" 
d="M735 -20q-194 0 -337 89t-220 254.5t-77 395.5q0 232 80 400t225.5 257.5t341.5 89.5q120 0 221.5 -40t178 -108t120.5 -155t49 -181h-257q-14 74 -56.5 136.5t-109 100.5t-151.5 38q-109 0 -194.5 -55t-134 -172.5t-48.5 -304.5q0 -148 30.5 -249.5t84 -163t123.5 -89
t148 -27.5q76 0 134 26t98.5 68t63 90.5t26.5 94.5l9 106h-323v172l577 -2v-751h-172v203q-37 -55 -93.5 -106t-138 -84t-198.5 -33z" />
    <glyph glyph-name="H" unicode="H" horiz-adv-x="1536" 
d="M175 0v1446h243v-597h700v597h243v-1446h-243v642h-700v-642h-243z" />
    <glyph glyph-name="I" unicode="I" horiz-adv-x="593" 
d="M175 0v1446h243v-1446h-243z" />
    <glyph glyph-name="J" unicode="J" horiz-adv-x="791" 
d="M310 -20q-72 0 -142.5 14.5t-99.5 23.5l9 226q30 -9 69 -21.5t91 -12.5q100 0 135.5 54t35.5 177v1005h244v-1071q0 -129 -28.5 -216.5t-102.5 -133t-211 -45.5z" />
    <glyph glyph-name="K" unicode="K" horiz-adv-x="1402" 
d="M175 0v1446h253v-701l582 701h283l-459 -564l507 -882h-269l-413 705l-231 -271v-434h-253z" />
    <glyph glyph-name="L" unicode="L" horiz-adv-x="1155" 
d="M175 0l1 1446h246v-1236h653v-210h-900z" />
    <glyph glyph-name="M" unicode="M" horiz-adv-x="1806" 
d="M175 0v1446h348l379 -1105l383 1105h346v-1446h-247v1134l-381 -1134h-203l-378 1127v-1127h-247z" />
    <glyph glyph-name="N" unicode="N" horiz-adv-x="1539" 
d="M175 0v1446h238l708 -1033v1033h243v-1446h-219l-727 1061v-1061h-243z" />
    <glyph glyph-name="O" unicode="O" horiz-adv-x="1497" 
d="M751 -20q-200 0 -345.5 88t-225 254t-79.5 398q0 234 80 401t226.5 256t343.5 89t341.5 -89t223.5 -256t79 -401q0 -232 -78 -397.5t-223 -254t-343 -88.5zM751 184q118 0 203 55.5t130.5 173t45.5 304.5q0 190 -46 310.5t-131 177.5t-202 57q-118 0 -203.5 -57.5
t-132.5 -178t-47 -309.5q0 -187 47 -304.5t132.5 -173t203.5 -55.5z" />
    <glyph glyph-name="P" unicode="P" horiz-adv-x="1290" 
d="M175 0v1446h513q156 0 279.5 -53.5t194.5 -157.5t71 -256q0 -143 -64.5 -245t-179.5 -156t-269 -54h-298v-524h-247zM420 719h294q127 0 207.5 76t80.5 198q0 124 -84 192.5t-211 68.5h-287v-535z" />
    <glyph glyph-name="Q" unicode="Q" horiz-adv-x="1523" 
d="M1388 -244q-84 0 -165.5 16.5t-158.5 68t-147 155.5q-50 -8 -88.5 -12t-78.5 -4q-198 0 -343.5 87t-225.5 252.5t-80 400.5t80 402t225.5 255.5t343.5 88.5t343 -88.5t224.5 -255.5t79.5 -402q0 -210 -63 -364.5t-197 -253.5q30 -70 98.5 -107.5t152.5 -39.5v-199z
M750 184q181 0 281 126t100 408q0 281 -99.5 412.5t-281.5 131.5q-181 0 -280.5 -131.5t-99.5 -414.5q0 -280 99.5 -406t280.5 -126z" />
    <glyph glyph-name="R" unicode="R" horiz-adv-x="1374" 
d="M175 0v1446h587q166 0 273.5 -51.5t159.5 -145t52 -218.5q0 -116 -38 -194.5t-98.5 -128t-129.5 -80.5l276 -628h-254l-249 587h-336v-587h-243zM418 780h289q138 0 215.5 64t77.5 178q0 112 -72 173t-190 61h-320v-476z" />
    <glyph glyph-name="S" unicode="S" horiz-adv-x="1364" 
d="M694 -20q-108 0 -207 26.5t-180.5 79t-134.5 131t-65 183.5h252q16 -73 63.5 -123t120.5 -76t163 -26q80 0 149 24t112 71.5t43 117.5q0 79 -55.5 123.5t-158.5 70.5l-283 67q-110 25 -191.5 73t-126.5 126.5t-45 192.5q0 130 71.5 225t194.5 146.5t277 51.5
q176 0 297 -58.5t184 -156.5t64 -215h-246q-8 87 -51 137.5t-109 73.5t-146 23q-142 0 -211 -61t-69 -143q0 -77 51 -122t156 -70l269 -63q135 -28 217 -86t119.5 -137.5t37.5 -175.5q0 -126 -71.5 -223t-197.5 -152t-293 -55z" />
    <glyph glyph-name="T" unicode="T" horiz-adv-x="1212" 
d="M492 0v1227h-450v219h1128v-219h-434v-1227h-244z" />
    <glyph glyph-name="U" unicode="U" horiz-adv-x="1427" 
d="M730 -20q-200 0 -322.5 66.5t-177.5 192t-55 303.5v904h249v-929q0 -168 82.5 -248t223.5 -80q95 0 165 35t108 107.5t38 185.5v929h246v-918q0 -172 -56 -294.5t-178.5 -188t-322.5 -65.5z" />
    <glyph glyph-name="V" unicode="V" horiz-adv-x="1379" 
d="M548 0l-506 1446h235l412 -1166l412 1166h236l-507 -1446h-282z" />
    <glyph glyph-name="W" unicode="W" horiz-adv-x="1923" 
d="M464 0l-422 1446h240l293 -1044l294 1044h182l296 -1044l294 1044h241l-425 -1446h-205l-292 1025l-296 -1025h-200z" />
    <glyph glyph-name="X" unicode="X" horiz-adv-x="1408" 
d="M68 0l485 736l-469 710h300l321 -506l319 506h262l-453 -681l507 -765h-302l-356 556l-350 -556h-264z" />
    <glyph glyph-name="Y" unicode="Y" horiz-adv-x="1280" 
d="M519 0v612l-498 834h264l357 -622l351 622h266l-497 -835v-611h-243z" />
    <glyph glyph-name="Z" unicode="Z" horiz-adv-x="1309" 
d="M117 0v124l760 1115h-718v207h1063v-118l-769 -1119h762v-209h-1098z" />
    <glyph glyph-name="bracketleft" unicode="[" horiz-adv-x="643" 
d="M163 -322l-1 1768h420v-144h-215l-1 -1480h215v-144h-418z" />
    <glyph glyph-name="backslash" unicode="\" horiz-adv-x="735" 
d="M527 -55l-502 1501h176l504 -1501h-178z" />
    <glyph glyph-name="bracketright" unicode="]" horiz-adv-x="643" 
d="M62 -322v144h215l-1 1480h-215v144h420l-1 -1768h-418z" />
    <glyph glyph-name="asciicircum" unicode="^" horiz-adv-x="958" 
d="M689 250l-218 544l-220 -542h-173l305 730q19 45 53 61.5t68.5 2t54.5 -62.5l305 -733h-175z" />
    <glyph glyph-name="underscore" unicode="_" horiz-adv-x="1073" 
d="M119 -259v182h830v-181z" />
    <glyph glyph-name="grave" unicode="`" horiz-adv-x="486" 
d="M297 1155l-286 291h259l206 -291h-179z" />
    <glyph glyph-name="a" unicode="a" horiz-adv-x="1120" 
d="M437 -20q-99 0 -177.5 36.5t-123 105t-44.5 166.5q0 171 123.5 258t393.5 91l155 4v70q0 82 -48.5 128.5t-150.5 45.5q-76 -1 -138 -35.5t-82 -115.5h-207q6 106 61.5 177.5t152.5 107t224 35.5q148 0 241 -39t137 -112.5t44 -177.5v-725h-205l-20 186
q-55 -117 -140.5 -161.5t-195.5 -44.5zM516 145q45 0 89 16.5t79.5 45t57 63.5t22.5 73v163l-127 -2q-94 -1 -164.5 -20t-109.5 -60.5t-39 -110.5q0 -79 55 -123.5t137 -44.5z" />
    <glyph glyph-name="b" unicode="b" horiz-adv-x="1206" 
d="M684 -20q-83 0 -142 22t-98.5 57t-63 75.5t-35.5 77.5l-28 -212h-179v1486h244v-603q16 30 44.5 60t69.5 55t93.5 40.5t116.5 15.5q193 0 305 -137t112 -395q0 -163 -49.5 -285t-147 -189.5t-242.5 -67.5zM634 159q109 0 179 87t70 282q0 170 -66 257.5t-186 87.5
q-86 0 -140.5 -39t-81 -116t-27.5 -190q0 -198 60.5 -283.5t191.5 -85.5z" />
    <glyph glyph-name="c" unicode="c" horiz-adv-x="1091" 
d="M572 -20q-142 0 -252.5 62.5t-173.5 182t-63 288.5q0 161 59.5 282.5t169 190t260.5 68.5q121 0 213 -48t147.5 -133t66.5 -193h-207q-8 47 -35 89.5t-72.5 69t-110.5 26.5q-117 0 -189 -86t-72 -264q0 -164 68.5 -261t196.5 -97q64 0 110 28.5t72.5 71t33.5 85.5h202
q-9 -105 -65 -187t-148 -128.5t-211 -46.5z" />
    <glyph glyph-name="d" unicode="d" horiz-adv-x="1206" 
d="M522 -20q-205 0 -322 141t-117 401q0 162 47.5 281.5t140.5 185t229 65.5q64 0 116.5 -15.5t93.5 -40.5t69.5 -55t44.5 -60v603h245v-1486h-180l-27 212q-13 -37 -36.5 -77.5t-63 -75.5t-98.5 -57t-142 -22zM572 159q131 0 191.5 85.5t60.5 283.5q-1 113 -27.5 190
t-80.5 116t-141 39q-110 0 -180.5 -81t-70.5 -264q0 -182 65 -275.5t183 -93.5z" />
    <glyph glyph-name="e" unicode="e" horiz-adv-x="1144" 
d="M595 -20q-149 0 -262.5 63.5t-177 181.5t-63.5 281q0 159 57.5 282.5t167 194.5t264.5 71q153 0 257 -65t158 -181.5t54 -272.5v-74h-715q-1 -88 28 -156t86 -106.5t141 -38.5q86 0 149.5 38.5t84.5 117.5h222q-18 -108 -85.5 -183t-164 -114t-201.5 -39zM334 612h486
q0 75 -26.5 135.5t-79.5 96t-134 35.5q-80 0 -135 -39t-83 -100.5t-28 -127.5z" />
    <glyph glyph-name="f" unicode="f" horiz-adv-x="793" 
d="M264 0v862h-204v172h204v154q0 124 68.5 191t198.5 67h218l1 -166h-144q-59 0 -81 -30.5t-22 -95.5v-120h237v-172h-233v-862h-243z" />
    <glyph glyph-name="g" unicode="g" horiz-adv-x="1252" 
d="M598 -342q-261 0 -401 70t-140 192q0 55 27 92t64 61t68 37t40 19q-17 10 -45 26t-50.5 44t-22.5 73q0 52 49.5 96t148.5 63q-97 47 -149 127t-52 166q0 102 59.5 175t165.5 112t247 39q103 0 171.5 -23t127.5 -62q20 8 56 22.5t79 32t83 34t67 27.5l-1 -201l-179 -32
q13 -29 20.5 -63t7.5 -60q0 -90 -50.5 -166.5t-151 -122.5t-250.5 -46q-15 0 -41 1t-42 2q-81 -3 -111 -19t-30 -35q0 -27 45 -36t144 -16q35 -2 92 -5t127 -8q177 -11 268 -88.5t91 -200.5q0 -143 -132 -235t-400 -92zM639 -199q131 0 194 36t63 106q0 54 -43 88t-128 40
l-261 16q-43 3 -81.5 -15.5t-62.5 -51t-24 -71.5q0 -73 83.5 -110.5t259.5 -37.5zM595 533q95 0 154 48.5t59 137.5q0 92 -59 143.5t-154 51.5q-97 0 -156.5 -52t-59.5 -143q0 -86 57 -136t159 -50z" />
    <glyph glyph-name="h" unicode="h" horiz-adv-x="1170" 
d="M138 0v1486h240v-602q25 39 66 75.5t100.5 60t142.5 23.5q99 0 181 -38t131 -109.5t49 -170.5v-725h-244v684q0 80 -56.5 124t-142.5 44q-57 0 -109 -20t-83.5 -59.5t-31.5 -98.5v-674h-243z" />
    <glyph glyph-name="i" unicode="i" horiz-adv-x="516" 
d="M142 0v1034h233v-1034h-233zM138 1215v230h241v-230h-241z" />
    <glyph glyph-name="j" unicode="j" horiz-adv-x="553" 
d="M93 -332q-83 0 -107 13.5l-24 13.5l-1 162l91 6q65 8 91 36.5t26 88.5v1046h243v-1051q0 -158 -73.5 -236.5t-245.5 -78.5zM164 1215v230h252v-230h-252z" />
    <glyph glyph-name="k" unicode="k" horiz-adv-x="1143" 
d="M138 0v1486h242v-921l429 469h267l-374 -404l393 -630h-247l-300 479l-168 -176v-303h-242z" />
    <glyph glyph-name="l" unicode="l" horiz-adv-x="634" 
d="M436 -15q-100 0 -160 25t-90 67t-39 94.5t-9 107.5v1207h238v-1179q0 -67 27.5 -104t89.5 -43l52 -2v-153q-27 -8 -55 -14t-54 -6z" />
    <glyph glyph-name="m" unicode="m" horiz-adv-x="1763" 
d="M138 0v1034h237v-148q45 68 122.5 118t197.5 50q55 0 111.5 -19t105 -56t77.5 -92q49 73 130.5 120t183.5 47q56 0 115.5 -18t109.5 -60t81 -114.5t31 -181.5v-680h-243v651q0 77 -27 121t-69.5 62.5t-90.5 18.5q-43 0 -89.5 -17t-79 -56t-32.5 -105v-675h-243v690
q0 54 -28 90t-70.5 54.5t-86.5 18.5q-45 0 -91.5 -19t-77.5 -58t-31 -101v-675h-243z" />
    <glyph glyph-name="n" unicode="n" horiz-adv-x="1171" 
d="M138 0v1034h238v-148q24 40 65.5 77t102.5 60t143 23q96 0 178.5 -38t133 -119t50.5 -209v-680h-244v651q0 102 -56 151.5t-141 49.5q-58 0 -110 -19.5t-84.5 -59t-32.5 -98.5v-675h-243z" />
    <glyph glyph-name="o" unicode="o" horiz-adv-x="1142" 
d="M572 -20q-148 0 -258 63.5t-170.5 182.5t-60.5 286q0 162 59 284t168.5 190t262.5 68q148 0 257 -65t168.5 -186t59.5 -291q0 -157 -56.5 -276.5t-165 -187.5t-264.5 -68zM573 165q84 0 138.5 46t81.5 126t27 182q0 95 -24 175t-78.5 128.5t-144.5 48.5
q-85 0 -140.5 -44.5t-82.5 -124t-27 -183.5q0 -94 24 -174.5t79 -130t147 -49.5z" />
    <glyph glyph-name="p" unicode="p" horiz-adv-x="1204" 
d="M138 -322v1356h243l2 -163q20 34 51.5 67t73 59t92.5 41.5t112 15.5q119 0 211 -56.5t144.5 -173.5t52.5 -296q0 -183 -54 -305t-151 -182.5t-225 -60.5q-59 0 -107.5 16t-86.5 44t-66.5 61t-47.5 69v-492h-244zM636 162q110 0 182 87.5t72 274.5q0 162 -67.5 255.5
t-186.5 93.5q-128 0 -192 -98.5t-64 -250.5q0 -98 28.5 -180.5t85 -132t142.5 -49.5z" />
    <glyph glyph-name="q" unicode="q" horiz-adv-x="1204" 
d="M822 -322v492q-19 -36 -47.5 -69t-67 -61t-86.5 -44t-107 -16q-120 0 -218 56.5t-155.5 177t-57.5 314.5q0 170 49 287.5t140.5 178t219.5 60.5q60 0 111.5 -15.5t93 -41.5t72.5 -59t52 -67l2 163h243v-1356h-244zM568 162q85 0 142 49.5t85 132t28 180.5
q0 152 -63.5 250.5t-191.5 98.5q-109 0 -181.5 -87t-72.5 -262q0 -174 67.5 -268t186.5 -94z" />
    <glyph glyph-name="r" unicode="r" horiz-adv-x="805" 
d="M138 0v1034h233v-224q25 77 71.5 131.5t109.5 83.5t137 29q18 0 35 -2t25 -7v-233q-11 5 -28.5 7t-30.5 2q-75 6 -132.5 -6t-97 -40.5t-59.5 -72t-20 -101.5v-601h-243z" />
    <glyph glyph-name="s" unicode="s" horiz-adv-x="1035" 
d="M534 -20q-108 0 -204.5 34.5t-162 108.5t-82.5 191h214q14 -57 49.5 -93t84 -52.5t100.5 -16.5q93 0 150 32t57 99q0 49 -31.5 78t-102.5 44l-196 45q-132 29 -211 96t-80 189q-1 92 46 164t140 113.5t229 41.5q181 0 290.5 -80.5t112.5 -229.5h-207q-11 67 -63 104.5
t-135 37.5q-86 0 -141 -33t-55 -101q0 -47 41.5 -74t126.5 -46l186 -45q80 -20 131 -54t79.5 -74.5t40 -83t11.5 -78.5q0 -100 -51.5 -170.5t-145 -108.5t-221.5 -38z" />
    <glyph glyph-name="t" unicode="t" horiz-adv-x="808" 
d="M553 -8q-123 0 -190.5 32.5t-93.5 92.5t-26 143v602h-168v172h175l61 307h175v-306h231v-173h-231l1 -593q0 -46 10.5 -67.5t34 -28t62.5 -6.5h128v-154q-21 -8 -61.5 -14.5t-107.5 -6.5z" />
    <glyph glyph-name="u" unicode="u" horiz-adv-x="1177" 
d="M518 -20q-76 0 -146.5 22.5t-126.5 66t-89 107.5t-33 149v709h244v-681q0 -84 53.5 -138t161.5 -54q98 0 157 51.5t59 148.5v673h242v-1034h-187l-27 202q-19 -85 -66.5 -133.5t-111 -68.5t-130.5 -20z" />
    <glyph glyph-name="v" unicode="v" horiz-adv-x="1026" 
d="M418 0l-382 1034h223l248 -724h13l247 724h224l-381 -1034h-192z" />
    <glyph glyph-name="w" unicode="w" horiz-adv-x="1569" 
d="M368 0l-328 1034h219l215 -711h12l209 711h177l215 -710h12l208 710h223l-328 -1034h-210l-212 689l-207 -689h-205z" />
    <glyph glyph-name="x" unicode="x" horiz-adv-x="1154" 
d="M48 0l397 538l-364 496h258l239 -323l239 323h259l-367 -496l398 -538h-258l-272 368l-271 -368h-258z" />
    <glyph glyph-name="y" unicode="y" horiz-adv-x="1101" 
d="M273 -330q-100 0 -139 15.5l-39 15.5v156l104 -3q63 -3 102.5 7t61.5 27.5t32.5 37t16.5 33.5l27 76l-403 999h242l275 -731l274 731h238l-426 -1072q-48 -117 -103.5 -180.5t-121 -87.5t-141.5 -24z" />
    <glyph glyph-name="z" unicode="z" horiz-adv-x="978" 
d="M69 0v141l544 720h-519v173h811v-141l-543 -720h548v-173h-841z" />
    <glyph glyph-name="braceleft" unicode="{" horiz-adv-x="717" 
d="M535 -322q-78 0 -144 26t-105 76.5t-39 123.5v418q0 47 -24 88.5t-74 67t-128 25.5v131q118 1 172 51.5t54 137.5v401q0 72 40 121.5t104.5 75t139.5 25.5h125v-144h-80q-54 0 -80.5 -13t-35 -36.5t-8.5 -53.5v-410q-2 -72 -32.5 -117.5t-77 -68.5t-95.5 -28
q-12 -1 -12.5 -6t12.5 -7q48 -4 94.5 -25t77.5 -67.5t33 -127.5v-414q0 -55 26 -80.5t99 -25.5h79v-144h-121z" />
    <glyph glyph-name="bar" unicode="|" horiz-adv-x="532" 
d="M176 -322l-1 1974h182v-1974h-181z" />
    <glyph glyph-name="braceright" unicode="}" horiz-adv-x="720" 
d="M33 -322v144h80q73 0 99 25.5t26 80.5v414q1 81 32 127.5t77.5 67.5t94.5 25q14 2 13 7t-13 6q-49 5 -95 28t-77 68.5t-32 117.5v410q0 30 -8.5 53.5t-35 36.5t-80.5 13h-81v144h125q75 0 140 -25.5t105 -75t40 -121.5v-401q0 -87 53.5 -137.5t172.5 -51.5v-131
q-79 0 -128.5 -25.5t-73.5 -67t-24 -88.5v-418q0 -73 -39.5 -123.5t-105 -76.5t-144.5 -26h-121z" />
    <glyph glyph-name="asciitilde" unicode="~" horiz-adv-x="1184" 
d="M184 578l-69 127q65 67 133 113.5t162 46.5q59 0 106.5 -17.5t89 -39.5t83.5 -39.5t91 -17.5q73 0 123.5 38.5t83.5 88.5l72 -127q-44 -74 -116 -116.5t-160 -42.5q-59 0 -106.5 17.5t-89.5 40.5t-84.5 40t-92.5 17q-76 0 -129 -40.5t-97 -88.5z" />
    <glyph glyph-name="uni00A0" unicode="&#xa0;" horiz-adv-x="467" 
 />
    <glyph glyph-name="exclamdown" unicode="&#xa1;" horiz-adv-x="537" 
d="M117 -322l67 944h155l66 -944h-288zM123 758v276h274v-276h-274z" />
    <glyph glyph-name="cent" unicode="&#xa2;" horiz-adv-x="1105" 
d="M593 202q-142 0 -252.5 62.5t-173 182t-62.5 288.5q0 161 59 282.5t168.5 190t260.5 68.5q122 0 214 -48t147.5 -133t65.5 -193h-207q-8 47 -34.5 89.5t-72.5 69t-111 26.5q-116 0 -188.5 -86t-72.5 -264q0 -164 68.5 -261t196.5 -97q65 0 110.5 28.5t72 71t33.5 85.5
h203q-10 -105 -66 -187t-148 -128.5t-211 -46.5zM507 0v314h167v-314h-167zM507 1132v314h167v-314h-167z" />
    <glyph glyph-name="sterling" unicode="&#xa3;" horiz-adv-x="1264" 
d="M36 0v205h71q76 0 125.5 55.5t49.5 180.5q0 50 -4.5 103.5t-16.5 137.5h-203v142h175l-24 173q-19 113 9.5 199.5t91 147t148.5 91.5t182 31q103 0 190 -33t152 -92t99 -139l-214 -69q-32 69 -75.5 101.5t-116.5 32.5q-56 0 -100.5 -22.5t-70 -65.5t-25.5 -105
q0 -48 10.5 -112t28.5 -137h306v-142h-287q8 -69 9.5 -118.5t-6.5 -100.5q-6 -71 -23.5 -119t-42 -81t-50.5 -57h305q99 0 153 36t87 124l207 -48q-47 -159 -154.5 -239t-275.5 -80h-710z" />
    <glyph glyph-name="currency" unicode="&#xa4;" horiz-adv-x="1121" 
d="M195 261l-107 112l126 125q-35 53 -52 107.5t-17 121.5q0 120 60 213q9 18 -4 30l-113 114l108 110l128 -129q49 34 108 53t119 19q121 0 220 -64q14 -8 24 2l109 110l107 -110l-120 -119q34 -51 52.5 -108t18.5 -120q0 -58 -16 -115t-48 -103q-7 -11 1 -18l113 -110
l-107 -110l-119 119q-51 -34 -109 -54t-121 -20q-120 0 -218 62q-17 11 -29 -3zM555 486q69 0 124 34t86 89t31 119q0 63 -31 118t-86 89.5t-124 34.5t-123.5 -34.5t-86.5 -89.5t-32 -118q0 -64 32 -119t86.5 -89t123.5 -34z" />
    <glyph glyph-name="yen" unicode="&#xa5;" horiz-adv-x="1275" 
d="M505 0v604l-507 842h316l353 -616l352 616h258l-495 -808v-638h-277zM204 243v139l879 1v-139zM204 547v140l879 1v-140z" />
    <glyph glyph-name="brokenbar" unicode="&#xa6;" horiz-adv-x="532" 
d="M176 843l-1 809h182v-809h-181zM176 -322l-1 809h182v-809h-181z" />
    <glyph glyph-name="section" unicode="&#xa7;" horiz-adv-x="1005" 
d="M510 -150q-107 0 -196.5 31t-153.5 83.5t-97 117.5l154 78q43 -62 114 -108t177 -46q86 0 142 31.5t56 92.5q0 44 -36 82.5t-138 78.5l-161 61q-150 57 -217.5 129t-67.5 178q0 93 51.5 159t133.5 103q-68 38 -106 78t-53 82.5t-15 88.5q0 84 47.5 151t135 106t207.5 39
q97 0 177.5 -30t138.5 -78.5t89 -103.5l-154 -79q-44 54 -103 94.5t-139 40.5q-84 0 -131.5 -32t-47.5 -85q0 -39 33 -72t99 -59l160 -63q163 -63 235 -139.5t72 -188.5q0 -96 -48.5 -157t-120.5 -101q91 -51 135 -111t44 -143q0 -90 -49 -159.5t-142 -109.5t-225 -40z
M561 496q44 -4 79 15t54.5 52.5t16.5 74.5q-3 51 -36 89.5t-124 73.5l-98 38q-50 -4 -86.5 -25t-57.5 -53t-21 -68q0 -48 32 -80t132 -72z" />
    <glyph glyph-name="dieresis" unicode="&#xa8;" horiz-adv-x="685" 
d="M441 1235l2 211h232l-3 -211h-231zM10 1235l2 211h232l-3 -211h-231z" />
    <glyph glyph-name="copyright" unicode="&#xa9;" horiz-adv-x="1649" 
d="M819 -20q-154 0 -289 57.5t-237 159.5t-159.5 237t-57.5 290q0 153 57.5 287.5t159.5 236.5t237 160t289 58q153 0 287.5 -58t237 -160t160.5 -236.5t58 -287.5q0 -155 -58 -290t-160.5 -237t-237 -159.5t-287.5 -57.5zM824 312q-115 0 -203 52.5t-138 145.5t-50 216
q0 124 50.5 218t139 147t201.5 53q91 0 159 -36t112.5 -91.5t69.5 -115.5l-173 -27q-25 55 -62 94.5t-99 39.5q-88 0 -143 -71.5t-55 -206.5q0 -139 57.5 -210.5t149.5 -71.5q72 0 119.5 41t80.5 104l126 -37q-15 -39 -44 -81.5t-70.5 -79.5t-98 -60t-129.5 -23zM819 126
q124 0 230.5 41.5t186.5 120t124.5 189t44.5 247.5q0 135 -44.5 245t-124.5 189.5t-186.5 122.5t-230.5 43q-127 0 -233.5 -43t-185.5 -122.5t-123 -189.5t-44 -245q0 -137 44 -247.5t123 -189t185.5 -120t233.5 -41.5z" />
    <glyph glyph-name="ordfeminine" unicode="&#xaa;" horiz-adv-x="816" 
d="M307 793q-103 0 -159 50t-56 132q0 97 87.5 155.5t245.5 65.5l92 7v44q0 61 -36 84.5t-86 23.5q-46 0 -82.5 -18t-64.5 -71l-140 33q36 80 104 122t190 42q145 0 207.5 -56.5t62.5 -154.5v-137v-106q0 -14 1 -39t2.5 -52.5t4.5 -47.5l13 -65h-161l-16 77
q-53 -45 -100 -67t-109 -22zM366 899q66 0 112 42q18 16 28.5 31.5t10.5 36.5v101l-77 -5q-90 -5 -139 -36.5t-49 -83.5q0 -39 31 -62.5t83 -23.5z" />
    <glyph glyph-name="guillemotleft" unicode="&#xab;" horiz-adv-x="958" 
d="M708 134l-249 368l249 384h134l-181 -384l179 -368h-132zM340 134l-248 368l248 384h133l-180 -384l178 -368h-131z" />
    <glyph glyph-name="logicalnot" unicode="&#xac;" horiz-adv-x="1146" 
d="M119 636v181l908 1v-181zM827 342l-1 417h201v-417h-200z" />
    <glyph glyph-name="uni00AD" unicode="&#xad;" horiz-adv-x="772" 
d="M122 424v182l528 1v-182z" />
    <glyph glyph-name="registered" unicode="&#xae;" horiz-adv-x="1093" 
d="M542 536q-130 0 -235.5 62t-168 167.5t-62.5 234.5t62.5 235t168 168.5t235.5 62.5q128 0 233.5 -62.5t168 -168.5t62.5 -235t-62.5 -234.5t-168 -167.5t-233.5 -62zM542 641q104 0 183 44.5t123 125t44 189.5t-44 190t-123 126t-183 45q-106 0 -185.5 -45t-123 -126
t-43.5 -190t43.5 -189.5t123 -125t185.5 -44.5zM358 767v461h213q80 0 124 -30.5t44 -89.5q0 -51 -28.5 -80.5t-65.5 -43.5l90 -217h-111l-73 206h-91v-206h-102zM460 1048h103q30 0 50.5 12.5t20.5 40.5q0 23 -18 38t-59 15h-97v-106z" />
    <glyph glyph-name="macron" unicode="&#xaf;" horiz-adv-x="727" 
d="M31 1219v161h654v-161h-654z" />
    <glyph glyph-name="degree" unicode="&#xb0;" horiz-adv-x="938" 
d="M464 1021q-94 0 -167.5 41.5t-115.5 115t-42 168.5t42 169t115.5 116t167.5 42q93 0 166.5 -42t116 -116t42.5 -169t-42.5 -168.5t-116 -115t-166.5 -41.5zM462 1163q79 0 125 51t46 130t-46 129.5t-127 50.5q-79 0 -126 -50.5t-46 -129.5q2 -79 48 -130t126 -51z" />
    <glyph glyph-name="plusminus" unicode="&#xb1;" horiz-adv-x="1146" 
d="M119 92v180l908 1v-180zM664 980l363 1v-182h-363v-362h-180l-1 362h-364v181h364v364h181v-364z" />
    <glyph glyph-name="uni00B2" unicode="&#xb2;" horiz-adv-x="761" 
d="M61 747v84v42q0 81 34.5 137t89 96t115.5 71.5t115 62t88.5 69t34.5 91.5q0 60 -42.5 97.5t-114.5 37.5q-73 0 -124.5 -42.5t-60.5 -126.5h-152q0 84 38.5 152.5t114.5 109.5t189 41q147 0 232 -74t85 -194q0 -81 -34 -136t-86.5 -93t-112.5 -67t-113 -57.5t-87 -65
t-34 -89.5v-10h469v-136h-644z" />
    <glyph glyph-name="uni00B3" unicode="&#xb3;" horiz-adv-x="829" 
d="M399 736q-156 1 -245 79t-91 209h153q13 -81 63.5 -119t122.5 -38q91 0 143.5 39t52.5 102q0 64 -53 103.5t-143 40.5l-86 3v129l79 3q52 1 93 19.5t64 48.5t23 68q0 52 -47 86t-126 34q-45 0 -85 -16t-65.5 -51.5t-27.5 -94.5h-152q-1 93 42.5 157t119 98t170.5 34
q99 0 175 -27t119.5 -80t43.5 -134q0 -67 -39.5 -119t-123.5 -82q78 -23 132.5 -78t54.5 -146q0 -87 -49 -147t-132 -90.5t-186 -30.5z" />
    <glyph glyph-name="acute" unicode="&#xb4;" horiz-adv-x="486" 
d="M10 1155l206 291h260l-286 -291h-180z" />
    <glyph glyph-name="uni00B5" unicode="&#xb5;" horiz-adv-x="1191" 
d="M123 -330v1390h249v-688q0 -44 24.5 -80t66 -57.5t94.5 -21.5q73 0 135 42.5t109 113.5v691h253l-4 -1060h-243v164q-68 -63 -123.5 -94.5t-119.5 -37.5q-51 -5 -99.5 3t-92.5 36v-401h-249z" />
    <glyph glyph-name="paragraph" unicode="&#xb6;" horiz-adv-x="1162" 
d="M499 -166v762q-120 7 -214 59.5t-148 144.5t-54 214q0 115 52.5 213.5t156 158.5t254.5 60h493v-142h-123v-1470h-154v1470h-109v-1470h-154z" />
    <glyph glyph-name="periodcentered" unicode="&#xb7;" horiz-adv-x="491" 
d="M104 600v257h267v-257h-267z" />
    <glyph glyph-name="cedilla" unicode="&#xb8;" horiz-adv-x="508" 
d="M238 -419q-58 0 -111.5 12t-99.5 40l35 89q29 -19 66 -33.5t81 -14.5q51 0 77 17.5t26 49.5q0 41 -37.5 62t-127.5 22q-11 0 -14.5 3.5t0.5 13.5l73 168h115l-46 -119q72 -2 114 -25.5t60 -57.5t18 -68q0 -51 -31.5 -86.5t-83.5 -54t-114 -18.5z" />
    <glyph glyph-name="uni00B9" unicode="&#xb9;" horiz-adv-x="498" 
d="M212 744v697h-168v96q117 -1 165.5 28.5t53.5 88.5h109v-910h-160z" />
    <glyph glyph-name="ordmasculine" unicode="&#xba;" horiz-adv-x="809" 
d="M404 795q-98 0 -170.5 42.5t-111.5 117.5t-39 172q0 101 41 177t113.5 118.5t166.5 42.5q98 0 170 -43t112 -119.5t40 -175.5q0 -97 -39.5 -172t-112 -117.5t-170.5 -42.5zM404 908q77 0 115.5 58t38.5 166q0 106 -38.5 163t-115.5 57q-76 0 -114 -57t-38 -163
q0 -108 38 -166t114 -58z" />
    <glyph glyph-name="guillemotright" unicode="&#xbb;" horiz-adv-x="992" 
d="M492 134l179 368l-181 384h133l248 -384l-248 -368h-131zM124 134l179 368l-181 384h133l248 -384l-248 -368h-131z" />
    <glyph glyph-name="onequarter" unicode="&#xbc;" horiz-adv-x="1626" 
d="M212 536v697h-168v96q117 -1 165.5 28.5t53.5 88.5h109v-910h-160zM369 -8l-150 2l975 1468h147zM1285 2l1 214h-420v133l416 563h156v-562h145v-134h-145v-214h-153zM1015 350h270v363z" />
    <glyph glyph-name="onehalf" unicode="&#xbd;" horiz-adv-x="1771" 
d="M212 536v697h-168v96q117 -1 165.5 28.5t53.5 88.5h109v-910h-160zM369 -8l-150 2l975 1468h147zM1071 -1v84v42q0 81 34.5 137t89 96t115.5 71.5t115 62t88.5 69t34.5 91.5q0 60 -42.5 97.5t-114.5 37.5q-73 0 -124.5 -42.5t-60.5 -126.5h-152q0 84 38.5 152.5
t114.5 109.5t189 41q147 0 232 -74t85 -194q0 -81 -34 -136t-86.5 -93t-112.5 -67t-113 -57.5t-87 -65t-34 -89.5v-10h469v-136h-644z" />
    <glyph glyph-name="threequarters" unicode="&#xbe;" horiz-adv-x="1881" 
d="M399 526q-156 1 -245 79t-91 209h153q13 -81 63.5 -119t122.5 -38q91 0 143.5 39t52.5 102q0 64 -53 103.5t-143 40.5l-86 3v129l79 3q52 1 93 19.5t64 48.5t23 68q0 52 -47 86t-126 34q-45 0 -85 -16t-65.5 -51.5t-27.5 -94.5h-152q-1 93 42.5 157t119 98t170.5 34
q99 0 175 -27t119.5 -80t43.5 -134q0 -67 -39.5 -119t-123.5 -82q78 -23 132.5 -78t54.5 -146q0 -87 -49 -147t-132 -90.5t-186 -30.5zM624 -8l-150 2l975 1468h147zM1540 2l1 214h-420v133l416 563h156v-562h145v-134h-145v-214h-153zM1270 350h270v363z" />
    <glyph glyph-name="questiondown" unicode="&#xbf;" horiz-adv-x="1064" 
d="M526 -342q-150 0 -252.5 45.5t-155.5 123.5t-53 176q0 82 28.5 139.5t72.5 102t94.5 82.5t94.5 79.5t72.5 95t28.5 126.5h201q0 -87 -25 -151.5t-64.5 -113.5t-84 -88.5t-84.5 -78t-65 -82t-25 -99.5q0 -80 61.5 -129t157.5 -49q59 0 115.5 24t100.5 66.5t66 97.5
l210 -55q-63 -148 -191.5 -230t-302.5 -82zM420 758v276h275v-276h-275z" />
    <glyph glyph-name="Agrave" unicode="&#xc0;" horiz-adv-x="1438" 
d="M68 0l519 1446h264l519 -1446h-244l-129 363h-554l-130 -363h-245zM501 579h435l-217 631zM631 1567l-286 291h259l206 -291h-179z" />
    <glyph glyph-name="Aacute" unicode="&#xc1;" horiz-adv-x="1438" 
d="M68 0l519 1446h264l519 -1446h-244l-129 363h-554l-130 -363h-245zM501 579h435l-217 631zM623 1567l206 291h260l-286 -291h-180z" />
    <glyph glyph-name="Acircumflex" unicode="&#xc2;" horiz-adv-x="1438" 
d="M68 0l519 1446h264l519 -1446h-244l-129 363h-554l-130 -363h-245zM501 579h435l-217 631zM376 1567l258 244h170l252 -244h-204l-135 135l-149 -135h-192z" />
    <glyph glyph-name="Atilde" unicode="&#xc3;" horiz-adv-x="1438" 
d="M68 0l519 1446h264l519 -1446h-244l-129 363h-554l-130 -363h-245zM501 579h435l-217 631zM438 1616l-40 133q35 34 76.5 59t104.5 25q53 0 100 -14.5t91.5 -29.5t89.5 -15q49 0 86 20t68 43l34 -150q-29 -22 -76 -43t-112 -21q-55 0 -98.5 13.5t-84.5 27t-89 13.5
q-50 0 -82 -16.5t-68 -44.5z" />
    <glyph glyph-name="Adieresis" unicode="&#xc4;" horiz-adv-x="1438" 
d="M68 0l519 1446h264l519 -1446h-244l-129 363h-554l-130 -363h-245zM501 579h435l-217 631zM818 1647l2 211h232l-3 -211h-231zM387 1647l2 211h232l-3 -211h-231z" />
    <glyph glyph-name="Aring" unicode="&#xc5;" horiz-adv-x="1438" 
d="M68 0l519 1446h264l519 -1446h-244l-129 363h-554l-130 -363h-245zM501 579h435l-217 631zM720 1556q-89 0 -150.5 62.5t-61.5 153.5q0 85 62.5 145t149.5 60q59 0 107.5 -28t77 -75.5t28.5 -105.5q0 -90 -62 -151t-151 -61zM718 1661q43 0 72.5 32t29.5 74
q0 44 -29.5 73t-72.5 29q-42 0 -73.5 -29t-31.5 -73q0 -42 31.5 -74t73.5 -32z" />
    <glyph glyph-name="AE" unicode="&#xc6;" horiz-adv-x="2020" 
d="M0 0l786 1446h1101l-1 -205h-687v-410h604v-204h-604v-420h710v-207h-987v366h-478l-198 -366h-246zM537 579h385v702z" />
    <glyph glyph-name="Ccedilla" unicode="&#xc7;" horiz-adv-x="1409" 
d="M722 -419q-58 0 -111.5 12t-100.5 40l36 89q29 -19 66 -33.5t81 -14.5q50 0 76.5 17.5t26.5 49.5q0 41 -37.5 62t-127.5 22q-11 0 -15 3.5t1 13.5l73 168h115l-46 -119q72 -2 114 -25.5t60 -57.5t18 -68q0 -51 -32 -86.5t-84 -54t-113 -18.5zM738 -20q-199 0 -341.5 91.5
t-219 260t-76.5 400.5q0 231 76 395t218.5 251.5t342.5 87.5q159 0 282 -64.5t198.5 -174.5t89.5 -245h-257q-15 80 -55.5 143t-106.5 100t-158 37q-115 0 -195.5 -54.5t-123 -172.5t-42.5 -306q0 -285 94 -415t267 -130q92 0 158 40.5t106.5 108t55.5 147.5h257
q-12 -98 -49.5 -188t-105.5 -160.5t-170.5 -111t-244.5 -40.5z" />
    <glyph glyph-name="Egrave" unicode="&#xc8;" horiz-adv-x="1257" 
d="M175 0v1446h956l-1 -209h-710v-405h627v-206h-629v-414l727 -1v-211h-970zM567 1567l-286 291h259l206 -291h-179z" />
    <glyph glyph-name="Eacute" unicode="&#xc9;" horiz-adv-x="1257" 
d="M175 0v1446h956l-1 -209h-710v-405h627v-206h-629v-414l727 -1v-211h-970zM559 1567l206 291h260l-286 -291h-180z" />
    <glyph glyph-name="Ecircumflex" unicode="&#xca;" horiz-adv-x="1257" 
d="M175 0v1446h956l-1 -209h-710v-405h627v-206h-629v-414l727 -1v-211h-970zM313 1567l258 244h170l252 -244h-204l-135 135l-149 -135h-192z" />
    <glyph glyph-name="Edieresis" unicode="&#xcb;" horiz-adv-x="1257" 
d="M175 0v1446h956l-1 -209h-710v-405h627v-206h-629v-414l727 -1v-211h-970zM754 1647l2 211h232l-3 -211h-231zM323 1647l2 211h232l-3 -211h-231z" />
    <glyph glyph-name="Igrave" unicode="&#xcc;" horiz-adv-x="593" 
d="M175 0v1446h243v-1446h-243zM209 1567l-286 291h259l206 -291h-179z" />
    <glyph glyph-name="Iacute" unicode="&#xcd;" horiz-adv-x="593" 
d="M175 0v1446h243v-1446h-243zM201 1567l206 291h260l-286 -291h-180z" />
    <glyph glyph-name="Icircumflex" unicode="&#xce;" horiz-adv-x="593" 
d="M175 0v1446h243v-1446h-243zM-44 1567l258 244h170l252 -244h-204l-135 135l-149 -135h-192z" />
    <glyph glyph-name="Idieresis" unicode="&#xcf;" horiz-adv-x="593" 
d="M175 0v1446h243v-1446h-243zM396 1647l2 211h232l-3 -211h-231zM-35 1647l2 211h232l-3 -211h-231z" />
    <glyph glyph-name="Eth" unicode="&#xd0;" horiz-adv-x="1460" 
d="M70 629v184h703v-184h-703zM219 0v1446h52.5h104.5t123 -0.5t108 -1.5q265 -5 430.5 -90.5t243 -243t77.5 -379.5q0 -232 -82.5 -395t-252 -249.5t-430.5 -86.5h-374zM466 201h131q149 0 263 51.5t178.5 167.5t64.5 310q0 188 -60 301t-172 163.5t-269 50.5h-136v-1044z
" />
    <glyph glyph-name="Ntilde" unicode="&#xd1;" horiz-adv-x="1539" 
d="M175 0v1446h238l708 -1033v1033h243v-1446h-219l-727 1061v-1061h-243zM488 1616l-40 133q35 34 76.5 59t104.5 25q53 0 100 -14.5t91.5 -29.5t89.5 -15q49 0 86 20t68 43l34 -150q-29 -22 -76 -43t-112 -21q-55 0 -98.5 13.5t-84.5 27t-89 13.5q-50 0 -82 -16.5
t-68 -44.5z" />
    <glyph glyph-name="Ograve" unicode="&#xd2;" horiz-adv-x="1497" 
d="M751 -20q-200 0 -345.5 88t-225 254t-79.5 398q0 234 80 401t226.5 256t343.5 89t341.5 -89t223.5 -256t79 -401q0 -232 -78 -397.5t-223 -254t-343 -88.5zM751 184q118 0 203 55.5t130.5 173t45.5 304.5q0 190 -46 310.5t-131 177.5t-202 57q-118 0 -203.5 -57.5
t-132.5 -178t-47 -309.5q0 -187 47 -304.5t132.5 -173t203.5 -55.5zM662 1567l-286 291h259l206 -291h-179z" />
    <glyph glyph-name="Oacute" unicode="&#xd3;" horiz-adv-x="1497" 
d="M751 -20q-200 0 -345.5 88t-225 254t-79.5 398q0 234 80 401t226.5 256t343.5 89t341.5 -89t223.5 -256t79 -401q0 -232 -78 -397.5t-223 -254t-343 -88.5zM751 184q118 0 203 55.5t130.5 173t45.5 304.5q0 190 -46 310.5t-131 177.5t-202 57q-118 0 -203.5 -57.5
t-132.5 -178t-47 -309.5q0 -187 47 -304.5t132.5 -173t203.5 -55.5zM654 1567l206 291h260l-286 -291h-180z" />
    <glyph glyph-name="Ocircumflex" unicode="&#xd4;" horiz-adv-x="1497" 
d="M751 -20q-200 0 -345.5 88t-225 254t-79.5 398q0 234 80 401t226.5 256t343.5 89t341.5 -89t223.5 -256t79 -401q0 -232 -78 -397.5t-223 -254t-343 -88.5zM751 184q118 0 203 55.5t130.5 173t45.5 304.5q0 190 -46 310.5t-131 177.5t-202 57q-118 0 -203.5 -57.5
t-132.5 -178t-47 -309.5q0 -187 47 -304.5t132.5 -173t203.5 -55.5zM409 1567l258 244h170l252 -244h-204l-135 135l-149 -135h-192z" />
    <glyph glyph-name="Otilde" unicode="&#xd5;" horiz-adv-x="1497" 
d="M751 -20q-200 0 -345.5 88t-225 254t-79.5 398q0 234 80 401t226.5 256t343.5 89t341.5 -89t223.5 -256t79 -401q0 -232 -78 -397.5t-223 -254t-343 -88.5zM751 184q118 0 203 55.5t130.5 173t45.5 304.5q0 190 -46 310.5t-131 177.5t-202 57q-118 0 -203.5 -57.5
t-132.5 -178t-47 -309.5q0 -187 47 -304.5t132.5 -173t203.5 -55.5zM470 1616l-40 133q35 34 76.5 59t104.5 25q53 0 100 -14.5t91.5 -29.5t89.5 -15q49 0 86 20t68 43l34 -150q-29 -22 -76 -43t-112 -21q-55 0 -98.5 13.5t-84.5 27t-89 13.5q-50 0 -82 -16.5t-68 -44.5z
" />
    <glyph glyph-name="Odieresis" unicode="&#xd6;" horiz-adv-x="1497" 
d="M751 -20q-200 0 -345.5 88t-225 254t-79.5 398q0 234 80 401t226.5 256t343.5 89t341.5 -89t223.5 -256t79 -401q0 -232 -78 -397.5t-223 -254t-343 -88.5zM751 184q118 0 203 55.5t130.5 173t45.5 304.5q0 190 -46 310.5t-131 177.5t-202 57q-118 0 -203.5 -57.5
t-132.5 -178t-47 -309.5q0 -187 47 -304.5t132.5 -173t203.5 -55.5zM850 1647l2 211h232l-3 -211h-231zM419 1647l2 211h232l-3 -211h-231z" />
    <glyph glyph-name="multiply" unicode="&#xd7;" horiz-adv-x="1120" 
d="M249 288l-128 130l749 750l129 -128zM869 288l-750 750l128 128l751 -748z" />
    <glyph glyph-name="Oslash" unicode="&#xd8;" horiz-adv-x="1529" 
d="M164 -27l-115 116l168 179q-51 88 -78.5 201t-27.5 249q0 235 79.5 402t225.5 256.5t344 89.5q136 0 246 -42t192 -123l162 170l115 -114l-175 -187q52 -88 79 -201t27 -249q0 -232 -78.5 -398t-224 -254t-344.5 -88q-135 0 -245 41t-191 118zM761 181q159 0 243.5 103
t95.5 320q7 90 1 175.5t-23 170.5l-587 -641q88 -128 270 -128zM438 487l589 643q-43 71 -109.5 104t-157.5 33q-162 0 -249 -111t-99 -344q-4 -86 2.5 -167t23.5 -158z" />
    <glyph glyph-name="Ugrave" unicode="&#xd9;" horiz-adv-x="1427" 
d="M730 -20q-200 0 -322.5 66.5t-177.5 192t-55 303.5v904h249v-929q0 -168 82.5 -248t223.5 -80q95 0 165 35t108 107.5t38 185.5v929h246v-918q0 -172 -56 -294.5t-178.5 -188t-322.5 -65.5zM643 1567l-286 291h259l206 -291h-179z" />
    <glyph glyph-name="Uacute" unicode="&#xda;" horiz-adv-x="1427" 
d="M730 -20q-200 0 -322.5 66.5t-177.5 192t-55 303.5v904h249v-929q0 -168 82.5 -248t223.5 -80q95 0 165 35t108 107.5t38 185.5v929h246v-918q0 -172 -56 -294.5t-178.5 -188t-322.5 -65.5zM636 1567l206 291h260l-286 -291h-180z" />
    <glyph glyph-name="Ucircumflex" unicode="&#xdb;" horiz-adv-x="1427" 
d="M730 -20q-200 0 -322.5 66.5t-177.5 192t-55 303.5v904h249v-929q0 -168 82.5 -248t223.5 -80q95 0 165 35t108 107.5t38 185.5v929h246v-918q0 -172 -56 -294.5t-178.5 -188t-322.5 -65.5zM390 1567l258 244h170l252 -244h-204l-135 135l-149 -135h-192z" />
    <glyph glyph-name="Udieresis" unicode="&#xdc;" horiz-adv-x="1427" 
d="M730 -20q-200 0 -322.5 66.5t-177.5 192t-55 303.5v904h249v-929q0 -168 82.5 -248t223.5 -80q95 0 165 35t108 107.5t38 185.5v929h246v-918q0 -172 -56 -294.5t-178.5 -188t-322.5 -65.5zM831 1647l2 211h232l-3 -211h-231zM400 1647l2 211h232l-3 -211h-231z" />
    <glyph glyph-name="Yacute" unicode="&#xdd;" horiz-adv-x="1280" 
d="M519 0v612l-498 834h264l357 -622l351 622h266l-497 -835v-611h-243zM570 1569l206 291h260l-286 -291h-180z" />
    <glyph glyph-name="Thorn" unicode="&#xde;" horiz-adv-x="1334" 
d="M175 0v1446h247v-286h309q159 0 282 -45.5t193 -138t70 -234.5q0 -143 -69.5 -238.5t-191.5 -143t-279 -47.5h-314v-313h-247zM422 517h305q88 0 154.5 22t103.5 71.5t37 133.5q0 78 -37.5 124.5t-105 67t-159.5 20.5h-298v-439z" />
    <glyph glyph-name="germandbls" unicode="&#xdf;" horiz-adv-x="1220" 
d="M727 -20q-78 0 -149.5 18.5t-120.5 49.5l77 154q37 -22 78.5 -41t103.5 -19q89 0 144.5 42t55.5 121q0 57 -28.5 92t-77.5 58t-111 45q-55 22 -104 52t-79.5 76t-30.5 116q0 76 39 126t108 95q35 26 68 51t55 56t22 76q0 60 -45 97.5t-129 37.5q-102 0 -163.5 -62.5
t-61.5 -176.5v-1044h-238l-2 999q1 92 30 173t87 142.5t148 96.5t215 35q130 0 214.5 -37.5t126 -102.5t41.5 -148q0 -73 -30 -123t-86.5 -87t-134.5 -72q-43 -23 -61.5 -38t-18.5 -41q0 -25 17.5 -37t61.5 -27q65 -26 133.5 -57t126.5 -75t93.5 -109.5t35.5 -161.5
q0 -114 -52.5 -192t-145 -118t-212.5 -40z" />
    <glyph glyph-name="agrave" unicode="&#xe0;" horiz-adv-x="1120" 
d="M437 -20q-99 0 -177.5 36.5t-123 105t-44.5 166.5q0 171 123.5 258t393.5 91l155 4v70q0 82 -48.5 128.5t-150.5 45.5q-76 -1 -138 -35.5t-82 -115.5h-207q6 106 61.5 177.5t152.5 107t224 35.5q148 0 241 -39t137 -112.5t44 -177.5v-725h-205l-20 186
q-55 -117 -140.5 -161.5t-195.5 -44.5zM516 145q45 0 89 16.5t79.5 45t57 63.5t22.5 73v163l-127 -2q-94 -1 -164.5 -20t-109.5 -60.5t-39 -110.5q0 -79 55 -123.5t137 -44.5zM489 1155l-286 291h259l206 -291h-179z" />
    <glyph glyph-name="aacute" unicode="&#xe1;" horiz-adv-x="1120" 
d="M437 -20q-99 0 -177.5 36.5t-123 105t-44.5 166.5q0 171 123.5 258t393.5 91l155 4v70q0 82 -48.5 128.5t-150.5 45.5q-76 -1 -138 -35.5t-82 -115.5h-207q6 106 61.5 177.5t152.5 107t224 35.5q148 0 241 -39t137 -112.5t44 -177.5v-725h-205l-20 186
q-55 -117 -140.5 -161.5t-195.5 -44.5zM516 145q45 0 89 16.5t79.5 45t57 63.5t22.5 73v163l-127 -2q-94 -1 -164.5 -20t-109.5 -60.5t-39 -110.5q0 -79 55 -123.5t137 -44.5zM482 1155l206 291h260l-286 -291h-180z" />
    <glyph glyph-name="acircumflex" unicode="&#xe2;" horiz-adv-x="1120" 
d="M437 -20q-99 0 -177.5 36.5t-123 105t-44.5 166.5q0 171 123.5 258t393.5 91l155 4v70q0 82 -48.5 128.5t-150.5 45.5q-76 -1 -138 -35.5t-82 -115.5h-207q6 106 61.5 177.5t152.5 107t224 35.5q148 0 241 -39t137 -112.5t44 -177.5v-725h-205l-20 186
q-55 -117 -140.5 -161.5t-195.5 -44.5zM516 145q45 0 89 16.5t79.5 45t57 63.5t22.5 73v163l-127 -2q-94 -1 -164.5 -20t-109.5 -60.5t-39 -110.5q0 -79 55 -123.5t137 -44.5zM236 1155l258 244h170l252 -244h-204l-135 135l-149 -135h-192z" />
    <glyph glyph-name="atilde" unicode="&#xe3;" horiz-adv-x="1120" 
d="M437 -20q-99 0 -177.5 36.5t-123 105t-44.5 166.5q0 171 123.5 258t393.5 91l155 4v70q0 82 -48.5 128.5t-150.5 45.5q-76 -1 -138 -35.5t-82 -115.5h-207q6 106 61.5 177.5t152.5 107t224 35.5q148 0 241 -39t137 -112.5t44 -177.5v-725h-205l-20 186
q-55 -117 -140.5 -161.5t-195.5 -44.5zM516 145q45 0 89 16.5t79.5 45t57 63.5t22.5 73v163l-127 -2q-94 -1 -164.5 -20t-109.5 -60.5t-39 -110.5q0 -79 55 -123.5t137 -44.5zM297 1204l-40 133q35 34 76.5 59t104.5 25q53 0 100 -14.5t91.5 -29.5t89.5 -15q49 0 86 20
t68 43l34 -150q-29 -22 -76 -43t-112 -21q-55 0 -98.5 13.5t-84.5 27t-89 13.5q-50 0 -82 -16.5t-68 -44.5z" />
    <glyph glyph-name="adieresis" unicode="&#xe4;" horiz-adv-x="1120" 
d="M437 -20q-99 0 -177.5 36.5t-123 105t-44.5 166.5q0 171 123.5 258t393.5 91l155 4v70q0 82 -48.5 128.5t-150.5 45.5q-76 -1 -138 -35.5t-82 -115.5h-207q6 106 61.5 177.5t152.5 107t224 35.5q148 0 241 -39t137 -112.5t44 -177.5v-725h-205l-20 186
q-55 -117 -140.5 -161.5t-195.5 -44.5zM516 145q45 0 89 16.5t79.5 45t57 63.5t22.5 73v163l-127 -2q-94 -1 -164.5 -20t-109.5 -60.5t-39 -110.5q0 -79 55 -123.5t137 -44.5zM677 1235l2 211h232l-3 -211h-231zM246 1235l2 211h232l-3 -211h-231z" />
    <glyph glyph-name="aring" unicode="&#xe5;" horiz-adv-x="1120" 
d="M437 -20q-99 0 -177.5 36.5t-123 105t-44.5 166.5q0 171 123.5 258t393.5 91l155 4v70q0 82 -48.5 128.5t-150.5 45.5q-76 -1 -138 -35.5t-82 -115.5h-207q6 106 61.5 177.5t152.5 107t224 35.5q148 0 241 -39t137 -112.5t44 -177.5v-725h-205l-20 186
q-55 -117 -140.5 -161.5t-195.5 -44.5zM516 145q45 0 89 16.5t79.5 45t57 63.5t22.5 73v163l-127 -2q-94 -1 -164.5 -20t-109.5 -60.5t-39 -110.5q0 -79 55 -123.5t137 -44.5zM578 1144q-89 0 -150.5 62.5t-61.5 153.5q0 85 62.5 145t149.5 60q59 0 107.5 -28t77 -75.5
t28.5 -105.5q0 -90 -62 -151t-151 -61zM576 1249q43 0 72.5 32t29.5 74q0 44 -29.5 73t-72.5 29q-42 0 -73.5 -29t-31.5 -73q0 -42 31.5 -74t73.5 -32z" />
    <glyph glyph-name="ae" unicode="&#xe6;" horiz-adv-x="1827" 
d="M437 -20q-99 0 -177.5 36.5t-123 105t-44.5 166.5q0 171 124 258t394 91l154 4v70q0 85 -53.5 130t-145.5 44q-75 -1 -137.5 -37t-82.5 -114h-207q5 99 61 171t153 110.5t224 38.5q130 0 220 -39t135 -109q57 71 141.5 109.5t192.5 38.5q152 0 256.5 -65t158.5 -181.5
t54 -272.5v-74h-716q0 -88 29 -156t86 -106.5t141 -38.5q86 0 149 38.5t84 117.5h223q-18 -108 -86 -183t-164 -114t-201 -39q-143 0 -253.5 60t-172.5 170q-25 -71 -83 -123t-142.5 -79.5t-190.5 -27.5zM516 145q74 0 129 34.5t86 85t31 100.5v141l-125 -2q-94 -1 -164 -20
t-109.5 -60.5t-39.5 -110.5q0 -79 55 -123.5t137 -44.5zM1018 612h486q0 75 -26.5 135.5t-79.5 96t-134 35.5t-135.5 -39t-82.5 -100.5t-28 -127.5z" />
    <glyph glyph-name="ccedilla" unicode="&#xe7;" horiz-adv-x="1091" 
d="M553 -419q-58 0 -111.5 12t-100.5 40l36 89q29 -19 66 -33.5t81 -14.5q51 0 77 17.5t26 49.5q0 41 -37.5 62t-127.5 22q-11 0 -15 3.5t1 13.5l73 168h115l-46 -119q72 -2 114 -25.5t60 -57.5t18 -68q0 -51 -32 -86.5t-84 -54t-113 -18.5zM572 -20q-142 0 -252.5 62.5
t-173.5 182t-63 288.5q0 161 59.5 282.5t169 190t260.5 68.5q121 0 213 -48t147.5 -133t66.5 -193h-207q-8 47 -35 89.5t-72.5 69t-110.5 26.5q-117 0 -189 -86t-72 -264q0 -164 68.5 -261t196.5 -97q64 0 110 28.5t72.5 71t33.5 85.5h202q-9 -105 -65 -187t-148 -128.5
t-211 -46.5z" />
    <glyph glyph-name="egrave" unicode="&#xe8;" horiz-adv-x="1144" 
d="M595 -20q-149 0 -262.5 63.5t-177 181.5t-63.5 281q0 159 57.5 282.5t167 194.5t264.5 71q153 0 257 -65t158 -181.5t54 -272.5v-74h-715q-1 -88 28 -156t86 -106.5t141 -38.5q86 0 149.5 38.5t84.5 117.5h222q-18 -108 -85.5 -183t-164 -114t-201.5 -39zM334 612h486
q0 75 -26.5 135.5t-79.5 96t-134 35.5q-80 0 -135 -39t-83 -100.5t-28 -127.5zM493 1155l-286 291h259l206 -291h-179z" />
    <glyph glyph-name="eacute" unicode="&#xe9;" horiz-adv-x="1144" 
d="M595 -20q-149 0 -262.5 63.5t-177 181.5t-63.5 281q0 159 57.5 282.5t167 194.5t264.5 71q153 0 257 -65t158 -181.5t54 -272.5v-74h-715q-1 -88 28 -156t86 -106.5t141 -38.5q86 0 149.5 38.5t84.5 117.5h222q-18 -108 -85.5 -183t-164 -114t-201.5 -39zM334 612h486
q0 75 -26.5 135.5t-79.5 96t-134 35.5q-80 0 -135 -39t-83 -100.5t-28 -127.5zM486 1155l206 291h260l-286 -291h-180z" />
    <glyph glyph-name="ecircumflex" unicode="&#xea;" horiz-adv-x="1144" 
d="M595 -20q-149 0 -262.5 63.5t-177 181.5t-63.5 281q0 159 57.5 282.5t167 194.5t264.5 71q153 0 257 -65t158 -181.5t54 -272.5v-74h-715q-1 -88 28 -156t86 -106.5t141 -38.5q86 0 149.5 38.5t84.5 117.5h222q-18 -108 -85.5 -183t-164 -114t-201.5 -39zM334 612h486
q0 75 -26.5 135.5t-79.5 96t-134 35.5q-80 0 -135 -39t-83 -100.5t-28 -127.5zM240 1155l258 244h170l252 -244h-204l-135 135l-149 -135h-192z" />
    <glyph glyph-name="edieresis" unicode="&#xeb;" horiz-adv-x="1144" 
d="M595 -20q-149 0 -262.5 63.5t-177 181.5t-63.5 281q0 159 57.5 282.5t167 194.5t264.5 71q153 0 257 -65t158 -181.5t54 -272.5v-74h-715q-1 -88 28 -156t86 -106.5t141 -38.5q86 0 149.5 38.5t84.5 117.5h222q-18 -108 -85.5 -183t-164 -114t-201.5 -39zM334 612h486
q0 75 -26.5 135.5t-79.5 96t-134 35.5q-80 0 -135 -39t-83 -100.5t-28 -127.5zM681 1235l2 211h232l-3 -211h-231zM250 1235l2 211h232l-3 -211h-231z" />
    <glyph glyph-name="igrave" unicode="&#xec;" horiz-adv-x="509" 
d="M138 0v1034h233v-1034h-233zM176 1155l-212 291h248l132 -289z" />
    <glyph glyph-name="iacute" unicode="&#xed;" horiz-adv-x="509" 
d="M138 0v1034h233v-1034h-233zM334 1155l-168 2l132 289h248z" />
    <glyph glyph-name="icircumflex" unicode="&#xee;" horiz-adv-x="509" 
d="M138 0v1034h233v-1034h-233zM-85 1155l258 244h170l252 -244h-204l-135 135l-149 -135h-192z" />
    <glyph glyph-name="idieresis" unicode="&#xef;" horiz-adv-x="693" 
d="M224 0v1034h233v-1034h-233zM445 1232l2 211h232l-3 -211h-231zM14 1232l2 211h232l-3 -211h-231z" />
    <glyph glyph-name="eth" unicode="&#xf0;" horiz-adv-x="1142" 
d="M568 -20q-153 0 -261.5 69t-166 187t-57.5 266q0 127 36 225.5t100 166.5t149.5 103.5t185.5 35.5q157 0 253 -82.5t118 -230.5l-166 141q-14 103 -59 195.5t-105 172t-123.5 143t-116.5 109.5h206q85 -61 172.5 -151t161 -208.5t118.5 -264.5t45 -317q0 -170 -55.5 -296
t-164.5 -195t-270 -69zM573 165q88 0 142 45.5t79.5 124.5t25.5 176q0 162 -62 253t-183 91q-129 0 -190.5 -95.5t-61.5 -248.5q0 -93 24.5 -172.5t79.5 -126.5t146 -47zM340 1120l-35 113l661 198l34 -113z" />
    <glyph glyph-name="ntilde" unicode="&#xf1;" horiz-adv-x="1171" 
d="M138 0v1034h238v-148q24 40 65.5 77t102.5 60t143 23q96 0 178.5 -38t133 -119t50.5 -209v-680h-244v651q0 102 -56 151.5t-141 49.5q-58 0 -110 -19.5t-84.5 -59t-32.5 -98.5v-675h-243zM321 1204l-40 133q35 34 76.5 59t104.5 25q53 0 100 -14.5t91.5 -29.5t89.5 -15
q49 0 86 20t68 43l34 -150q-29 -22 -76 -43t-112 -21q-55 0 -98.5 13.5t-84.5 27t-89 13.5q-50 0 -82 -16.5t-68 -44.5z" />
    <glyph glyph-name="ograve" unicode="&#xf2;" horiz-adv-x="1142" 
d="M572 -20q-148 0 -258 63.5t-170.5 182.5t-60.5 286q0 162 59 284t168.5 190t262.5 68q148 0 257 -65t168.5 -186t59.5 -291q0 -157 -56.5 -276.5t-165 -187.5t-264.5 -68zM573 165q84 0 138.5 46t81.5 126t27 182q0 95 -24 175t-78.5 128.5t-144.5 48.5
q-85 0 -140.5 -44.5t-82.5 -124t-27 -183.5q0 -94 24 -174.5t79 -130t147 -49.5zM483 1155l-286 291h259l206 -291h-179z" />
    <glyph glyph-name="oacute" unicode="&#xf3;" horiz-adv-x="1142" 
d="M572 -20q-148 0 -258 63.5t-170.5 182.5t-60.5 286q0 162 59 284t168.5 190t262.5 68q148 0 257 -65t168.5 -186t59.5 -291q0 -157 -56.5 -276.5t-165 -187.5t-264.5 -68zM573 165q84 0 138.5 46t81.5 126t27 182q0 95 -24 175t-78.5 128.5t-144.5 48.5
q-85 0 -140.5 -44.5t-82.5 -124t-27 -183.5q0 -94 24 -174.5t79 -130t147 -49.5zM475 1155l206 291h260l-286 -291h-180z" />
    <glyph glyph-name="ocircumflex" unicode="&#xf4;" horiz-adv-x="1142" 
d="M572 -20q-148 0 -258 63.5t-170.5 182.5t-60.5 286q0 162 59 284t168.5 190t262.5 68q148 0 257 -65t168.5 -186t59.5 -291q0 -157 -56.5 -276.5t-165 -187.5t-264.5 -68zM573 165q84 0 138.5 46t81.5 126t27 182q0 95 -24 175t-78.5 128.5t-144.5 48.5
q-85 0 -140.5 -44.5t-82.5 -124t-27 -183.5q0 -94 24 -174.5t79 -130t147 -49.5zM230 1155l258 244h170l252 -244h-204l-135 135l-149 -135h-192z" />
    <glyph glyph-name="otilde" unicode="&#xf5;" horiz-adv-x="1142" 
d="M572 -20q-148 0 -258 63.5t-170.5 182.5t-60.5 286q0 162 59 284t168.5 190t262.5 68q148 0 257 -65t168.5 -186t59.5 -291q0 -157 -56.5 -276.5t-165 -187.5t-264.5 -68zM573 165q84 0 138.5 46t81.5 126t27 182q0 95 -24 175t-78.5 128.5t-144.5 48.5
q-85 0 -140.5 -44.5t-82.5 -124t-27 -183.5q0 -94 24 -174.5t79 -130t147 -49.5zM291 1204l-40 133q35 34 76.5 59t104.5 25q53 0 100 -14.5t91.5 -29.5t89.5 -15q49 0 86 20t68 43l34 -150q-29 -22 -76 -43t-112 -21q-55 0 -98.5 13.5t-84.5 27t-89 13.5q-50 0 -82 -16.5
t-68 -44.5z" />
    <glyph glyph-name="odieresis" unicode="&#xf6;" horiz-adv-x="1142" 
d="M572 -20q-148 0 -258 63.5t-170.5 182.5t-60.5 286q0 162 59 284t168.5 190t262.5 68q148 0 257 -65t168.5 -186t59.5 -291q0 -157 -56.5 -276.5t-165 -187.5t-264.5 -68zM573 165q84 0 138.5 46t81.5 126t27 182q0 95 -24 175t-78.5 128.5t-144.5 48.5
q-85 0 -140.5 -44.5t-82.5 -124t-27 -183.5q0 -94 24 -174.5t79 -130t147 -49.5zM671 1235l2 211h232l-3 -211h-231zM240 1235l2 211h232l-3 -211h-231z" />
    <glyph glyph-name="divide" unicode="&#xf7;" horiz-adv-x="1146" 
d="M119 636v181l908 1v-181zM439 222v261h271v-261h-271zM439 972v261h271v-261h-271z" />
    <glyph glyph-name="oslash" unicode="&#xf8;" horiz-adv-x="1200" 
d="M133 -13l-87 92l1011 965l86 -92zM608 -20q-148 0 -258 63.5t-170.5 182.5t-60.5 286q0 162 58.5 284t168.5 190t263 68q148 0 257 -65t168.5 -186t59.5 -291q0 -157 -56.5 -276.5t-165 -187.5t-264.5 -68zM609 165q84 0 138.5 46t81 126t26.5 182q0 95 -23.5 175
t-78 128.5t-144.5 48.5q-85 0 -140.5 -44.5t-83 -124t-27.5 -183.5q0 -94 24.5 -174.5t79.5 -130t147 -49.5z" />
    <glyph glyph-name="ugrave" unicode="&#xf9;" horiz-adv-x="1177" 
d="M518 -20q-76 0 -146.5 22.5t-126.5 66t-89 107.5t-33 149v709h244v-681q0 -84 53.5 -138t161.5 -54q98 0 157 51.5t59 148.5v673h242v-1034h-187l-27 202q-19 -85 -66.5 -133.5t-111 -68.5t-130.5 -20zM496 1155l-286 291h259l206 -291h-179z" />
    <glyph glyph-name="uacute" unicode="&#xfa;" horiz-adv-x="1177" 
d="M518 -20q-76 0 -146.5 22.5t-126.5 66t-89 107.5t-33 149v709h244v-681q0 -84 53.5 -138t161.5 -54q98 0 157 51.5t59 148.5v673h242v-1034h-187l-27 202q-19 -85 -66.5 -133.5t-111 -68.5t-130.5 -20zM488 1155l206 291h260l-286 -291h-180z" />
    <glyph glyph-name="ucircumflex" unicode="&#xfb;" horiz-adv-x="1177" 
d="M518 -20q-76 0 -146.5 22.5t-126.5 66t-89 107.5t-33 149v709h244v-681q0 -84 53.5 -138t161.5 -54q98 0 157 51.5t59 148.5v673h242v-1034h-187l-27 202q-19 -85 -66.5 -133.5t-111 -68.5t-130.5 -20zM242 1155l258 244h170l252 -244h-204l-135 135l-149 -135h-192z" />
    <glyph glyph-name="udieresis" unicode="&#xfc;" horiz-adv-x="1177" 
d="M518 -20q-76 0 -146.5 22.5t-126.5 66t-89 107.5t-33 149v709h244v-681q0 -84 53.5 -138t161.5 -54q98 0 157 51.5t59 148.5v673h242v-1034h-187l-27 202q-19 -85 -66.5 -133.5t-111 -68.5t-130.5 -20zM683 1235l2 211h232l-3 -211h-231zM252 1235l2 211h232l-3 -211
h-231z" />
    <glyph glyph-name="yacute" unicode="&#xfd;" horiz-adv-x="1101" 
d="M273 -330q-100 0 -139 15.5l-39 15.5v156l104 -3q63 -3 102.5 7t61.5 27.5t32.5 37t16.5 33.5l27 76l-403 999h242l275 -731l274 731h238l-426 -1072q-48 -117 -103.5 -180.5t-121 -87.5t-141.5 -24zM456 1155l206 291h260l-286 -291h-180z" />
    <glyph glyph-name="thorn" unicode="&#xfe;" horiz-adv-x="1195" 
d="M138 -322v1768h242v-548q29 32 70.5 68.5t102 62t147.5 25.5q116 0 209 -57t148 -174t55 -295q0 -183 -55.5 -304.5t-153 -182.5t-221.5 -61q-82 0 -148 26t-120 73q-20 18 -26.5 16t-6.5 -28v-389h-243zM599 140q79 0 138.5 41t93 127t33.5 222q0 133 -34 212.5
t-92.5 115t-131.5 35.5q-66 0 -117 -28t-79.5 -70t-28.5 -86v-458q46 -50 99 -80.5t119 -30.5z" />
    <glyph glyph-name="ydieresis" unicode="&#xff;" horiz-adv-x="1101" 
d="M273 -330q-100 0 -139 15.5l-39 15.5v156l104 -3q63 -3 102.5 7t61.5 27.5t32.5 37t16.5 33.5l27 76l-403 999h242l275 -731l274 731h238l-426 -1072q-48 -117 -103.5 -180.5t-121 -87.5t-141.5 -24zM651 1235l2 211h232l-3 -211h-231zM220 1235l2 211h232l-3 -211h-231z
" />
    <glyph glyph-name="Amacron" unicode="&#x100;" horiz-adv-x="1438" 
d="M68 0l519 1446h264l519 -1446h-244l-129 363h-554l-130 -363h-245zM501 579h435l-217 631zM392 1631v161h654v-161h-654z" />
    <glyph glyph-name="amacron" unicode="&#x101;" horiz-adv-x="1120" 
d="M437 -20q-99 0 -177.5 36.5t-123 105t-44.5 166.5q0 171 123.5 258t393.5 91l155 4v70q0 82 -48.5 128.5t-150.5 45.5q-76 -1 -138 -35.5t-82 -115.5h-207q6 106 61.5 177.5t152.5 107t224 35.5q148 0 241 -39t137 -112.5t44 -177.5v-725h-205l-20 186
q-55 -117 -140.5 -161.5t-195.5 -44.5zM516 145q45 0 89 16.5t79.5 45t57 63.5t22.5 73v163l-127 -2q-94 -1 -164.5 -20t-109.5 -60.5t-39 -110.5q0 -79 55 -123.5t137 -44.5zM251 1219v161h654v-161h-654z" />
    <glyph glyph-name="Abreve" unicode="&#x102;" horiz-adv-x="1438" 
d="M68 0l519 1446h264l519 -1446h-244l-129 363h-554l-130 -363h-245zM501 579h435l-217 631zM718 1566q-79 0 -147.5 26.5t-116 79.5t-64.5 131h162q15 -49 58.5 -80t107.5 -31q63 0 108 31t62 80h160q-16 -76 -63.5 -129t-116 -80.5t-150.5 -27.5z" />
    <glyph glyph-name="abreve" unicode="&#x103;" horiz-adv-x="1120" 
d="M437 -20q-99 0 -177.5 36.5t-123 105t-44.5 166.5q0 171 123.5 258t393.5 91l155 4v70q0 82 -48.5 128.5t-150.5 45.5q-76 -1 -138 -35.5t-82 -115.5h-207q6 106 61.5 177.5t152.5 107t224 35.5q148 0 241 -39t137 -112.5t44 -177.5v-725h-205l-20 186
q-55 -117 -140.5 -161.5t-195.5 -44.5zM516 145q45 0 89 16.5t79.5 45t57 63.5t22.5 73v163l-127 -2q-94 -1 -164.5 -20t-109.5 -60.5t-39 -110.5q0 -79 55 -123.5t137 -44.5zM577 1154q-79 0 -147.5 26.5t-116 79.5t-64.5 131h162q15 -49 58.5 -80t107.5 -31q63 0 108 31
t62 80h160q-16 -76 -63.5 -129t-116 -80.5t-150.5 -27.5z" />
    <glyph glyph-name="Aogonek" unicode="&#x104;" horiz-adv-x="1438" 
d="M68 0l519 1446h264l519 -1446h-244l-129 363h-554l-130 -363h-245zM501 579h435l-217 631zM1211 -339q-100 0 -154.5 42t-54.5 119q0 57 39.5 104.5t158.5 85.5l172 -9q-103 -40 -145.5 -75t-42.5 -79q0 -34 19.5 -51t62.5 -17q46 0 82.5 13t61.5 27v-116
q-26 -15 -81 -29.5t-118 -14.5z" />
    <glyph glyph-name="aogonek" unicode="&#x105;" horiz-adv-x="1120" 
d="M437 -20q-99 0 -177.5 36.5t-123 105t-44.5 166.5q0 171 123.5 258t393.5 91l155 4v70q0 82 -48.5 128.5t-150.5 45.5q-76 -1 -138 -35.5t-82 -115.5h-207q6 106 61.5 177.5t152.5 107t224 35.5q148 0 241 -39t137 -112.5t44 -177.5v-725h-205l-20 186
q-55 -117 -140.5 -161.5t-195.5 -44.5zM516 145q45 0 89 16.5t79.5 45t57 63.5t22.5 73v163l-127 -2q-94 -1 -164.5 -20t-109.5 -60.5t-39 -110.5q0 -79 55 -123.5t137 -44.5zM829 -332q-100 0 -154.5 42t-54.5 119q0 57 39.5 104.5t158.5 85.5l172 -9q-103 -40 -145.5 -75
t-42.5 -79q0 -34 19.5 -51t62.5 -17q46 0 82.5 13t61.5 27v-116q-26 -15 -81 -29.5t-118 -14.5z" />
    <glyph glyph-name="Cacute" unicode="&#x106;" horiz-adv-x="1409" 
d="M738 -20q-199 0 -341.5 91.5t-219 260t-76.5 400.5q0 231 76 395t218.5 251.5t342.5 87.5q159 0 282 -64.5t198.5 -174.5t89.5 -245h-257q-15 80 -55.5 143t-106.5 100t-158 37q-115 0 -195.5 -54.5t-123 -172.5t-42.5 -306q0 -285 94 -415t267 -130q92 0 158 40.5
t106.5 108t55.5 147.5h257q-12 -98 -49.5 -188t-105.5 -160.5t-170.5 -111t-244.5 -40.5zM638 1567l206 291h260l-286 -291h-180z" />
    <glyph glyph-name="cacute" unicode="&#x107;" horiz-adv-x="1091" 
d="M572 -20q-142 0 -252.5 62.5t-173.5 182t-63 288.5q0 161 59.5 282.5t169 190t260.5 68.5q121 0 213 -48t147.5 -133t66.5 -193h-207q-8 47 -35 89.5t-72.5 69t-110.5 26.5q-117 0 -189 -86t-72 -264q0 -164 68.5 -261t196.5 -97q64 0 110 28.5t72.5 71t33.5 85.5h202
q-9 -105 -65 -187t-148 -128.5t-211 -46.5zM475 1155l206 291h260l-286 -291h-180z" />
    <glyph glyph-name="Ccircumflex" unicode="&#x108;" horiz-adv-x="1409" 
d="M738 -20q-199 0 -341.5 91.5t-219 260t-76.5 400.5q0 231 76 395t218.5 251.5t342.5 87.5q159 0 282 -64.5t198.5 -174.5t89.5 -245h-257q-15 80 -55.5 143t-106.5 100t-158 37q-115 0 -195.5 -54.5t-123 -172.5t-42.5 -306q0 -285 94 -415t267 -130q92 0 158 40.5
t106.5 108t55.5 147.5h257q-12 -98 -49.5 -188t-105.5 -160.5t-170.5 -111t-244.5 -40.5zM392 1567l258 244h170l252 -244h-204l-135 135l-149 -135h-192z" />
    <glyph glyph-name="ccircumflex" unicode="&#x109;" horiz-adv-x="1091" 
d="M572 -20q-142 0 -252.5 62.5t-173.5 182t-63 288.5q0 161 59.5 282.5t169 190t260.5 68.5q121 0 213 -48t147.5 -133t66.5 -193h-207q-8 47 -35 89.5t-72.5 69t-110.5 26.5q-117 0 -189 -86t-72 -264q0 -164 68.5 -261t196.5 -97q64 0 110 28.5t72.5 71t33.5 85.5h202
q-9 -105 -65 -187t-148 -128.5t-211 -46.5zM230 1155l258 244h170l252 -244h-204l-135 135l-149 -135h-192z" />
    <glyph glyph-name="Cdotaccent" unicode="&#x10a;" horiz-adv-x="1409" 
d="M738 -20q-199 0 -341.5 91.5t-219 260t-76.5 400.5q0 231 76 395t218.5 251.5t342.5 87.5q159 0 282 -64.5t198.5 -174.5t89.5 -245h-257q-15 80 -55.5 143t-106.5 100t-158 37q-115 0 -195.5 -54.5t-123 -172.5t-42.5 -306q0 -285 94 -415t267 -130q92 0 158 40.5
t106.5 108t55.5 147.5h257q-12 -98 -49.5 -188t-105.5 -160.5t-170.5 -111t-244.5 -40.5zM615 1647v211h237v-211h-237z" />
    <glyph glyph-name="cdotaccent" unicode="&#x10b;" horiz-adv-x="1091" 
d="M572 -20q-142 0 -252.5 62.5t-173.5 182t-63 288.5q0 161 59.5 282.5t169 190t260.5 68.5q121 0 213 -48t147.5 -133t66.5 -193h-207q-8 47 -35 89.5t-72.5 69t-110.5 26.5q-117 0 -189 -86t-72 -264q0 -164 68.5 -261t196.5 -97q64 0 110 28.5t72.5 71t33.5 85.5h202
q-9 -105 -65 -187t-148 -128.5t-211 -46.5zM453 1235v211h237v-211h-237z" />
    <glyph glyph-name="Ccaron" unicode="&#x10c;" horiz-adv-x="1409" 
d="M738 -20q-199 0 -341.5 91.5t-219 260t-76.5 400.5q0 231 76 395t218.5 251.5t342.5 87.5q159 0 282 -64.5t198.5 -174.5t89.5 -245h-257q-15 80 -55.5 143t-106.5 100t-158 37q-115 0 -195.5 -54.5t-123 -172.5t-42.5 -306q0 -285 94 -415t267 -130q92 0 158 40.5
t106.5 108t55.5 147.5h257q-12 -98 -49.5 -188t-105.5 -160.5t-170.5 -111t-244.5 -40.5zM649 1567l-258 245h193l149 -144l135 144h204l-252 -245h-171z" />
    <glyph glyph-name="ccaron" unicode="&#x10d;" horiz-adv-x="1091" 
d="M572 -20q-142 0 -252.5 62.5t-173.5 182t-63 288.5q0 161 59.5 282.5t169 190t260.5 68.5q121 0 213 -48t147.5 -133t66.5 -193h-207q-8 47 -35 89.5t-72.5 69t-110.5 26.5q-117 0 -189 -86t-72 -264q0 -164 68.5 -261t196.5 -97q64 0 110 28.5t72.5 71t33.5 85.5h202
q-9 -105 -65 -187t-148 -128.5t-211 -46.5zM487 1155l-258 245h193l149 -144l135 144h204l-252 -245h-171z" />
    <glyph glyph-name="Dcaron" unicode="&#x10e;" horiz-adv-x="1416" 
d="M175 0v1446h53h104.5t123 -0.5t108.5 -1.5q264 -5 429.5 -90.5t243 -243t77.5 -379.5q0 -232 -82.5 -395t-252 -249.5t-430.5 -86.5h-374zM422 201h131q149 0 263 51.5t178.5 167.5t64.5 310q0 188 -60 301t-172 163.5t-268 50.5h-137v-1044zM614 1567l-258 245h193
l149 -144l135 144h204l-252 -245h-171z" />
    <glyph glyph-name="dcaron" unicode="&#x10f;" horiz-adv-x="1196" 
d="M522 -20q-205 0 -322 141t-117 401q0 162 47.5 281.5t140.5 185t229 65.5q64 0 116.5 -15.5t93.5 -40.5t69.5 -55t44.5 -60v603h245v-1486h-180l-27 212q-13 -37 -36.5 -77.5t-63 -75.5t-98.5 -57t-142 -22zM572 159q131 0 191.5 85.5t60.5 283.5q-1 113 -27.5 190
t-80.5 116t-141 39q-110 0 -180.5 -81t-70.5 -264q0 -182 65 -275.5t183 -93.5zM1174 1072l79 193l-63 11v210h178v-220l-83 -194h-111z" />
    <glyph glyph-name="Dcroat" unicode="&#x110;" horiz-adv-x="1460" 
d="M70 629v184h703v-184h-703zM219 0v1446h52.5h104.5t123 -0.5t108 -1.5q265 -5 430.5 -90.5t243 -243t77.5 -379.5q0 -232 -82.5 -395t-252 -249.5t-430.5 -86.5h-374zM466 201h131q149 0 263 51.5t178.5 167.5t64.5 310q0 188 -60 301t-172 163.5t-269 50.5h-136v-1044z
" />
    <glyph glyph-name="dcroat" unicode="&#x111;" horiz-adv-x="1258" 
d="M550 1174v143h648v-143h-648zM522 -20q-205 0 -322 141t-117 401q0 162 47.5 281.5t140.5 185t229 65.5q64 0 116.5 -15.5t93.5 -40.5t69.5 -55t44.5 -60v603h245v-1486h-180l-27 212q-13 -37 -36.5 -77.5t-63 -75.5t-98.5 -57t-142 -22zM572 159q131 0 191.5 85.5
t60.5 283.5q-1 113 -27.5 190t-80.5 116t-141 39q-110 0 -180.5 -81t-70.5 -264q0 -182 65 -275.5t183 -93.5z" />
    <glyph glyph-name="Emacron" unicode="&#x112;" horiz-adv-x="1257" 
d="M175 0v1446h956l-1 -209h-710v-405h627v-206h-629v-414l727 -1v-211h-970zM328 1631v161h654v-161h-654z" />
    <glyph glyph-name="emacron" unicode="&#x113;" horiz-adv-x="1144" 
d="M595 -20q-149 0 -262.5 63.5t-177 181.5t-63.5 281q0 159 57.5 282.5t167 194.5t264.5 71q153 0 257 -65t158 -181.5t54 -272.5v-74h-715q-1 -88 28 -156t86 -106.5t141 -38.5q86 0 149.5 38.5t84.5 117.5h222q-18 -108 -85.5 -183t-164 -114t-201.5 -39zM334 612h486
q0 75 -26.5 135.5t-79.5 96t-134 35.5q-80 0 -135 -39t-83 -100.5t-28 -127.5zM255 1219v161h654v-161h-654z" />
    <glyph glyph-name="Ebreve" unicode="&#x114;" horiz-adv-x="1257" 
d="M175 0v1446h956l-1 -209h-710v-405h627v-206h-629v-414l727 -1v-211h-970zM654 1566q-79 0 -147.5 26.5t-116 79.5t-64.5 131h162q15 -49 58.5 -80t107.5 -31q63 0 108 31t62 80h160q-16 -76 -63.5 -129t-116 -80.5t-150.5 -27.5z" />
    <glyph glyph-name="ebreve" unicode="&#x115;" horiz-adv-x="1144" 
d="M595 -20q-149 0 -262.5 63.5t-177 181.5t-63.5 281q0 159 57.5 282.5t167 194.5t264.5 71q153 0 257 -65t158 -181.5t54 -272.5v-74h-715q-1 -88 28 -156t86 -106.5t141 -38.5q86 0 149.5 38.5t84.5 117.5h222q-18 -108 -85.5 -183t-164 -114t-201.5 -39zM334 612h486
q0 75 -26.5 135.5t-79.5 96t-134 35.5q-80 0 -135 -39t-83 -100.5t-28 -127.5zM581 1154q-79 0 -147.5 26.5t-116 79.5t-64.5 131h162q15 -49 58.5 -80t107.5 -31q63 0 108 31t62 80h160q-16 -76 -63.5 -129t-116 -80.5t-150.5 -27.5z" />
    <glyph glyph-name="Edotaccent" unicode="&#x116;" horiz-adv-x="1257" 
d="M175 0v1446h956l-1 -209h-710v-405h627v-206h-629v-414l727 -1v-211h-970zM536 1647v211h237v-211h-237z" />
    <glyph glyph-name="edotaccent" unicode="&#x117;" horiz-adv-x="1144" 
d="M595 -20q-149 0 -262.5 63.5t-177 181.5t-63.5 281q0 159 57.5 282.5t167 194.5t264.5 71q153 0 257 -65t158 -181.5t54 -272.5v-74h-715q-1 -88 28 -156t86 -106.5t141 -38.5q86 0 149.5 38.5t84.5 117.5h222q-18 -108 -85.5 -183t-164 -114t-201.5 -39zM334 612h486
q0 75 -26.5 135.5t-79.5 96t-134 35.5q-80 0 -135 -39t-83 -100.5t-28 -127.5zM463 1235v211h237v-211h-237z" />
    <glyph glyph-name="Eogonek" unicode="&#x118;" horiz-adv-x="1257" 
d="M175 0v1446h956l-1 -209h-710v-405h627v-206h-629v-414l727 -1v-211h-970zM1007 -336q-100 0 -154.5 42t-54.5 119q0 57 39.5 104.5t158.5 85.5l172 -9q-103 -40 -145.5 -75t-42.5 -79q0 -34 19.5 -51t62.5 -17q46 0 82.5 13t61.5 27v-116q-26 -15 -81 -29.5t-118 -14.5z
" />
    <glyph glyph-name="eogonek" unicode="&#x119;" horiz-adv-x="1144" 
d="M672 -313q-100 0 -154.5 42.5t-54.5 119.5q0 37 16.5 71t60.5 63q-134 12 -235 77.5t-157 179t-56 266.5q0 159 57.5 282.5t167 194.5t264.5 71q153 0 257 -65t158 -181.5t54 -272.5v-74h-715q-1 -88 28 -156t86 -106.5t141 -38.5q86 0 149.5 38.5t84.5 117.5h222
q-17 -103 -78.5 -172t-161.5 -120q-80 -40 -120 -73.5t-40 -74.5q0 -34 19.5 -51.5t61.5 -17.5q47 0 83 13.5t61 27.5v-116q-26 -16 -80.5 -30.5t-118.5 -14.5zM334 612h486q0 75 -26.5 135.5t-79.5 96t-134 35.5q-80 0 -135 -39t-83 -100.5t-28 -127.5z" />
    <glyph glyph-name="Ecaron" unicode="&#x11a;" horiz-adv-x="1257" 
d="M175 0v1446h956l-1 -209h-710v-405h627v-206h-629v-414l727 -1v-211h-970zM570 1567l-258 245h193l149 -144l135 144h204l-252 -245h-171z" />
    <glyph glyph-name="ecaron" unicode="&#x11b;" horiz-adv-x="1132" 
d="M595 -20q-149 0 -262.5 63.5t-177 181.5t-63.5 281q0 159 57.5 282.5t167 194.5t264.5 71q153 0 257 -65t158 -181.5t54 -272.5v-74h-715q-1 -88 28 -156t86 -106.5t141 -38.5q86 0 149.5 38.5t84.5 117.5h222q-18 -108 -85.5 -183t-164 -114t-201.5 -39zM334 612h486
q0 75 -26.5 135.5t-79.5 96t-134 35.5q-80 0 -135 -39t-83 -100.5t-28 -127.5zM489 1155l-258 245h193l149 -144l135 144h204l-252 -245h-171z" />
    <glyph glyph-name="Gcircumflex" unicode="&#x11c;" horiz-adv-x="1494" 
d="M735 -20q-194 0 -337 89t-220 254.5t-77 395.5q0 232 80 400t225.5 257.5t341.5 89.5q120 0 221.5 -40t178 -108t120.5 -155t49 -181h-257q-14 74 -56.5 136.5t-109 100.5t-151.5 38q-109 0 -194.5 -55t-134 -172.5t-48.5 -304.5q0 -148 30.5 -249.5t84 -163t123.5 -89
t148 -27.5q76 0 134 26t98.5 68t63 90.5t26.5 94.5l9 106h-323v172l577 -2v-751h-172v203q-37 -55 -93.5 -106t-138 -84t-198.5 -33zM400 1567l258 244h170l252 -244h-204l-135 135l-149 -135h-192z" />
    <glyph glyph-name="gcircumflex" unicode="&#x11d;" horiz-adv-x="1252" 
d="M598 -342q-261 0 -401 70t-140 192q0 55 27 92t64 61t68 37t40 19q-17 10 -45 26t-50.5 44t-22.5 73q0 52 49.5 96t148.5 63q-97 47 -149 127t-52 166q0 102 59.5 175t165.5 112t247 39q103 0 171.5 -23t127.5 -62q20 8 56 22.5t79 32t83 34t67 27.5l-1 -201l-179 -32
q13 -29 20.5 -63t7.5 -60q0 -90 -50.5 -166.5t-151 -122.5t-250.5 -46q-15 0 -41 1t-42 2q-81 -3 -111 -19t-30 -35q0 -27 45 -36t144 -16q35 -2 92 -5t127 -8q177 -11 268 -88.5t91 -200.5q0 -143 -132 -235t-400 -92zM639 -199q131 0 194 36t63 106q0 54 -43 88t-128 40
l-261 16q-43 3 -81.5 -15.5t-62.5 -51t-24 -71.5q0 -73 83.5 -110.5t259.5 -37.5zM595 533q95 0 154 48.5t59 137.5q0 92 -59 143.5t-154 51.5q-97 0 -156.5 -52t-59.5 -143q0 -86 57 -136t159 -50zM263 1155l258 244h170l252 -244h-204l-135 135l-149 -135h-192z" />
    <glyph glyph-name="Gbreve" unicode="&#x11e;" horiz-adv-x="1494" 
d="M735 -20q-194 0 -337 89t-220 254.5t-77 395.5q0 232 80 400t225.5 257.5t341.5 89.5q120 0 221.5 -40t178 -108t120.5 -155t49 -181h-257q-14 74 -56.5 136.5t-109 100.5t-151.5 38q-109 0 -194.5 -55t-134 -172.5t-48.5 -304.5q0 -148 30.5 -249.5t84 -163t123.5 -89
t148 -27.5q76 0 134 26t98.5 68t63 90.5t26.5 94.5l9 106h-323v172l577 -2v-751h-172v203q-37 -55 -93.5 -106t-138 -84t-198.5 -33zM741 1566q-79 0 -147.5 26.5t-116 79.5t-64.5 131h162q15 -49 58.5 -80t107.5 -31q63 0 108 31t62 80h160q-16 -76 -63.5 -129t-116 -80.5
t-150.5 -27.5z" />
    <glyph glyph-name="gbreve" unicode="&#x11f;" horiz-adv-x="1252" 
d="M598 -342q-261 0 -401 70t-140 192q0 55 27 92t64 61t68 37t40 19q-17 10 -45 26t-50.5 44t-22.5 73q0 52 49.5 96t148.5 63q-97 47 -149 127t-52 166q0 102 59.5 175t165.5 112t247 39q103 0 171.5 -23t127.5 -62q20 8 56 22.5t79 32t83 34t67 27.5l-1 -201l-179 -32
q13 -29 20.5 -63t7.5 -60q0 -90 -50.5 -166.5t-151 -122.5t-250.5 -46q-15 0 -41 1t-42 2q-81 -3 -111 -19t-30 -35q0 -27 45 -36t144 -16q35 -2 92 -5t127 -8q177 -11 268 -88.5t91 -200.5q0 -143 -132 -235t-400 -92zM639 -199q131 0 194 36t63 106q0 54 -43 88t-128 40
l-261 16q-43 3 -81.5 -15.5t-62.5 -51t-24 -71.5q0 -73 83.5 -110.5t259.5 -37.5zM595 533q95 0 154 48.5t59 137.5q0 92 -59 143.5t-154 51.5q-97 0 -156.5 -52t-59.5 -143q0 -86 57 -136t159 -50zM604 1154q-79 0 -147.5 26.5t-116 79.5t-64.5 131h162q15 -49 58.5 -80
t107.5 -31q63 0 108 31t62 80h160q-16 -76 -63.5 -129t-116 -80.5t-150.5 -27.5z" />
    <glyph glyph-name="Gdotaccent" unicode="&#x120;" horiz-adv-x="1494" 
d="M735 -20q-194 0 -337 89t-220 254.5t-77 395.5q0 232 80 400t225.5 257.5t341.5 89.5q120 0 221.5 -40t178 -108t120.5 -155t49 -181h-257q-14 74 -56.5 136.5t-109 100.5t-151.5 38q-109 0 -194.5 -55t-134 -172.5t-48.5 -304.5q0 -148 30.5 -249.5t84 -163t123.5 -89
t148 -27.5q76 0 134 26t98.5 68t63 90.5t26.5 94.5l9 106h-323v172l577 -2v-751h-172v203q-37 -55 -93.5 -106t-138 -84t-198.5 -33zM623 1647v211h237v-211h-237z" />
    <glyph glyph-name="gdotaccent" unicode="&#x121;" horiz-adv-x="1252" 
d="M598 -342q-261 0 -401 70t-140 192q0 55 27 92t64 61t68 37t40 19q-17 10 -45 26t-50.5 44t-22.5 73q0 52 49.5 96t148.5 63q-97 47 -149 127t-52 166q0 102 59.5 175t165.5 112t247 39q103 0 171.5 -23t127.5 -62q20 8 56 22.5t79 32t83 34t67 27.5l-1 -201l-179 -32
q13 -29 20.5 -63t7.5 -60q0 -90 -50.5 -166.5t-151 -122.5t-250.5 -46q-15 0 -41 1t-42 2q-81 -3 -111 -19t-30 -35q0 -27 45 -36t144 -16q35 -2 92 -5t127 -8q177 -11 268 -88.5t91 -200.5q0 -143 -132 -235t-400 -92zM639 -199q131 0 194 36t63 106q0 54 -43 88t-128 40
l-261 16q-43 3 -81.5 -15.5t-62.5 -51t-24 -71.5q0 -73 83.5 -110.5t259.5 -37.5zM595 533q95 0 154 48.5t59 137.5q0 92 -59 143.5t-154 51.5q-97 0 -156.5 -52t-59.5 -143q0 -86 57 -136t159 -50zM486 1235v211h237v-211h-237z" />
    <glyph glyph-name="uni0122" unicode="&#x122;" horiz-adv-x="1494" 
d="M735 -20q-194 0 -337 89t-220 254.5t-77 395.5q0 232 80 400t225.5 257.5t341.5 89.5q120 0 221.5 -40t178 -108t120.5 -155t49 -181h-257q-14 74 -56.5 136.5t-109 100.5t-151.5 38q-109 0 -194.5 -55t-134 -172.5t-48.5 -304.5q0 -148 30.5 -249.5t84 -163t123.5 -89
t148 -27.5q76 0 134 26t98.5 68t63 90.5t26.5 94.5l9 106h-323v172l577 -2v-751h-172v203q-37 -55 -93.5 -106t-138 -84t-198.5 -33zM613 -413l87 138l-72 7v173h220v-144l-144 -174h-91z" />
    <glyph glyph-name="uni0123" unicode="&#x123;" horiz-adv-x="1252" 
d="M598 -342q-261 0 -401 70t-140 192q0 55 27 92t64 61t68 37t40 19q-17 10 -45 26t-50.5 44t-22.5 73q0 52 49.5 96t148.5 63q-97 47 -149 127t-52 166q0 102 59.5 175t165.5 112t247 39q103 0 171.5 -23t127.5 -62q20 8 56 22.5t79 32t83 34t67 27.5l-1 -201l-179 -32
q13 -29 20.5 -63t7.5 -60q0 -90 -50.5 -166.5t-151 -122.5t-250.5 -46q-15 0 -41 1t-42 2q-81 -3 -111 -19t-30 -35q0 -27 45 -36t144 -16q35 -2 92 -5t127 -8q177 -11 268 -88.5t91 -200.5q0 -143 -132 -235t-400 -92zM639 -199q131 0 194 36t63 106q0 54 -43 88t-128 40
l-261 16q-43 3 -81.5 -15.5t-62.5 -51t-24 -71.5q0 -73 83.5 -110.5t259.5 -37.5zM595 533q95 0 154 48.5t59 137.5q0 92 -59 143.5t-154 51.5q-97 0 -156.5 -52t-59.5 -143q0 -86 57 -136t159 -50zM496 1155v175l128 180h97l-83 -156l72 -7v-192h-214z" />
    <glyph glyph-name="Hcircumflex" unicode="&#x124;" horiz-adv-x="1536" 
d="M175 0v1446h243v-597h700v597h243v-1446h-243v642h-700v-642h-243zM426 1573l258 244h170l252 -244h-204l-135 135l-149 -135h-192z" />
    <glyph glyph-name="hcircumflex" unicode="&#x125;" horiz-adv-x="1170" 
d="M138 0v1486h240v-602q25 39 66 75.5t100.5 60t142.5 23.5q99 0 181 -38t131 -109.5t49 -170.5v-725h-244v684q0 80 -56.5 124t-142.5 44q-57 0 -109 -20t-83.5 -59.5t-31.5 -98.5v-674h-243zM-86 1567l258 244h170l252 -244h-204l-135 135l-149 -135h-192z" />
    <glyph glyph-name="Hbar" unicode="&#x126;" horiz-adv-x="1619" 
d="M31 1104v143h1557v-143h-1557zM224 0v1446h243v-597h700v597h243v-1446h-243v642h-700v-642h-243z" />
    <glyph glyph-name="hbar" unicode="&#x127;" horiz-adv-x="1210" 
d="M40 1174v143h648v-143h-648zM177 0v1486h240v-602q26 39 66.5 75.5t100.5 60t142 23.5q100 0 181.5 -38t130.5 -109.5t49 -170.5v-725h-244v684q0 80 -56.5 124t-141.5 44q-58 0 -109.5 -20t-83.5 -59.5t-32 -98.5v-674h-243z" />
    <glyph glyph-name="Itilde" unicode="&#x128;" horiz-adv-x="593" 
d="M175 0v1446h243v-1446h-243zM17 1616l-40 133q35 34 76.5 59t104.5 25q53 0 100 -14.5t91.5 -29.5t89.5 -15q49 0 86 20t68 43l34 -150q-29 -22 -76 -43t-112 -21q-55 0 -98.5 13.5t-84.5 27t-89 13.5q-50 0 -82 -16.5t-68 -44.5z" />
    <glyph glyph-name="itilde" unicode="&#x129;" horiz-adv-x="625" 
d="M189 0v1034h233v-1034h-233zM27 1204l-40 133q35 34 76.5 59t104.5 25q53 0 100 -14.5t91.5 -29.5t89.5 -15q49 0 86 20t68 43l34 -150q-29 -22 -76 -43t-112 -21q-55 0 -98.5 13.5t-84.5 27t-89 13.5q-50 0 -82 -16.5t-68 -44.5z" />
    <glyph glyph-name="Imacron" unicode="&#x12a;" horiz-adv-x="593" 
d="M175 0v1446h243v-1446h-243zM-30 1631v161h654v-161h-654z" />
    <glyph glyph-name="imacron" unicode="&#x12b;" horiz-adv-x="641" 
d="M201 0v1034h233v-1034h-233zM-8 1219v161h654v-161h-654z" />
    <glyph glyph-name="Ibreve" unicode="&#x12c;" horiz-adv-x="593" 
d="M175 0v1446h243v-1446h-243zM296 1566q-79 0 -147.5 26.5t-116 79.5t-64.5 131h162q15 -49 58.5 -80t107.5 -31q63 0 108 31t62 80h160q-16 -76 -63.5 -129t-116 -80.5t-150.5 -27.5z" />
    <glyph glyph-name="ibreve" unicode="&#x12d;" horiz-adv-x="509" 
d="M138 0v1034h233v-1034h-233zM256 1154q-79 0 -147.5 26.5t-116 79.5t-64.5 131h162q15 -49 58.5 -80t107.5 -31q63 0 108 31t62 80h160q-16 -76 -63.5 -129t-116 -80.5t-150.5 -27.5z" />
    <glyph glyph-name="Iogonek" unicode="&#x12e;" horiz-adv-x="593" 
d="M175 0v1446h243v-1446h-243zM256 -342q-100 0 -154.5 42t-54.5 119q0 57 39.5 104.5t158.5 85.5l172 -9q-103 -40 -145.5 -75t-42.5 -79q0 -34 19.5 -51t62.5 -17q46 0 82.5 13t61.5 27v-116q-26 -15 -81 -29.5t-118 -14.5z" />
    <glyph glyph-name="iogonek" unicode="&#x12f;" horiz-adv-x="509" 
d="M138 0v1034h233v-1034h-233zM138 1235v211h237v-211h-237zM212 -334q-100 0 -154.5 42t-54.5 119q0 57 39.5 104.5t158.5 85.5l172 -9q-103 -40 -145.5 -75t-42.5 -79q0 -34 19.5 -51t62.5 -17q46 0 82.5 13t61.5 27v-116q-26 -15 -81 -29.5t-118 -14.5z" />
    <glyph glyph-name="Idotaccent" unicode="&#x130;" horiz-adv-x="593" 
d="M175 0v1446h243v-1446h-243zM179 1647v211h237v-211h-237z" />
    <glyph glyph-name="dotlessi" unicode="&#x131;" horiz-adv-x="509" 
d="M138 0v1034h233v-1034h-233z" />
    <glyph glyph-name="Jcircumflex" unicode="&#x134;" horiz-adv-x="791" 
d="M310 -20q-72 0 -142.5 14.5t-99.5 23.5l9 226q30 -9 69 -21.5t91 -12.5q100 0 135.5 54t35.5 177v1005h244v-1071q0 -129 -28.5 -216.5t-102.5 -133t-211 -45.5zM182 1567l258 244h170l252 -244h-204l-135 135l-149 -135h-192z" />
    <glyph glyph-name="jcircumflex" unicode="&#x135;" horiz-adv-x="550" 
d="M92 -332q-82 0 -106 10.5t-24 16.5l-1 162l91 6q65 8 91.5 36.5t26.5 88.5v1046h243v-1051q0 -158 -74.5 -236.5t-246.5 -78.5zM-51 1155l258 244h170l252 -244h-204l-135 135l-149 -135h-192z" />
    <glyph glyph-name="uni0136" unicode="&#x136;" horiz-adv-x="1402" 
d="M175 0v1446h253v-701l582 701h283l-459 -564l507 -882h-269l-413 705l-231 -271v-434h-253zM569 -413l87 138l-72 7v173h220v-144l-144 -174h-91z" />
    <glyph glyph-name="uni0137" unicode="&#x137;" horiz-adv-x="1143" 
d="M138 0v1486h242v-921l429 469h267l-374 -404l393 -630h-247l-300 479l-168 -176v-303h-242zM448 -413l87 138l-72 7v173h220v-144l-144 -174h-91z" />
    <glyph glyph-name="kgreenlandic" unicode="&#x138;" horiz-adv-x="1176" 
d="M138 0v1034h242v-491l461 491h255l-350 -354l382 -680h-280l-266 502l-202 -199v-303h-242z" />
    <glyph glyph-name="Lacute" unicode="&#x139;" horiz-adv-x="1155" 
d="M175 0l1 1446h246v-1236h653v-210h-900zM199 1567l206 291h260l-286 -291h-180z" />
    <glyph glyph-name="lacute" unicode="&#x13a;" horiz-adv-x="634" 
d="M436 -15q-100 0 -160 25t-90 67t-39 94.5t-9 107.5v1207h238v-1179q0 -67 27.5 -104t89.5 -43l52 -2v-153q-27 -8 -55 -14t-54 -6zM158 1648l206 291h260l-286 -291h-180z" />
    <glyph glyph-name="uni013B" unicode="&#x13b;" horiz-adv-x="1155" 
d="M175 0l1 1446h246v-1236h653v-210h-900zM492 -413l87 138l-72 7v173h220v-144l-144 -174h-91z" />
    <glyph glyph-name="uni013C" unicode="&#x13c;" horiz-adv-x="634" 
d="M436 -15q-100 0 -160 25t-90 67t-39 94.5t-9 107.5v1207h238v-1179q0 -67 27.5 -104t89.5 -43l52 -2v-153q-27 -8 -55 -14t-54 -6zM139 -412l87 138l-72 7v173h220v-144l-144 -174h-91z" />
    <glyph glyph-name="Lcaron" unicode="&#x13d;" horiz-adv-x="1155" 
d="M175 0l1 1446h246v-1236h653v-210h-900zM773 1032l79 193l-63 11v210h178v-220l-83 -194h-111z" />
    <glyph glyph-name="lcaron" unicode="&#x13e;" horiz-adv-x="634" 
d="M436 -15q-100 0 -160 25t-90 67t-39 94.5t-9 107.5v1207h238v-1179q0 -67 27.5 -104t89.5 -43l52 -2v-153q-27 -8 -55 -14t-54 -6zM481 1072l79 193l-63 11v210h178v-220l-83 -194h-111z" />
    <glyph glyph-name="Ldot" unicode="&#x13f;" horiz-adv-x="1155" 
d="M175 0l1 1446h246v-1236h653v-210h-900zM743 667v257h267v-257h-267z" />
    <glyph glyph-name="ldot" unicode="&#x140;" horiz-adv-x="781" 
d="M436 -15q-100 0 -160 25t-90 67t-39 94.5t-9 107.5v1207h238v-1179q0 -67 27.5 -104t89.5 -43l52 -2v-153q-27 -8 -55 -14t-54 -6zM514 646v257h267v-257h-267z" />
    <glyph glyph-name="Lslash" unicode="&#x141;" horiz-adv-x="1172" 
d="M14 583v205l733 191v-194zM191 0l1 1446h246v-1236h653v-210h-900z" />
    <glyph glyph-name="lslash" unicode="&#x142;" horiz-adv-x="725" 
d="M70 310v215l552 412v-202zM510 -15q-100 0 -160 25t-90 67t-39.5 94.5t-9.5 107.5v1207h239v-1179q0 -67 27.5 -104t89.5 -43l52 -2v-153q-27 -8 -55.5 -14t-53.5 -6z" />
    <glyph glyph-name="Nacute" unicode="&#x143;" horiz-adv-x="1539" 
d="M175 0v1446h238l708 -1033v1033h243v-1446h-219l-727 1061v-1061h-243zM672 1567l206 291h260l-286 -291h-180z" />
    <glyph glyph-name="nacute" unicode="&#x144;" horiz-adv-x="1171" 
d="M138 0v1034h238v-148q24 40 65.5 77t102.5 60t143 23q96 0 178.5 -38t133 -119t50.5 -209v-680h-244v651q0 102 -56 151.5t-141 49.5q-58 0 -110 -19.5t-84.5 -59t-32.5 -98.5v-675h-243zM506 1155l206 291h260l-286 -291h-180z" />
    <glyph glyph-name="uni0145" unicode="&#x145;" horiz-adv-x="1539" 
d="M175 0v1446h238l708 -1033v1033h243v-1446h-219l-727 1061v-1061h-243zM622 -413l87 138l-72 7v173h220v-144l-144 -174h-91z" />
    <glyph glyph-name="uni0146" unicode="&#x146;" horiz-adv-x="1171" 
d="M138 0v1034h238v-148q24 40 65.5 77t102.5 60t143 23q96 0 178.5 -38t133 -119t50.5 -209v-680h-244v651q0 102 -56 151.5t-141 49.5q-58 0 -110 -19.5t-84.5 -59t-32.5 -98.5v-675h-243zM469 -413l87 138l-72 7v173h220v-144l-144 -174h-91z" />
    <glyph glyph-name="Ncaron" unicode="&#x147;" horiz-adv-x="1539" 
d="M175 0v1446h238l708 -1033v1033h243v-1446h-219l-727 1061v-1061h-243zM684 1567l-258 245h193l149 -144l135 144h204l-252 -245h-171z" />
    <glyph glyph-name="ncaron" unicode="&#x148;" horiz-adv-x="1171" 
d="M138 0v1034h238v-148q24 40 65.5 77t102.5 60t143 23q96 0 178.5 -38t133 -119t50.5 -209v-680h-244v651q0 102 -56 151.5t-141 49.5q-58 0 -110 -19.5t-84.5 -59t-32.5 -98.5v-675h-243zM517 1155l-258 245h193l149 -144l135 144h204l-252 -245h-171z" />
    <glyph glyph-name="Eng" unicode="&#x14a;" horiz-adv-x="1539" 
d="M1021 -480q-72 0 -142.5 14.5t-99.5 23.5l10 226q29 -9 68 -21.5t91 -12.5q91 0 131.5 45t40.5 150v91l-702 1025v-1061h-243v1446h238l708 -1033v1033h243l-1 -1530q0 -138 -31.5 -225.5t-106 -129t-204.5 -41.5z" />
    <glyph glyph-name="eng" unicode="&#x14b;" horiz-adv-x="1187" 
d="M735 -332q-81 0 -100.5 8.5t-19.5 13.5v166l76 4q61 6 88 33.5t27 90.5v719q0 77 -40.5 123.5t-129.5 46.5q-69 0 -131.5 -36.5t-121.5 -102.5v-734h-245l3 1034h236v-159q64 60 122 99.5t116.5 59.5t123.5 20q143 0 227 -83t84 -220v-759q0 -101 -38 -173.5
t-108.5 -111.5t-168.5 -39z" />
    <glyph glyph-name="Omacron" unicode="&#x14c;" horiz-adv-x="1497" 
d="M751 -20q-200 0 -345.5 88t-225 254t-79.5 398q0 234 80 401t226.5 256t343.5 89t341.5 -89t223.5 -256t79 -401q0 -232 -78 -397.5t-223 -254t-343 -88.5zM751 184q118 0 203 55.5t130.5 173t45.5 304.5q0 190 -46 310.5t-131 177.5t-202 57q-118 0 -203.5 -57.5
t-132.5 -178t-47 -309.5q0 -187 47 -304.5t132.5 -173t203.5 -55.5zM423 1631v161h654v-161h-654z" />
    <glyph glyph-name="omacron" unicode="&#x14d;" horiz-adv-x="1142" 
d="M572 -20q-148 0 -258 63.5t-170.5 182.5t-60.5 286q0 162 59 284t168.5 190t262.5 68q148 0 257 -65t168.5 -186t59.5 -291q0 -157 -56.5 -276.5t-165 -187.5t-264.5 -68zM573 165q84 0 138.5 46t81.5 126t27 182q0 95 -24 175t-78.5 128.5t-144.5 48.5
q-85 0 -140.5 -44.5t-82.5 -124t-27 -183.5q0 -94 24 -174.5t79 -130t147 -49.5zM244 1219v161h654v-161h-654z" />
    <glyph glyph-name="Obreve" unicode="&#x14e;" horiz-adv-x="1497" 
d="M751 -20q-200 0 -345.5 88t-225 254t-79.5 398q0 234 80 401t226.5 256t343.5 89t341.5 -89t223.5 -256t79 -401q0 -232 -78 -397.5t-223 -254t-343 -88.5zM751 184q118 0 203 55.5t130.5 173t45.5 304.5q0 190 -46 310.5t-131 177.5t-202 57q-118 0 -203.5 -57.5
t-132.5 -178t-47 -309.5q0 -187 47 -304.5t132.5 -173t203.5 -55.5zM750 1566q-79 0 -147.5 26.5t-116 79.5t-64.5 131h162q15 -49 58.5 -80t107.5 -31q63 0 108 31t62 80h160q-16 -76 -63.5 -129t-116 -80.5t-150.5 -27.5z" />
    <glyph glyph-name="obreve" unicode="&#x14f;" horiz-adv-x="1142" 
d="M572 -20q-148 0 -258 63.5t-170.5 182.5t-60.5 286q0 162 59 284t168.5 190t262.5 68q148 0 257 -65t168.5 -186t59.5 -291q0 -157 -56.5 -276.5t-165 -187.5t-264.5 -68zM573 165q84 0 138.5 46t81.5 126t27 182q0 95 -24 175t-78.5 128.5t-144.5 48.5
q-85 0 -140.5 -44.5t-82.5 -124t-27 -183.5q0 -94 24 -174.5t79 -130t147 -49.5zM571 1154q-79 0 -147.5 26.5t-116 79.5t-64.5 131h162q15 -49 58.5 -80t107.5 -31q63 0 108 31t62 80h160q-16 -76 -63.5 -129t-116 -80.5t-150.5 -27.5z" />
    <glyph glyph-name="Ohungarumlaut" unicode="&#x150;" horiz-adv-x="1497" 
d="M751 -20q-200 0 -345.5 88t-225 254t-79.5 398q0 234 80 401t226.5 256t343.5 89t341.5 -89t223.5 -256t79 -401q0 -232 -78 -397.5t-223 -254t-343 -88.5zM751 184q118 0 203 55.5t130.5 173t45.5 304.5q0 190 -46 310.5t-131 177.5t-202 57q-118 0 -203.5 -57.5
t-132.5 -178t-47 -309.5q0 -187 47 -304.5t132.5 -173t203.5 -55.5zM824 1567l242 291h240l-303 -291h-179zM504 1567l199 291h234l-253 -291h-180z" />
    <glyph glyph-name="ohungarumlaut" unicode="&#x151;" horiz-adv-x="1142" 
d="M572 -20q-148 0 -258 63.5t-170.5 182.5t-60.5 286q0 162 59 284t168.5 190t262.5 68q148 0 257 -65t168.5 -186t59.5 -291q0 -157 -56.5 -276.5t-165 -187.5t-264.5 -68zM573 165q84 0 138.5 46t81.5 126t27 182q0 95 -24 175t-78.5 128.5t-144.5 48.5
q-85 0 -140.5 -44.5t-82.5 -124t-27 -183.5q0 -94 24 -174.5t79 -130t147 -49.5zM645 1155l242 291h240l-303 -291h-179zM325 1155l199 291h234l-253 -291h-180z" />
    <glyph glyph-name="OE" unicode="&#x152;" horiz-adv-x="2246" 
d="M1407 626v-414l728 -1v-211h-971v175q-70 -96 -174.5 -145.5t-238.5 -49.5q-200 0 -345.5 88t-225 254t-79.5 398q0 234 80 401t226.5 256t343.5 89q134 0 238.5 -49.5t174.5 -146.5v176h956l-1 -209h-710v-405h627v-206h-629zM751 184q118 0 203 55.5t130.5 173
t45.5 304.5q0 190 -46 310.5t-131 177.5t-202 57q-118 0 -203.5 -57.5t-132.5 -178t-47 -309.5q0 -187 47 -304.5t132.5 -173t203.5 -55.5z" />
    <glyph glyph-name="oe" unicode="&#x153;" horiz-adv-x="1881" 
d="M1787 535v-74h-716q0 -88 29 -156t86 -106.5t141 -38.5q86 0 149 38.5t85 117.5h222q-18 -108 -86 -183t-164 -114t-201 -39q-127 0 -227 51t-160 146q-55 -92 -148.5 -144.5t-224.5 -52.5q-148 0 -258 63.5t-170.5 182.5t-60.5 286q0 162 59 284t168.5 190t262.5 68
q125 0 220.5 -50t152.5 -149q57 94 151 146.5t221 52.5q153 0 257 -65t158 -181.5t54 -272.5zM573 165q84 0 138.5 46t81.5 126t27 182q0 95 -24 175t-78.5 128.5t-144.5 48.5q-85 0 -140.5 -44.5t-82.5 -124t-27 -183.5q0 -94 24 -174.5t79 -130t147 -49.5zM1071 612h486
q0 75 -26.5 135.5t-79.5 96t-134 35.5t-135.5 -39t-82.5 -100.5t-28 -127.5z" />
    <glyph glyph-name="Racute" unicode="&#x154;" horiz-adv-x="1374" 
d="M175 0v1446h587q166 0 273.5 -51.5t159.5 -145t52 -218.5q0 -116 -38 -194.5t-98.5 -128t-129.5 -80.5l276 -628h-254l-249 587h-336v-587h-243zM418 780h289q138 0 215.5 64t77.5 178q0 112 -72 173t-190 61h-320v-476zM574 1567l206 291h260l-286 -291h-180z" />
    <glyph glyph-name="racute" unicode="&#x155;" horiz-adv-x="805" 
d="M138 0v1034h233v-224q25 77 71.5 131.5t109.5 83.5t137 29q18 0 35 -2t25 -7v-233q-11 5 -28.5 7t-30.5 2q-75 6 -132.5 -6t-97 -40.5t-59.5 -72t-20 -101.5v-601h-243zM340 1155l206 291h260l-286 -291h-180z" />
    <glyph glyph-name="uni0156" unicode="&#x156;" horiz-adv-x="1374" 
d="M175 0v1446h587q166 0 273.5 -51.5t159.5 -145t52 -218.5q0 -116 -38 -194.5t-98.5 -128t-129.5 -80.5l276 -628h-254l-249 587h-336v-587h-243zM418 780h289q138 0 215.5 64t77.5 178q0 112 -72 173t-190 61h-320v-476zM563 -413l87 138l-72 7v173h220v-144l-144 -174
h-91z" />
    <glyph glyph-name="uni0157" unicode="&#x157;" horiz-adv-x="805" 
d="M138 0v1034h233v-224q25 77 71.5 131.5t109.5 83.5t137 29q18 0 35 -2t25 -7v-233q-11 5 -28.5 7t-30.5 2q-75 6 -132.5 -6t-97 -40.5t-59.5 -72t-20 -101.5v-601h-243zM134 -413l87 138l-72 7v173h220v-144l-144 -174h-91z" />
    <glyph glyph-name="Rcaron" unicode="&#x158;" horiz-adv-x="1374" 
d="M175 0v1446h587q166 0 273.5 -51.5t159.5 -145t52 -218.5q0 -116 -38 -194.5t-98.5 -128t-129.5 -80.5l276 -628h-254l-249 587h-336v-587h-243zM418 780h289q138 0 215.5 64t77.5 178q0 112 -72 173t-190 61h-320v-476zM585 1567l-258 245h193l149 -144l135 144h204
l-252 -245h-171z" />
    <glyph glyph-name="rcaron" unicode="&#x159;" horiz-adv-x="805" 
d="M138 0v1034h233v-224q25 77 71.5 131.5t109.5 83.5t137 29q18 0 35 -2t25 -7v-233q-11 5 -28.5 7t-30.5 2q-75 6 -132.5 -6t-97 -40.5t-59.5 -72t-20 -101.5v-601h-243zM352 1155l-258 245h193l149 -144l135 144h204l-252 -245h-171z" />
    <glyph glyph-name="Sacute" unicode="&#x15a;" horiz-adv-x="1364" 
d="M694 -20q-108 0 -207 26.5t-180.5 79t-134.5 131t-65 183.5h252q16 -73 63.5 -123t120.5 -76t163 -26q80 0 149 24t112 71.5t43 117.5q0 79 -55.5 123.5t-158.5 70.5l-283 67q-110 25 -191.5 73t-126.5 126.5t-45 192.5q0 130 71.5 225t194.5 146.5t277 51.5
q176 0 297 -58.5t184 -156.5t64 -215h-246q-8 87 -51 137.5t-109 73.5t-146 23q-142 0 -211 -61t-69 -143q0 -77 51 -122t156 -70l269 -63q135 -28 217 -86t119.5 -137.5t37.5 -175.5q0 -126 -71.5 -223t-197.5 -152t-293 -55zM585 1567l206 291h260l-286 -291h-180z" />
    <glyph glyph-name="sacute" unicode="&#x15b;" horiz-adv-x="1035" 
d="M534 -20q-108 0 -204.5 34.5t-162 108.5t-82.5 191h214q14 -57 49.5 -93t84 -52.5t100.5 -16.5q93 0 150 32t57 99q0 49 -31.5 78t-102.5 44l-196 45q-132 29 -211 96t-80 189q-1 92 46 164t140 113.5t229 41.5q181 0 290.5 -80.5t112.5 -229.5h-207q-11 67 -63 104.5
t-135 37.5q-86 0 -141 -33t-55 -101q0 -47 41.5 -74t126.5 -46l186 -45q80 -20 131 -54t79.5 -74.5t40 -83t11.5 -78.5q0 -100 -51.5 -170.5t-145 -108.5t-221.5 -38zM440 1155l206 291h260l-286 -291h-180z" />
    <glyph glyph-name="Scircumflex" unicode="&#x15c;" horiz-adv-x="1364" 
d="M694 -20q-108 0 -207 26.5t-180.5 79t-134.5 131t-65 183.5h252q16 -73 63.5 -123t120.5 -76t163 -26q80 0 149 24t112 71.5t43 117.5q0 79 -55.5 123.5t-158.5 70.5l-283 67q-110 25 -191.5 73t-126.5 126.5t-45 192.5q0 130 71.5 225t194.5 146.5t277 51.5
q176 0 297 -58.5t184 -156.5t64 -215h-246q-8 87 -51 137.5t-109 73.5t-146 23q-142 0 -211 -61t-69 -143q0 -77 51 -122t156 -70l269 -63q135 -28 217 -86t119.5 -137.5t37.5 -175.5q0 -126 -71.5 -223t-197.5 -152t-293 -55zM340 1567l258 244h170l252 -244h-204l-135 135
l-149 -135h-192z" />
    <glyph glyph-name="scircumflex" unicode="&#x15d;" horiz-adv-x="1035" 
d="M534 -20q-108 0 -204.5 34.5t-162 108.5t-82.5 191h214q14 -57 49.5 -93t84 -52.5t100.5 -16.5q93 0 150 32t57 99q0 49 -31.5 78t-102.5 44l-196 45q-132 29 -211 96t-80 189q-1 92 46 164t140 113.5t229 41.5q181 0 290.5 -80.5t112.5 -229.5h-207q-11 67 -63 104.5
t-135 37.5q-86 0 -141 -33t-55 -101q0 -47 41.5 -74t126.5 -46l186 -45q80 -20 131 -54t79.5 -74.5t40 -83t11.5 -78.5q0 -100 -51.5 -170.5t-145 -108.5t-221.5 -38zM194 1155l258 244h170l252 -244h-204l-135 135l-149 -135h-192z" />
    <glyph glyph-name="Scedilla" unicode="&#x15e;" horiz-adv-x="1364" 
d="M656 -419q-58 0 -111.5 12t-99.5 40l36 89q29 -19 65.5 -33.5t80.5 -14.5q51 0 77 17.5t26 49.5q0 41 -37.5 62t-126.5 22q-12 0 -15.5 3.5t0.5 13.5l73 168h115l-46 -119q73 -2 114.5 -25.5t59.5 -57.5t18 -68q0 -51 -31.5 -86.5t-83.5 -54t-114 -18.5zM694 -20
q-108 0 -207 26.5t-180.5 79t-134.5 131t-65 183.5h252q16 -73 63.5 -123t120.5 -76t163 -26q80 0 149 24t112 71.5t43 117.5q0 79 -55.5 123.5t-158.5 70.5l-283 67q-110 25 -191.5 73t-126.5 126.5t-45 192.5q0 130 71.5 225t194.5 146.5t277 51.5q176 0 297 -58.5
t184 -156.5t64 -215h-246q-8 87 -51 137.5t-109 73.5t-146 23q-142 0 -211 -61t-69 -143q0 -77 51 -122t156 -70l269 -63q135 -28 217 -86t119.5 -137.5t37.5 -175.5q0 -126 -71.5 -223t-197.5 -152t-293 -55z" />
    <glyph glyph-name="scedilla" unicode="&#x15f;" horiz-adv-x="1035" 
d="M504 -419q-58 0 -111.5 12t-100.5 40l36 89q29 -19 66 -33.5t81 -14.5q50 0 76.5 17.5t26.5 49.5q0 41 -37.5 62t-127.5 22q-11 0 -15 3.5t1 13.5l73 168h114l-45 -119q72 -2 114 -25.5t60 -57.5t18 -68q0 -51 -32 -86.5t-84 -54t-113 -18.5zM534 -20q-108 0 -204.5 34.5
t-162 108.5t-82.5 191h214q14 -57 49.5 -93t84 -52.5t100.5 -16.5q93 0 150 32t57 99q0 49 -31.5 78t-102.5 44l-196 45q-132 29 -211 96t-80 189q-1 92 46 164t140 113.5t229 41.5q181 0 290.5 -80.5t112.5 -229.5h-207q-11 67 -63 104.5t-135 37.5q-86 0 -141 -33
t-55 -101q0 -47 41.5 -74t126.5 -46l186 -45q80 -20 131 -54t79.5 -74.5t40 -83t11.5 -78.5q0 -100 -51.5 -170.5t-145 -108.5t-221.5 -38z" />
    <glyph glyph-name="Scaron" unicode="&#x160;" horiz-adv-x="1364" 
d="M694 -20q-108 0 -207 26.5t-180.5 79t-134.5 131t-65 183.5h252q16 -73 63.5 -123t120.5 -76t163 -26q80 0 149 24t112 71.5t43 117.5q0 79 -55.5 123.5t-158.5 70.5l-283 67q-110 25 -191.5 73t-126.5 126.5t-45 192.5q0 130 71.5 225t194.5 146.5t277 51.5
q176 0 297 -58.5t184 -156.5t64 -215h-246q-8 87 -51 137.5t-109 73.5t-146 23q-142 0 -211 -61t-69 -143q0 -77 51 -122t156 -70l269 -63q135 -28 217 -86t119.5 -137.5t37.5 -175.5q0 -126 -71.5 -223t-197.5 -152t-293 -55zM597 1567l-258 245h193l149 -144l135 144h204
l-252 -245h-171z" />
    <glyph glyph-name="scaron" unicode="&#x161;" horiz-adv-x="1035" 
d="M534 -20q-108 0 -204.5 34.5t-162 108.5t-82.5 191h214q14 -57 49.5 -93t84 -52.5t100.5 -16.5q93 0 150 32t57 99q0 49 -31.5 78t-102.5 44l-196 45q-132 29 -211 96t-80 189q-1 92 46 164t140 113.5t229 41.5q181 0 290.5 -80.5t112.5 -229.5h-207q-11 67 -63 104.5
t-135 37.5q-86 0 -141 -33t-55 -101q0 -47 41.5 -74t126.5 -46l186 -45q80 -20 131 -54t79.5 -74.5t40 -83t11.5 -78.5q0 -100 -51.5 -170.5t-145 -108.5t-221.5 -38zM451 1155l-258 245h193l149 -144l135 144h204l-252 -245h-171z" />
    <glyph glyph-name="uni0162" unicode="&#x162;" horiz-adv-x="1212" 
d="M606 -417q-58 0 -111.5 12t-99.5 40l36 89q29 -19 65.5 -33.5t80.5 -14.5q51 0 77 17.5t26 49.5q0 41 -37.5 62t-127.5 22q-11 0 -14.5 3.5t0.5 13.5l73 168h115l-46 -119q72 -2 114 -25.5t60 -57.5t18 -69q0 -50 -31.5 -85.5t-83.5 -54t-114 -18.5zM492 0v1227h-450v219
h1128v-219h-434v-1227h-244z" />
    <glyph glyph-name="uni0163" unicode="&#x163;" horiz-adv-x="808" 
d="M457 -410q-58 0 -111.5 12t-99.5 41l36 89q29 -19 65.5 -34t80.5 -15q51 0 77 18t26 49q0 42 -37.5 62.5t-126.5 22.5q-12 0 -15.5 3t0.5 13l73 169h115l-46 -119q73 -2 114.5 -25.5t59.5 -58t18 -68.5q0 -51 -31.5 -86t-83.5 -54t-114 -19zM553 -8q-123 0 -190.5 32.5
t-93.5 92.5t-26 143v602h-168v172h175l61 307h175v-306h231v-173h-231l1 -593q0 -46 10.5 -67.5t34 -28t62.5 -6.5h128v-154q-21 -8 -61.5 -14.5t-107.5 -6.5z" />
    <glyph glyph-name="Tcaron" unicode="&#x164;" horiz-adv-x="1212" 
d="M492 0v1227h-450v219h1128v-219h-434v-1227h-244zM540 1567l-258 245h193l149 -144l135 144h204l-252 -245h-171z" />
    <glyph glyph-name="tcaron" unicode="&#x165;" horiz-adv-x="875" 
d="M553 -8q-123 0 -190.5 32.5t-93.5 92.5t-26 143v602h-168v172h175l61 307h175v-306h231v-173h-231l1 -593q0 -46 10.5 -67.5t34 -28t62.5 -6.5h128v-154q-21 -8 -61.5 -14.5t-107.5 -6.5zM563 1125l79 193l-63 11v210h178v-220l-83 -194h-111z" />
    <glyph glyph-name="Tbar" unicode="&#x166;" horiz-adv-x="1212" 
d="M211 620v184h788v-184h-788zM492 0v1227h-450v219h1128v-219h-434v-1227h-244z" />
    <glyph glyph-name="tbar" unicode="&#x167;" horiz-adv-x="808" 
d="M89 514v143h612v-143h-612zM553 -8q-123 0 -190.5 32.5t-93.5 92.5t-26 143v602h-168v172h175l61 307h175v-306h231v-173h-231l1 -593q0 -46 10.5 -67.5t34 -28t62.5 -6.5h128v-154q-21 -8 -61.5 -14.5t-107.5 -6.5z" />
    <glyph glyph-name="Utilde" unicode="&#x168;" horiz-adv-x="1427" 
d="M730 -20q-200 0 -322.5 66.5t-177.5 192t-55 303.5v904h249v-929q0 -168 82.5 -248t223.5 -80q95 0 165 35t108 107.5t38 185.5v929h246v-918q0 -172 -56 -294.5t-178.5 -188t-322.5 -65.5zM451 1616l-40 133q35 34 76.5 59t104.5 25q53 0 100 -14.5t91.5 -29.5t89.5 -15
q49 0 86 20t68 43l34 -150q-29 -22 -76 -43t-112 -21q-55 0 -98.5 13.5t-84.5 27t-89 13.5q-50 0 -82 -16.5t-68 -44.5z" />
    <glyph glyph-name="utilde" unicode="&#x169;" horiz-adv-x="1177" 
d="M518 -20q-76 0 -146.5 22.5t-126.5 66t-89 107.5t-33 149v709h244v-681q0 -84 53.5 -138t161.5 -54q98 0 157 51.5t59 148.5v673h242v-1034h-187l-27 202q-19 -85 -66.5 -133.5t-111 -68.5t-130.5 -20zM303 1204l-40 133q35 34 76.5 59t104.5 25q53 0 100 -14.5
t91.5 -29.5t89.5 -15q49 0 86 20t68 43l34 -150q-29 -22 -76 -43t-112 -21q-55 0 -98.5 13.5t-84.5 27t-89 13.5q-50 0 -82 -16.5t-68 -44.5z" />
    <glyph glyph-name="Umacron" unicode="&#x16a;" horiz-adv-x="1427" 
d="M730 -20q-200 0 -322.5 66.5t-177.5 192t-55 303.5v904h249v-929q0 -168 82.5 -248t223.5 -80q95 0 165 35t108 107.5t38 185.5v929h246v-918q0 -172 -56 -294.5t-178.5 -188t-322.5 -65.5zM405 1631v161h654v-161h-654z" />
    <glyph glyph-name="umacron" unicode="&#x16b;" horiz-adv-x="1177" 
d="M518 -20q-76 0 -146.5 22.5t-126.5 66t-89 107.5t-33 149v709h244v-681q0 -84 53.5 -138t161.5 -54q98 0 157 51.5t59 148.5v673h242v-1034h-187l-27 202q-19 -85 -66.5 -133.5t-111 -68.5t-130.5 -20zM257 1219v161h654v-161h-654z" />
    <glyph glyph-name="Ubreve" unicode="&#x16c;" horiz-adv-x="1427" 
d="M730 -20q-200 0 -322.5 66.5t-177.5 192t-55 303.5v904h249v-929q0 -168 82.5 -248t223.5 -80q95 0 165 35t108 107.5t38 185.5v929h246v-918q0 -172 -56 -294.5t-178.5 -188t-322.5 -65.5zM731 1566q-79 0 -147.5 26.5t-116 79.5t-64.5 131h162q15 -49 58.5 -80
t107.5 -31q63 0 108 31t62 80h160q-16 -76 -63.5 -129t-116 -80.5t-150.5 -27.5z" />
    <glyph glyph-name="ubreve" unicode="&#x16d;" horiz-adv-x="1177" 
d="M518 -20q-76 0 -146.5 22.5t-126.5 66t-89 107.5t-33 149v709h244v-681q0 -84 53.5 -138t161.5 -54q98 0 157 51.5t59 148.5v673h242v-1034h-187l-27 202q-19 -85 -66.5 -133.5t-111 -68.5t-130.5 -20zM583 1154q-79 0 -147.5 26.5t-116 79.5t-64.5 131h162
q15 -49 58.5 -80t107.5 -31q63 0 108 31t62 80h160q-16 -76 -63.5 -129t-116 -80.5t-150.5 -27.5z" />
    <glyph glyph-name="Uring" unicode="&#x16e;" horiz-adv-x="1427" 
d="M730 -20q-200 0 -322.5 66.5t-177.5 192t-55 303.5v904h249v-929q0 -168 82.5 -248t223.5 -80q95 0 165 35t108 107.5t38 185.5v929h246v-918q0 -172 -56 -294.5t-178.5 -188t-322.5 -65.5zM732 1556q-89 0 -150.5 62.5t-61.5 153.5q0 85 62.5 145t149.5 60
q59 0 107.5 -28t77 -75.5t28.5 -105.5q0 -90 -62 -151t-151 -61zM730 1661q43 0 72.5 32t29.5 74q0 44 -29.5 73t-72.5 29q-42 0 -73.5 -29t-31.5 -73q0 -42 31.5 -74t73.5 -32z" />
    <glyph glyph-name="uring" unicode="&#x16f;" horiz-adv-x="1177" 
d="M518 -20q-76 0 -146.5 22.5t-126.5 66t-89 107.5t-33 149v709h244v-681q0 -84 53.5 -138t161.5 -54q98 0 157 51.5t59 148.5v673h242v-1034h-187l-27 202q-19 -85 -66.5 -133.5t-111 -68.5t-130.5 -20zM585 1144q-89 0 -150.5 62.5t-61.5 153.5q0 85 62.5 145t149.5 60
q59 0 107.5 -28t77 -75.5t28.5 -105.5q0 -90 -62 -151t-151 -61zM583 1249q43 0 72.5 32t29.5 74q0 44 -29.5 73t-72.5 29q-42 0 -73.5 -29t-31.5 -73q0 -42 31.5 -74t73.5 -32z" />
    <glyph glyph-name="Uhungarumlaut" unicode="&#x170;" horiz-adv-x="1427" 
d="M730 -20q-200 0 -322.5 66.5t-177.5 192t-55 303.5v904h249v-929q0 -168 82.5 -248t223.5 -80q95 0 165 35t108 107.5t38 185.5v929h246v-918q0 -172 -56 -294.5t-178.5 -188t-322.5 -65.5zM805 1567l242 291h240l-303 -291h-179zM485 1567l199 291h234l-253 -291h-180z
" />
    <glyph glyph-name="uhungarumlaut" unicode="&#x171;" horiz-adv-x="1177" 
d="M518 -20q-76 0 -146.5 22.5t-126.5 66t-89 107.5t-33 149v709h244v-681q0 -84 53.5 -138t161.5 -54q98 0 157 51.5t59 148.5v673h242v-1034h-187l-27 202q-19 -85 -66.5 -133.5t-111 -68.5t-130.5 -20zM657 1155l242 291h240l-303 -291h-179zM337 1155l199 291h234
l-253 -291h-180z" />
    <glyph glyph-name="Uogonek" unicode="&#x172;" horiz-adv-x="1427" 
d="M747 -335q-100 0 -154.5 42t-54.5 120q0 57 40 104t158 85l172 -8q-103 -41 -145 -75.5t-42 -79.5q0 -33 19 -50.5t62 -17.5q47 0 83 13t61 28v-116q-26 -16 -81 -30.5t-118 -14.5zM730 -20q-200 0 -322.5 66.5t-177.5 192t-55 303.5v904h249v-929q0 -168 82.5 -248
t223.5 -80q95 0 165 35t108 107.5t38 185.5v929h246v-918q0 -172 -56 -294.5t-178.5 -188t-322.5 -65.5z" />
    <glyph glyph-name="uogonek" unicode="&#x173;" horiz-adv-x="1177" 
d="M518 -20q-76 0 -146.5 22.5t-126.5 66t-89 107.5t-33 149v709h244v-681q0 -84 53.5 -138t161.5 -54q98 0 157 51.5t59 148.5v673h242v-1034h-187l-27 202q-19 -85 -66.5 -133.5t-111 -68.5t-130.5 -20zM870 -335q-100 0 -154.5 42t-54.5 119q0 57 39.5 104.5t158.5 85.5
l172 -9q-103 -40 -145.5 -75t-42.5 -79q0 -34 19.5 -51t62.5 -17q46 0 82.5 13t61.5 27v-116q-26 -15 -81 -29.5t-118 -14.5z" />
    <glyph glyph-name="Wcircumflex" unicode="&#x174;" horiz-adv-x="1923" 
d="M464 0l-422 1446h240l293 -1044l294 1044h182l296 -1044l294 1044h241l-425 -1446h-205l-292 1025l-296 -1025h-200zM618 1567l258 244h170l252 -244h-204l-135 135l-149 -135h-192z" />
    <glyph glyph-name="wcircumflex" unicode="&#x175;" horiz-adv-x="1569" 
d="M368 0l-328 1034h219l215 -711h12l209 711h177l215 -710h12l208 710h223l-328 -1034h-210l-212 689l-207 -689h-205zM451 1155l258 244h170l252 -244h-204l-135 135l-149 -135h-192z" />
    <glyph glyph-name="Ycircumflex" unicode="&#x176;" horiz-adv-x="1280" 
d="M519 0v612l-498 834h264l357 -622l351 622h266l-497 -835v-611h-243zM324 1569l258 244h170l252 -244h-204l-135 135l-149 -135h-192z" />
    <glyph glyph-name="ycircumflex" unicode="&#x177;" horiz-adv-x="1101" 
d="M273 -330q-100 0 -139 15.5l-39 15.5v156l104 -3q63 -3 102.5 7t61.5 27.5t32.5 37t16.5 33.5l27 76l-403 999h242l275 -731l274 731h238l-426 -1072q-48 -117 -103.5 -180.5t-121 -87.5t-141.5 -24zM217 1155l258 244h170l252 -244h-204l-135 135l-149 -135h-192z" />
    <glyph glyph-name="Ydieresis" unicode="&#x178;" horiz-adv-x="1280" 
d="M519 0v612l-498 834h264l357 -622l351 622h266l-497 -835v-611h-243zM765 1649l2 211h232l-3 -211h-231zM334 1649l2 211h232l-3 -211h-231z" />
    <glyph glyph-name="Zacute" unicode="&#x179;" horiz-adv-x="1309" 
d="M117 0v124l760 1115h-718v207h1063v-118l-769 -1119h762v-209h-1098zM605 1567l206 291h260l-286 -291h-180z" />
    <glyph glyph-name="zacute" unicode="&#x17a;" horiz-adv-x="978" 
d="M69 0v141l544 720h-519v173h811v-141l-543 -720h548v-173h-841zM399 1155l206 291h260l-286 -291h-180z" />
    <glyph glyph-name="Zdotaccent" unicode="&#x17b;" horiz-adv-x="1309" 
d="M117 0v124l760 1115h-718v207h1063v-118l-769 -1119h762v-209h-1098zM582 1647v211h237v-211h-237z" />
    <glyph glyph-name="zdotaccent" unicode="&#x17c;" horiz-adv-x="978" 
d="M69 0v141l544 720h-519v173h811v-141l-543 -720h548v-173h-841zM376 1235v211h237v-211h-237z" />
    <glyph glyph-name="Zcaron" unicode="&#x17d;" horiz-adv-x="1309" 
d="M117 0v124l760 1115h-718v207h1063v-118l-769 -1119h762v-209h-1098zM616 1567l-258 245h193l149 -144l135 144h204l-252 -245h-171z" />
    <glyph glyph-name="zcaron" unicode="&#x17e;" horiz-adv-x="978" 
d="M69 0v141l544 720h-519v173h811v-141l-543 -720h548v-173h-841zM410 1155l-258 245h193l149 -144l135 144h204l-252 -245h-171z" />
    <glyph glyph-name="uni018F" unicode="&#x18f;" horiz-adv-x="1494" 
d="M747 -20q-192 0 -337 85.5t-226 264.5t-81 458h1001q0 213 -94 330.5t-268 117.5q-87 0 -155 -26t-114.5 -69t-71 -93t-24.5 -97h-276q0 85 45 175.5t129.5 167t203.5 124.5t268 48q202 0 346.5 -86.5t222 -250.5t77.5 -397q0 -252 -82 -419t-227 -250t-337 -83zM747 197
q116 0 194.5 52.5t118.5 144.5t41 210l-702 1q0 -119 40 -211.5t117.5 -144.5t190.5 -52z" />
    <glyph glyph-name="florin" unicode="&#x192;" horiz-adv-x="980" 
d="M-92 -334l24 166l118 1q63 1 94 32t45 114l155 883h-167l30 172h167l27 154q22 124 104.5 191t208.5 67h218l-27 -166h-139q-48 0 -85 -36.5t-48 -93.5l-21 -116h240l-31 -172h-233l-163 -931q-22 -124 -103 -194.5t-212 -70.5h-202z" />
    <glyph glyph-name="Ohorn" unicode="&#x1a0;" horiz-adv-x="1625" 
d="M751 -20q-200 0 -345.5 88t-225 254t-79.5 398q0 234 80 401t226.5 256t343.5 89q145 0 262 -48.5t201 -141.5q43 1 74 7.5t50.5 26t31 61t15.5 111.5h173q-1 -112 -25.5 -185.5t-79 -111t-149.5 -40.5q45 -84 68 -191t23 -234q0 -232 -78 -397.5t-223 -254t-343 -88.5z
M751 184q118 0 203 55.5t130.5 173t45.5 304.5q0 190 -46 310.5t-131 177.5t-202 57q-118 0 -203.5 -57.5t-132.5 -178t-47 -309.5q0 -187 47 -304.5t132.5 -173t203.5 -55.5z" />
    <glyph glyph-name="ohorn" unicode="&#x1a1;" horiz-adv-x="1246" 
d="M572 -20q-148 0 -258 63.5t-170.5 182.5t-60.5 286q0 162 59 284t168.5 190t262.5 68q112 0 202 -37.5t154 -108.5q47 3 76.5 18t45 58.5t20.5 128.5h172q0 -109 -22.5 -181t-74 -109.5t-139.5 -44.5q51 -111 51 -266q0 -157 -56.5 -276.5t-165 -187.5t-264.5 -68z
M573 165q84 0 138.5 46t81.5 126t27 182q0 95 -24 175t-78.5 128.5t-144.5 48.5q-85 0 -140.5 -44.5t-82.5 -124t-27 -183.5q0 -94 24 -174.5t79 -130t147 -49.5z" />
    <glyph glyph-name="Uhorn" unicode="&#x1af;" horiz-adv-x="1675" 
d="M730 -20q-200 0 -322.5 66.5t-177.5 192t-55 303.5v904h249v-929q0 -168 82.5 -248t223.5 -80q95 0 165 35t108 107.5t38 185.5v929h246v-170q45 2 73 18.5t43 60.5t20 127h172q-1 -123 -30 -199.5t-95.5 -110t-182.5 -27.5v-617q0 -172 -56 -294.5t-178.5 -188
t-322.5 -65.5z" />
    <glyph glyph-name="uhorn" unicode="&#x1b0;" horiz-adv-x="1368" 
d="M518 -20q-76 0 -146.5 22.5t-126.5 66t-89 107.5t-33 149v709h244v-681q0 -84 53.5 -138t161.5 -54q98 0 157 51.5t59 148.5v673h242v-128q50 1 80.5 17t46.5 60t21 130h172q-1 -125 -31 -202t-99.5 -109.5t-189.5 -24.5v-777h-187l-27 202q-19 -85 -66.5 -133.5
t-111 -68.5t-130.5 -20z" />
    <glyph glyph-name="uni01D4" unicode="&#x1d4;" horiz-adv-x="1177" 
d="M518 -20q-76 0 -146.5 22.5t-126.5 66t-89 107.5t-33 149v709h244v-681q0 -84 53.5 -138t161.5 -54q98 0 157 51.5t59 148.5v673h242v-1034h-187l-27 202q-19 -85 -66.5 -133.5t-111 -68.5t-130.5 -20zM499 1155l-258 245h193l149 -144l135 144h204l-252 -245h-171z" />
    <glyph glyph-name="uni01EA" unicode="&#x1ea;" horiz-adv-x="1497" 
d="M778 -337q-99 0 -153.5 42t-54.5 119q0 57 39.5 104.5t158.5 85.5l172 -9q-104 -40 -146 -75t-42 -79q0 -33 19.5 -50.5t62.5 -17.5q46 0 82 13t62 28v-117q-27 -15 -81.5 -29.5t-118.5 -14.5zM751 -20q-200 0 -345.5 88t-225 254t-79.5 398q0 234 80 401t226.5 256
t343.5 89t341.5 -89t223.5 -256t79 -401q0 -232 -78 -397.5t-223 -254t-343 -88.5zM751 184q118 0 203 55.5t130.5 173t45.5 304.5q0 190 -46 310.5t-131 177.5t-202 57q-118 0 -203.5 -57.5t-132.5 -178t-47 -309.5q0 -187 47 -304.5t132.5 -173t203.5 -55.5z" />
    <glyph glyph-name="uni01EB" unicode="&#x1eb;" horiz-adv-x="1142" 
d="M592 -333q-100 0 -154.5 42t-54.5 119q0 57 40 104.5t158 85.5l172 -9q-103 -40 -145 -75t-42 -79q0 -34 19.5 -51t61.5 -17q47 0 83 13t61 27v-116q-26 -16 -80.5 -30t-118.5 -14zM572 -20q-148 0 -258 63.5t-170.5 182.5t-60.5 286q0 162 59 284t168.5 190t262.5 68
q148 0 257 -65t168.5 -186t59.5 -291q0 -157 -56.5 -276.5t-165 -187.5t-264.5 -68zM573 165q84 0 138.5 46t81.5 126t27 182q0 95 -24 175t-78.5 128.5t-144.5 48.5q-85 0 -140.5 -44.5t-82.5 -124t-27 -183.5q0 -94 24 -174.5t79 -130t147 -49.5z" />
    <glyph glyph-name="Aringacute" unicode="&#x1fa;" horiz-adv-x="1438" 
d="M857 1880l-59 -140q56 -22 91 -70t35 -112q0 -88 -59.5 -143t-145.5 -55q-87 0 -146 56.5t-59 145.5q0 70 44.5 121t111.5 65l31 132h156zM717 1450q43 0 73 32.5t30 73.5q0 44 -30 73.5t-73 29.5q-41 0 -73 -29.5t-32 -73.5q0 -41 32 -73.5t73 -32.5zM68 0l519 1446h264
l519 -1446h-244l-129 363h-554l-130 -363h-245zM501 579h435l-217 631z" />
    <glyph glyph-name="aringacute" unicode="&#x1fb;" horiz-adv-x="1120" 
d="M709 1495l-59 -140q56 -21 91 -69.5t35 -112.5q0 -87 -59.5 -142.5t-145.5 -55.5q-87 0 -146 57t-59 145q0 71 44.5 121.5t111.5 64.5l31 132h156zM569 1065q43 0 73 32.5t30 73.5q0 44 -30 73.5t-73 29.5q-41 0 -73 -29.5t-32 -73.5q0 -41 32 -73.5t73 -32.5zM437 -20
q-99 0 -177.5 36.5t-123 105t-44.5 166.5q0 171 123.5 258t393.5 91l155 4v70q0 82 -48.5 128.5t-150.5 45.5q-76 -1 -138 -35.5t-82 -115.5h-207q6 106 61.5 177.5t152.5 107t224 35.5q148 0 241 -39t137 -112.5t44 -177.5v-725h-205l-20 186q-55 -117 -140.5 -161.5
t-195.5 -44.5zM516 145q45 0 89 16.5t79.5 45t57 63.5t22.5 73v163l-127 -2q-94 -1 -164.5 -20t-109.5 -60.5t-39 -110.5q0 -79 55 -123.5t137 -44.5z" />
    <glyph glyph-name="AEacute" unicode="&#x1fc;" horiz-adv-x="2020" 
d="M0 0l786 1446h1101l-1 -205h-687v-410h604v-204h-604v-420h710v-207h-987v366h-478l-198 -366h-246zM537 579h385v702zM1216 1567l206 291h260l-286 -291h-180z" />
    <glyph glyph-name="aeacute" unicode="&#x1fd;" horiz-adv-x="1827" 
d="M437 -20q-99 0 -177.5 36.5t-123 105t-44.5 166.5q0 171 124 258t394 91l154 4v70q0 85 -53.5 130t-145.5 44q-75 -1 -137.5 -37t-82.5 -114h-207q5 99 61 171t153 110.5t224 38.5q130 0 220 -39t135 -109q57 71 141.5 109.5t192.5 38.5q152 0 256.5 -65t158.5 -181.5
t54 -272.5v-74h-716q0 -88 29 -156t86 -106.5t141 -38.5q86 0 149 38.5t84 117.5h223q-18 -108 -86 -183t-164 -114t-201 -39q-143 0 -253.5 60t-172.5 170q-25 -71 -83 -123t-142.5 -79.5t-190.5 -27.5zM516 145q74 0 129 34.5t86 85t31 100.5v141l-125 -2q-94 -1 -164 -20
t-109.5 -60.5t-39.5 -110.5q0 -79 55 -123.5t137 -44.5zM1018 612h486q0 75 -26.5 135.5t-79.5 96t-134 35.5t-135.5 -39t-82.5 -100.5t-28 -127.5zM781 1155l206 291h260l-286 -291h-180z" />
    <glyph glyph-name="Oslashacute" unicode="&#x1fe;" horiz-adv-x="1529" 
d="M164 -27l-115 116l168 179q-51 88 -78.5 201t-27.5 249q0 235 79.5 402t225.5 256.5t344 89.5q136 0 246 -42t192 -123l162 170l115 -114l-175 -187q52 -88 79 -201t27 -249q0 -232 -78.5 -398t-224 -254t-344.5 -88q-135 0 -245 41t-191 118zM761 181q159 0 243.5 103
t95.5 320q7 90 1 175.5t-23 170.5l-587 -641q88 -128 270 -128zM438 487l589 643q-43 71 -109.5 104t-157.5 33q-162 0 -249 -111t-99 -344q-4 -86 2.5 -167t23.5 -158zM662 1567l206 291h260l-286 -291h-180z" />
    <glyph glyph-name="oslashacute" unicode="&#x1ff;" horiz-adv-x="1200" 
d="M133 -13l-87 92l1011 965l86 -92zM608 -20q-148 0 -258 63.5t-170.5 182.5t-60.5 286q0 162 58.5 284t168.5 190t263 68q148 0 257 -65t168.5 -186t59.5 -291q0 -157 -56.5 -276.5t-165 -187.5t-264.5 -68zM609 165q84 0 138.5 46t81 126t26.5 182q0 95 -23.5 175
t-78 128.5t-144.5 48.5q-85 0 -140.5 -44.5t-83 -124t-27.5 -183.5q0 -94 24.5 -174.5t79.5 -130t147 -49.5zM499 1155l206 291h260l-286 -291h-180z" />
    <glyph glyph-name="uni0200" unicode="&#x200;" horiz-adv-x="1438" 
d="M68 0l519 1446h264l519 -1446h-244l-129 363h-554l-130 -363h-245zM501 579h435l-217 631zM467 1567l-302 291h240l242 -291h-180zM787 1567l-253 291h233l199 -291h-179z" />
    <glyph glyph-name="uni0201" unicode="&#x201;" horiz-adv-x="1120" 
d="M437 -20q-99 0 -177.5 36.5t-123 105t-44.5 166.5q0 171 123.5 258t393.5 91l155 4v70q0 82 -48.5 128.5t-150.5 45.5q-76 -1 -138 -35.5t-82 -115.5h-207q6 106 61.5 177.5t152.5 107t224 35.5q148 0 241 -39t137 -112.5t44 -177.5v-725h-205l-20 186
q-55 -117 -140.5 -161.5t-195.5 -44.5zM516 145q45 0 89 16.5t79.5 45t57 63.5t22.5 73v163l-127 -2q-94 -1 -164.5 -20t-109.5 -60.5t-39 -110.5q0 -79 55 -123.5t137 -44.5zM326 1155l-302 291h240l242 -291h-180zM646 1155l-253 291h233l199 -291h-179z" />
    <glyph glyph-name="uni0202" unicode="&#x202;" horiz-adv-x="1438" 
d="M68 0l519 1446h264l519 -1446h-244l-129 363h-554l-130 -363h-245zM501 579h435l-217 631zM387 1605q17 78 64.5 130.5t116 79.5t147.5 27q82 0 150.5 -27.5t116 -80.5t63.5 -129h-160q-17 48 -61.5 79t-108.5 31t-107.5 -31t-58.5 -79h-162z" />
    <glyph glyph-name="uni0203" unicode="&#x203;" horiz-adv-x="1120" 
d="M437 -20q-99 0 -177.5 36.5t-123 105t-44.5 166.5q0 171 123.5 258t393.5 91l155 4v70q0 82 -48.5 128.5t-150.5 45.5q-76 -1 -138 -35.5t-82 -115.5h-207q6 106 61.5 177.5t152.5 107t224 35.5q148 0 241 -39t137 -112.5t44 -177.5v-725h-205l-20 186
q-55 -117 -140.5 -161.5t-195.5 -44.5zM516 145q45 0 89 16.5t79.5 45t57 63.5t22.5 73v163l-127 -2q-94 -1 -164.5 -20t-109.5 -60.5t-39 -110.5q0 -79 55 -123.5t137 -44.5zM246 1193q17 78 64.5 130.5t116 79.5t147.5 27q82 0 150.5 -27.5t116 -80.5t63.5 -129h-160
q-17 48 -61.5 79t-108.5 31t-107.5 -31t-58.5 -79h-162z" />
    <glyph glyph-name="uni0204" unicode="&#x204;" horiz-adv-x="1257" 
d="M175 0v1446h956l-1 -209h-710v-405h627v-206h-629v-414l727 -1v-211h-970zM403 1567l-302 291h240l242 -291h-180zM723 1567l-253 291h233l199 -291h-179z" />
    <glyph glyph-name="uni0205" unicode="&#x205;" horiz-adv-x="1144" 
d="M595 -20q-149 0 -262.5 63.5t-177 181.5t-63.5 281q0 159 57.5 282.5t167 194.5t264.5 71q153 0 257 -65t158 -181.5t54 -272.5v-74h-715q-1 -88 28 -156t86 -106.5t141 -38.5q86 0 149.5 38.5t84.5 117.5h222q-18 -108 -85.5 -183t-164 -114t-201.5 -39zM334 612h486
q0 75 -26.5 135.5t-79.5 96t-134 35.5q-80 0 -135 -39t-83 -100.5t-28 -127.5zM330 1155l-302 291h240l242 -291h-180zM650 1155l-253 291h233l199 -291h-179z" />
    <glyph glyph-name="uni0206" unicode="&#x206;" horiz-adv-x="1257" 
d="M175 0v1446h956l-1 -209h-710v-405h627v-206h-629v-414l727 -1v-211h-970zM323 1605q17 78 64.5 130.5t116 79.5t147.5 27q82 0 150.5 -27.5t116 -80.5t63.5 -129h-160q-17 48 -61.5 79t-108.5 31t-107.5 -31t-58.5 -79h-162z" />
    <glyph glyph-name="uni0207" unicode="&#x207;" horiz-adv-x="1144" 
d="M595 -20q-149 0 -262.5 63.5t-177 181.5t-63.5 281q0 159 57.5 282.5t167 194.5t264.5 71q153 0 257 -65t158 -181.5t54 -272.5v-74h-715q-1 -88 28 -156t86 -106.5t141 -38.5q86 0 149.5 38.5t84.5 117.5h222q-18 -108 -85.5 -183t-164 -114t-201.5 -39zM334 612h486
q0 75 -26.5 135.5t-79.5 96t-134 35.5q-80 0 -135 -39t-83 -100.5t-28 -127.5zM250 1193q17 78 64.5 130.5t116 79.5t147.5 27q82 0 150.5 -27.5t116 -80.5t63.5 -129h-160q-17 48 -61.5 79t-108.5 31t-107.5 -31t-58.5 -79h-162z" />
    <glyph glyph-name="uni0208" unicode="&#x208;" horiz-adv-x="593" 
d="M175 0v1446h243v-1446h-243zM45 1567l-302 291h240l242 -291h-180zM365 1567l-253 291h233l199 -291h-179z" />
    <glyph glyph-name="uni0209" unicode="&#x209;" horiz-adv-x="509" 
d="M138 0v1034h233v-1034h-233zM5 1155l-302 291h240l242 -291h-180zM325 1155l-253 291h233l199 -291h-179z" />
    <glyph glyph-name="uni020A" unicode="&#x20a;" horiz-adv-x="593" 
d="M175 0v1446h243v-1446h-243zM-34 1605q17 78 64.5 130.5t116 79.5t147.5 27q82 0 150.5 -27.5t116 -80.5t63.5 -129h-160q-17 48 -61.5 79t-108.5 31t-107.5 -31t-58.5 -79h-162z" />
    <glyph glyph-name="uni020B" unicode="&#x20b;" horiz-adv-x="635" 
d="M198 0v1034h233v-1034h-233zM-15 1193q17 78 64.5 130.5t116 79.5t147.5 27q82 0 150.5 -27.5t116 -80.5t63.5 -129h-160q-17 48 -61.5 79t-108.5 31t-107.5 -31t-58.5 -79h-162z" />
    <glyph glyph-name="uni020C" unicode="&#x20c;" horiz-adv-x="1497" 
d="M751 -20q-200 0 -345.5 88t-225 254t-79.5 398q0 234 80 401t226.5 256t343.5 89t341.5 -89t223.5 -256t79 -401q0 -232 -78 -397.5t-223 -254t-343 -88.5zM751 184q118 0 203 55.5t130.5 173t45.5 304.5q0 190 -46 310.5t-131 177.5t-202 57q-118 0 -203.5 -57.5
t-132.5 -178t-47 -309.5q0 -187 47 -304.5t132.5 -173t203.5 -55.5zM498 1567l-302 291h240l242 -291h-180zM818 1567l-253 291h233l199 -291h-179z" />
    <glyph glyph-name="uni020D" unicode="&#x20d;" horiz-adv-x="1142" 
d="M572 -20q-148 0 -258 63.5t-170.5 182.5t-60.5 286q0 162 59 284t168.5 190t262.5 68q148 0 257 -65t168.5 -186t59.5 -291q0 -157 -56.5 -276.5t-165 -187.5t-264.5 -68zM573 165q84 0 138.5 46t81.5 126t27 182q0 95 -24 175t-78.5 128.5t-144.5 48.5
q-85 0 -140.5 -44.5t-82.5 -124t-27 -183.5q0 -94 24 -174.5t79 -130t147 -49.5zM320 1155l-302 291h240l242 -291h-180zM640 1155l-253 291h233l199 -291h-179z" />
    <glyph glyph-name="uni020E" unicode="&#x20e;" horiz-adv-x="1497" 
d="M751 -20q-200 0 -345.5 88t-225 254t-79.5 398q0 234 80 401t226.5 256t343.5 89t341.5 -89t223.5 -256t79 -401q0 -232 -78 -397.5t-223 -254t-343 -88.5zM751 184q118 0 203 55.5t130.5 173t45.5 304.5q0 190 -46 310.5t-131 177.5t-202 57q-118 0 -203.5 -57.5
t-132.5 -178t-47 -309.5q0 -187 47 -304.5t132.5 -173t203.5 -55.5zM419 1605q17 78 64.5 130.5t116 79.5t147.5 27q82 0 150.5 -27.5t116 -80.5t63.5 -129h-160q-17 48 -61.5 79t-108.5 31t-107.5 -31t-58.5 -79h-162z" />
    <glyph glyph-name="uni020F" unicode="&#x20f;" horiz-adv-x="1142" 
d="M572 -20q-148 0 -258 63.5t-170.5 182.5t-60.5 286q0 162 59 284t168.5 190t262.5 68q148 0 257 -65t168.5 -186t59.5 -291q0 -157 -56.5 -276.5t-165 -187.5t-264.5 -68zM573 165q84 0 138.5 46t81.5 126t27 182q0 95 -24 175t-78.5 128.5t-144.5 48.5
q-85 0 -140.5 -44.5t-82.5 -124t-27 -183.5q0 -94 24 -174.5t79 -130t147 -49.5zM240 1193q17 78 64.5 130.5t116 79.5t147.5 27q82 0 150.5 -27.5t116 -80.5t63.5 -129h-160q-17 48 -61.5 79t-108.5 31t-107.5 -31t-58.5 -79h-162z" />
    <glyph glyph-name="uni0210" unicode="&#x210;" horiz-adv-x="1374" 
d="M175 0v1446h587q166 0 273.5 -51.5t159.5 -145t52 -218.5q0 -116 -38 -194.5t-98.5 -128t-129.5 -80.5l276 -628h-254l-249 587h-336v-587h-243zM418 780h289q138 0 215.5 64t77.5 178q0 112 -72 173t-190 61h-320v-476zM418 1567l-302 291h240l242 -291h-180zM738 1567
l-253 291h233l199 -291h-179z" />
    <glyph glyph-name="uni0211" unicode="&#x211;" horiz-adv-x="805" 
d="M138 0v1034h233v-224q25 77 71.5 131.5t109.5 83.5t137 29q18 0 35 -2t25 -7v-233q-11 5 -28.5 7t-30.5 2q-75 6 -132.5 -6t-97 -40.5t-59.5 -72t-20 -101.5v-601h-243zM184 1155l-302 291h240l242 -291h-180zM504 1155l-253 291h233l199 -291h-179z" />
    <glyph glyph-name="uni0212" unicode="&#x212;" horiz-adv-x="1374" 
d="M175 0v1446h587q166 0 273.5 -51.5t159.5 -145t52 -218.5q0 -116 -38 -194.5t-98.5 -128t-129.5 -80.5l276 -628h-254l-249 587h-336v-587h-243zM418 780h289q138 0 215.5 64t77.5 178q0 112 -72 173t-190 61h-320v-476zM338 1605q17 78 64.5 130.5t116 79.5t147.5 27
q82 0 150.5 -27.5t116 -80.5t63.5 -129h-160q-17 48 -61.5 79t-108.5 31t-107.5 -31t-58.5 -79h-162z" />
    <glyph glyph-name="uni0213" unicode="&#x213;" horiz-adv-x="805" 
d="M138 0v1034h233v-224q25 77 71.5 131.5t109.5 83.5t137 29q18 0 35 -2t25 -7v-233q-11 5 -28.5 7t-30.5 2q-75 6 -132.5 -6t-97 -40.5t-59.5 -72t-20 -101.5v-601h-243zM105 1172q17 78 64.5 130.5t116 79.5t147.5 27q82 0 150.5 -27.5t116 -80.5t63.5 -129h-160
q-17 48 -61.5 79t-108.5 31t-107.5 -31t-58.5 -79h-162z" />
    <glyph glyph-name="uni0214" unicode="&#x214;" horiz-adv-x="1427" 
d="M730 -20q-200 0 -322.5 66.5t-177.5 192t-55 303.5v904h249v-929q0 -168 82.5 -248t223.5 -80q95 0 165 35t108 107.5t38 185.5v929h246v-918q0 -172 -56 -294.5t-178.5 -188t-322.5 -65.5zM480 1567l-302 291h240l242 -291h-180zM800 1567l-253 291h233l199 -291h-179z
" />
    <glyph glyph-name="uni0215" unicode="&#x215;" horiz-adv-x="1177" 
d="M518 -20q-76 0 -146.5 22.5t-126.5 66t-89 107.5t-33 149v709h244v-681q0 -84 53.5 -138t161.5 -54q98 0 157 51.5t59 148.5v673h242v-1034h-187l-27 202q-19 -85 -66.5 -133.5t-111 -68.5t-130.5 -20zM332 1155l-302 291h240l242 -291h-180zM652 1155l-253 291h233
l199 -291h-179z" />
    <glyph glyph-name="uni0216" unicode="&#x216;" horiz-adv-x="1427" 
d="M730 -20q-200 0 -322.5 66.5t-177.5 192t-55 303.5v904h249v-929q0 -168 82.5 -248t223.5 -80q95 0 165 35t108 107.5t38 185.5v929h246v-918q0 -172 -56 -294.5t-178.5 -188t-322.5 -65.5zM400 1605q17 78 64.5 130.5t116 79.5t147.5 27q82 0 150.5 -27.5t116 -80.5
t63.5 -129h-160q-17 48 -61.5 79t-108.5 31t-107.5 -31t-58.5 -79h-162z" />
    <glyph glyph-name="uni0217" unicode="&#x217;" horiz-adv-x="1177" 
d="M518 -20q-76 0 -146.5 22.5t-126.5 66t-89 107.5t-33 149v709h244v-681q0 -84 53.5 -138t161.5 -54q98 0 157 51.5t59 148.5v673h242v-1034h-187l-27 202q-19 -85 -66.5 -133.5t-111 -68.5t-130.5 -20zM252 1193q17 78 64.5 130.5t116 79.5t147.5 27q82 0 150.5 -27.5
t116 -80.5t63.5 -129h-160q-17 48 -61.5 79t-108.5 31t-107.5 -31t-58.5 -79h-162z" />
    <glyph glyph-name="uni0218" unicode="&#x218;" horiz-adv-x="1364" 
d="M694 -20q-108 0 -207 26.5t-180.5 79t-134.5 131t-65 183.5h252q16 -73 63.5 -123t120.5 -76t163 -26q80 0 149 24t112 71.5t43 117.5q0 79 -55.5 123.5t-158.5 70.5l-283 67q-110 25 -191.5 73t-126.5 126.5t-45 192.5q0 130 71.5 225t194.5 146.5t277 51.5
q176 0 297 -58.5t184 -156.5t64 -215h-246q-8 87 -51 137.5t-109 73.5t-146 23q-142 0 -211 -61t-69 -143q0 -77 51 -122t156 -70l269 -63q135 -28 217 -86t119.5 -137.5t37.5 -175.5q0 -126 -71.5 -223t-197.5 -152t-293 -55zM551 -413l87 138l-72 7v173h220v-144
l-144 -174h-91z" />
    <glyph glyph-name="uni0219" unicode="&#x219;" horiz-adv-x="1035" 
d="M534 -20q-108 0 -204.5 34.5t-162 108.5t-82.5 191h214q14 -57 49.5 -93t84 -52.5t100.5 -16.5q93 0 150 32t57 99q0 49 -31.5 78t-102.5 44l-196 45q-132 29 -211 96t-80 189q-1 92 46 164t140 113.5t229 41.5q181 0 290.5 -80.5t112.5 -229.5h-207q-11 67 -63 104.5
t-135 37.5q-86 0 -141 -33t-55 -101q0 -47 41.5 -74t126.5 -46l186 -45q80 -20 131 -54t79.5 -74.5t40 -83t11.5 -78.5q0 -100 -51.5 -170.5t-145 -108.5t-221.5 -38zM399 -413l87 138l-72 7v173h220v-144l-144 -174h-91z" />
    <glyph glyph-name="uni021A" unicode="&#x21a;" horiz-adv-x="1212" 
d="M492 0v1227h-450v219h1128v-219h-434v-1227h-244zM501 -411l87 138l-72 7v173h220v-144l-144 -174h-91z" />
    <glyph glyph-name="uni021B" unicode="&#x21b;" horiz-adv-x="808" 
d="M553 -8q-123 0 -190.5 32.5t-93.5 92.5t-26 143v602h-168v172h175l61 307h175v-306h231v-173h-231l1 -593q0 -46 10.5 -67.5t34 -28t62.5 -6.5h128v-154q-21 -8 -61.5 -14.5t-107.5 -6.5zM352 -403l87 138l-72 7v173h220v-144l-144 -174h-91z" />
    <glyph glyph-name="uni0237" unicode="&#x237;" horiz-adv-x="550" 
d="M92 -332q-82 0 -106 10.5t-24 16.5l-1 162l91 6q65 8 91.5 36.5t26.5 88.5v1046h243v-1051q0 -158 -74.5 -236.5t-246.5 -78.5z" />
    <glyph glyph-name="uni0259" unicode="&#x259;" horiz-adv-x="1144" 
d="M563 -20q-153 0 -257.5 65t-158 181.5t-53.5 272.5v74h715q1 88 -28 156t-86.5 106.5t-140.5 38.5q-86 0 -149.5 -38.5t-84.5 -117.5h-223q19 108 86.5 183t164 114t200.5 39q150 0 263.5 -63.5t177 -181.5t63.5 -281q0 -159 -58 -282.5t-167 -194.5t-264 -71zM563 155
q81 0 136 39t83 100.5t27 127.5h-485q0 -75 26 -135.5t79.5 -96t133.5 -35.5z" />
    <glyph glyph-name="uni02BB" unicode="&#x2bb;" horiz-adv-x="477" 
d="M100 944v223q0 77 37 143.5t97.5 102t131.5 21.5v-78l-20 -2q-40 -4 -76 -42.5t-36 -91.5v-15l132 -10v-251h-266z" />
    <glyph glyph-name="uni02BC" unicode="&#x2bc;" horiz-adv-x="477" 
d="M100 948v78l20 2q41 5 76.5 43.5t35.5 90.5v15l-132 10v251h266v-223q0 -77 -37 -143.5t-97.5 -102.5t-131.5 -21z" />
    <glyph glyph-name="circumflex" unicode="&#x2c6;" horiz-adv-x="708" 
d="M14 1155l258 244h170l252 -244h-204l-135 135l-149 -135h-192z" />
    <glyph glyph-name="caron" unicode="&#x2c7;" horiz-adv-x="723" 
d="M271 1155l-258 245h193l149 -144l135 144h204l-252 -245h-171z" />
    <glyph glyph-name="breve" unicode="&#x2d8;" horiz-adv-x="710" 
d="M354 1156q-79 0 -147.5 26.5t-116 79.5t-64.5 131h162q15 -49 58.5 -80t107.5 -31q63 0 108 31t62 80h160q-16 -76 -63.5 -129t-116 -80.5t-150.5 -27.5z" />
    <glyph glyph-name="dotaccent" unicode="&#x2d9;" horiz-adv-x="257" 
d="M10 1235v211h237v-211h-237z" />
    <glyph glyph-name="ring" unicode="&#x2da;" horiz-adv-x="495" 
d="M243 1132q-89 0 -150.5 62.5t-61.5 153.5q0 85 62.5 145t149.5 60q59 0 107.5 -28t77 -75.5t28.5 -105.5q0 -90 -62 -151t-151 -61zM241 1237q43 0 72.5 32t29.5 74q0 44 -29.5 73t-72.5 29q-42 0 -73.5 -29t-31.5 -73q0 -42 31.5 -74t73.5 -32z" />
    <glyph glyph-name="ogonek" unicode="&#x2db;" horiz-adv-x="479" 
d="M240 -334q-100 0 -154.5 42t-54.5 119q0 57 39.5 104.5t158.5 85.5l172 -9q-103 -40 -145.5 -75t-42.5 -79q0 -34 19.5 -51t62.5 -17q46 0 82.5 13t61.5 27v-116q-26 -15 -81 -29.5t-118 -14.5z" />
    <glyph glyph-name="tilde" unicode="&#x2dc;" horiz-adv-x="766" 
d="M95 1204l-40 133q35 34 76.5 59t104.5 25q53 0 100 -14.5t91.5 -29.5t89.5 -15q49 0 86 20t68 43l34 -150q-29 -22 -76 -43t-112 -21q-55 0 -98.5 13.5t-84.5 27t-89 13.5q-50 0 -82 -16.5t-68 -44.5z" />
    <glyph glyph-name="hungarumlaut" unicode="&#x2dd;" horiz-adv-x="822" 
d="M330 1155l242 291h240l-303 -291h-179zM10 1155l199 291h234l-253 -291h-180z" />
    <glyph glyph-name="gravecomb" unicode="&#x300;" 
d="M297 1155l-286 291h259l206 -291h-179z" />
    <glyph glyph-name="acutecomb" unicode="&#x301;" 
d="M10 1155l206 291h260l-286 -291h-180z" />
    <glyph glyph-name="uni0302" unicode="&#x302;" 
d="M14 1155l258 244h170l252 -244h-204l-135 135l-149 -135h-192z" />
    <glyph glyph-name="tildecomb" unicode="&#x303;" 
d="M95 1204l-40 133q35 34 76.5 59t104.5 25q53 0 100 -14.5t91.5 -29.5t89.5 -15q49 0 86 20t68 43l34 -150q-29 -22 -76 -43t-112 -21q-55 0 -98.5 13.5t-84.5 27t-89 13.5q-50 0 -82 -16.5t-68 -44.5z" />
    <glyph glyph-name="uni0304" unicode="&#x304;" 
d="M31 1219v161h654v-161h-654z" />
    <glyph glyph-name="uni0306" unicode="&#x306;" 
d="M354 1156q-79 0 -147.5 26.5t-116 79.5t-64.5 131h162q15 -49 58.5 -80t107.5 -31q63 0 108 31t62 80h160q-16 -76 -63.5 -129t-116 -80.5t-150.5 -27.5z" />
    <glyph glyph-name="uni0307" unicode="&#x307;" 
d="M10 1235v211h237v-211h-237z" />
    <glyph glyph-name="uni0308" unicode="&#x308;" 
d="M441 1235l2 211h232l-3 -211h-231zM10 1235l2 211h232l-3 -211h-231z" />
    <glyph glyph-name="hookabovecomb" unicode="&#x309;" 
d="M665 1165l-62 97q41 26 56.5 61t-5.5 68q-19 32 -59.5 32.5t-78.5 -24.5l-62 96q88 57 173.5 44t128.5 -80q53 -81 29 -159t-120 -135z" />
    <glyph glyph-name="uni030A" unicode="&#x30a;" 
d="M243 1132q-89 0 -150.5 62.5t-61.5 153.5q0 85 62.5 145t149.5 60q59 0 107.5 -28t77 -75.5t28.5 -105.5q0 -90 -62 -151t-151 -61zM241 1237q43 0 72.5 32t29.5 74q0 44 -29.5 73t-72.5 29q-42 0 -73.5 -29t-31.5 -73q0 -42 31.5 -74t73.5 -32z" />
    <glyph glyph-name="uni030B" unicode="&#x30b;" 
d="M330 1155l242 291h240l-303 -291h-179zM10 1155l199 291h234l-253 -291h-180z" />
    <glyph glyph-name="uni030C" unicode="&#x30c;" 
d="M271 1155l-258 245h193l149 -144l135 144h204l-252 -245h-171z" />
    <glyph glyph-name="uni030F" unicode="&#x30f;" 
d="M312 1155l-302 291h240l242 -291h-180zM632 1155l-253 291h233l199 -291h-179z" />
    <glyph glyph-name="uni0311" unicode="&#x311;" 
d="M15 1193q17 78 64.5 130.5t116 79.5t147.5 27q82 0 150.5 -27.5t116 -80.5t63.5 -129h-160q-17 48 -61.5 79t-108.5 31t-107.5 -31t-58.5 -79h-162z" />
    <glyph glyph-name="uni0312" unicode="&#x312;" 
d="M117 1155v175l128 180h97l-83 -156l72 -7v-192h-214z" />
    <glyph glyph-name="uni031B" unicode="&#x31b;" 
d="M0 927v133q48 -1 81.5 3t55 22.5t34 59.5t16.5 114h172q-1 -131 -34.5 -209t-111.5 -108t-213 -15z" />
    <glyph glyph-name="dotbelowcomb" unicode="&#x323;" 
d="M10 -380v211h237v-211h-237z" />
    <glyph glyph-name="uni0326" unicode="&#x326;" 
d="M3 -413l87 138l-72 7v173h220v-144l-144 -174h-91z" />
    <glyph glyph-name="uni0327" unicode="&#x327;" 
d="M238 -419q-58 0 -111.5 12t-99.5 40l35 89q29 -19 66 -33.5t81 -14.5q51 0 77 17.5t26 49.5q0 41 -37.5 62t-127.5 22q-11 0 -14.5 3.5t0.5 13.5l73 168h115l-46 -119q72 -2 114 -25.5t60 -57.5t18 -68q0 -51 -31.5 -86.5t-83.5 -54t-114 -18.5z" />
    <glyph glyph-name="uni0328" unicode="&#x328;" 
d="M240 -334q-100 0 -154.5 42t-54.5 119q0 57 39.5 104.5t158.5 85.5l172 -9q-103 -40 -145.5 -75t-42.5 -79q0 -34 19.5 -51t62.5 -17q46 0 82.5 13t61.5 27v-116q-26 -15 -81 -29.5t-118 -14.5z" />
    <glyph glyph-name="pi" unicode="&#x3c0;" horiz-adv-x="1335" 
d="M126 0q22 84 41.5 186t35.5 214.5t25 225.5t9 216q0 20 -17 20h-171v172h1226v-172h-206v-862h-234l-1 862h-365q0 -109 -9.5 -230t-25.5 -239t-37.5 -219.5t-45.5 -173.5h-225z" />
    <glyph glyph-name="uni1E0C" unicode="&#x1e0c;" horiz-adv-x="1416" 
d="M175 0v1446h53h104.5t123 -0.5t108.5 -1.5q264 -5 429.5 -90.5t243 -243t77.5 -379.5q0 -232 -82.5 -395t-252 -249.5t-430.5 -86.5h-374zM422 201h131q149 0 263 51.5t178.5 167.5t64.5 310q0 188 -60 301t-172 163.5t-268 50.5h-137v-1044zM591 -380v211h237v-211h-237
z" />
    <glyph glyph-name="uni1E0D" unicode="&#x1e0d;" horiz-adv-x="1206" 
d="M522 -20q-205 0 -322 141t-117 401q0 162 47.5 281.5t140.5 185t229 65.5q64 0 116.5 -15.5t93.5 -40.5t69.5 -55t44.5 -60v603h245v-1486h-180l-27 212q-13 -37 -36.5 -77.5t-63 -75.5t-98.5 -57t-142 -22zM572 159q131 0 191.5 85.5t60.5 283.5q-1 113 -27.5 190
t-80.5 116t-141 39q-110 0 -180.5 -81t-70.5 -264q0 -182 65 -275.5t183 -93.5zM426 -380v211h237v-211h-237z" />
    <glyph glyph-name="uni1E24" unicode="&#x1e24;" horiz-adv-x="1536" 
d="M175 0v1446h243v-597h700v597h243v-1446h-243v642h-700v-642h-243zM661 -380v211h237v-211h-237z" />
    <glyph glyph-name="uni1E25" unicode="&#x1e25;" horiz-adv-x="1170" 
d="M138 0v1486h240v-602q25 39 66 75.5t100.5 60t142.5 23.5q99 0 181 -38t131 -109.5t49 -170.5v-725h-244v684q0 80 -56.5 124t-142.5 44q-57 0 -109 -20t-83.5 -59.5t-31.5 -98.5v-674h-243zM485 -380v211h237v-211h-237z" />
    <glyph glyph-name="uni1E44" unicode="&#x1e44;" horiz-adv-x="1539" 
d="M175 0v1446h238l708 -1033v1033h243v-1446h-219l-727 1061v-1061h-243zM650 1647v211h237v-211h-237z" />
    <glyph glyph-name="uni1E45" unicode="&#x1e45;" horiz-adv-x="1171" 
d="M138 0v1034h238v-148q24 40 65.5 77t102.5 60t143 23q96 0 178.5 -38t133 -119t50.5 -209v-680h-244v651q0 102 -56 151.5t-141 49.5q-58 0 -110 -19.5t-84.5 -59t-32.5 -98.5v-675h-243zM483 1235v211h237v-211h-237z" />
    <glyph glyph-name="uni1E5A" unicode="&#x1e5a;" horiz-adv-x="1374" 
d="M175 0v1446h587q166 0 273.5 -51.5t159.5 -145t52 -218.5q0 -116 -38 -194.5t-98.5 -128t-129.5 -80.5l276 -628h-254l-249 587h-336v-587h-243zM418 780h289q138 0 215.5 64t77.5 178q0 112 -72 173t-190 61h-320v-476zM569 -380v211h237v-211h-237z" />
    <glyph glyph-name="uni1E5B" unicode="&#x1e5b;" horiz-adv-x="805" 
d="M138 0v1034h233v-224q25 77 71.5 131.5t109.5 83.5t137 29q18 0 35 -2t25 -7v-233q-11 5 -28.5 7t-30.5 2q-75 6 -132.5 -6t-97 -40.5t-59.5 -72t-20 -101.5v-601h-243zM140 -380v211h237v-211h-237z" />
    <glyph glyph-name="uni1E62" unicode="&#x1e62;" horiz-adv-x="1364" 
d="M694 -20q-108 0 -207 26.5t-180.5 79t-134.5 131t-65 183.5h252q16 -73 63.5 -123t120.5 -76t163 -26q80 0 149 24t112 71.5t43 117.5q0 79 -55.5 123.5t-158.5 70.5l-283 67q-110 25 -191.5 73t-126.5 126.5t-45 192.5q0 130 71.5 225t194.5 146.5t277 51.5
q176 0 297 -58.5t184 -156.5t64 -215h-246q-8 87 -51 137.5t-109 73.5t-146 23q-142 0 -211 -61t-69 -143q0 -77 51 -122t156 -70l269 -63q135 -28 217 -86t119.5 -137.5t37.5 -175.5q0 -126 -71.5 -223t-197.5 -152t-293 -55zM557 -380v211h237v-211h-237z" />
    <glyph glyph-name="uni1E63" unicode="&#x1e63;" horiz-adv-x="1035" 
d="M534 -20q-108 0 -204.5 34.5t-162 108.5t-82.5 191h214q14 -57 49.5 -93t84 -52.5t100.5 -16.5q93 0 150 32t57 99q0 49 -31.5 78t-102.5 44l-196 45q-132 29 -211 96t-80 189q-1 92 46 164t140 113.5t229 41.5q181 0 290.5 -80.5t112.5 -229.5h-207q-11 67 -63 104.5
t-135 37.5q-86 0 -141 -33t-55 -101q0 -47 41.5 -74t126.5 -46l186 -45q80 -20 131 -54t79.5 -74.5t40 -83t11.5 -78.5q0 -100 -51.5 -170.5t-145 -108.5t-221.5 -38zM405 -380v211h237v-211h-237z" />
    <glyph glyph-name="uni1E6C" unicode="&#x1e6c;" horiz-adv-x="1212" 
d="M492 0v1227h-450v219h1128v-219h-434v-1227h-244zM507 -378v211h237v-211h-237z" />
    <glyph glyph-name="uni1E6D" unicode="&#x1e6d;" horiz-adv-x="808" 
d="M553 -8q-123 0 -190.5 32.5t-93.5 92.5t-26 143v602h-168v172h175l61 307h175v-306h231v-173h-231l1 -593q0 -46 10.5 -67.5t34 -28t62.5 -6.5h128v-154q-21 -8 -61.5 -14.5t-107.5 -6.5zM358 -370v211h237v-211h-237z" />
    <glyph glyph-name="Wgrave" unicode="&#x1e80;" horiz-adv-x="1923" 
d="M464 0l-422 1446h240l293 -1044l294 1044h182l296 -1044l294 1044h241l-425 -1446h-205l-292 1025l-296 -1025h-200zM872 1567l-286 291h259l206 -291h-179z" />
    <glyph glyph-name="wgrave" unicode="&#x1e81;" horiz-adv-x="1569" 
d="M368 0l-328 1034h219l215 -711h12l209 711h177l215 -710h12l208 710h223l-328 -1034h-210l-212 689l-207 -689h-205zM704 1155l-286 291h259l206 -291h-179z" />
    <glyph glyph-name="Wacute" unicode="&#x1e82;" horiz-adv-x="1923" 
d="M464 0l-422 1446h240l293 -1044l294 1044h182l296 -1044l294 1044h241l-425 -1446h-205l-292 1025l-296 -1025h-200zM864 1567l206 291h260l-286 -291h-180z" />
    <glyph glyph-name="wacute" unicode="&#x1e83;" horiz-adv-x="1569" 
d="M368 0l-328 1034h219l215 -711h12l209 711h177l215 -710h12l208 710h223l-328 -1034h-210l-212 689l-207 -689h-205zM696 1155l206 291h260l-286 -291h-180z" />
    <glyph glyph-name="Wdieresis" unicode="&#x1e84;" horiz-adv-x="1923" 
d="M464 0l-422 1446h240l293 -1044l294 1044h182l296 -1044l294 1044h241l-425 -1446h-205l-292 1025l-296 -1025h-200zM1059 1647l2 211h232l-3 -211h-231zM628 1647l2 211h232l-3 -211h-231z" />
    <glyph glyph-name="wdieresis" unicode="&#x1e85;" horiz-adv-x="1569" 
d="M368 0l-328 1034h219l215 -711h12l209 711h177l215 -710h12l208 710h223l-328 -1034h-210l-212 689l-207 -689h-205zM892 1235l2 211h232l-3 -211h-231zM461 1235l2 211h232l-3 -211h-231z" />
    <glyph glyph-name="uni1E92" unicode="&#x1e92;" horiz-adv-x="1309" 
d="M117 0v124l760 1115h-718v207h1063v-118l-769 -1119h762v-209h-1098zM566 -380v211h237v-211h-237z" />
    <glyph glyph-name="uni1E93" unicode="&#x1e93;" horiz-adv-x="978" 
d="M69 0v141l544 720h-519v173h811v-141l-543 -720h548v-173h-841zM377 -380v211h237v-211h-237z" />
    <glyph glyph-name="uni1EA0" unicode="&#x1ea0;" horiz-adv-x="1438" 
d="M68 0l519 1446h264l519 -1446h-244l-129 363h-554l-130 -363h-245zM501 579h435l-217 631zM601 -380v211h237v-211h-237z" />
    <glyph glyph-name="uni1EA1" unicode="&#x1ea1;" horiz-adv-x="1120" 
d="M437 -20q-99 0 -177.5 36.5t-123 105t-44.5 166.5q0 171 123.5 258t393.5 91l155 4v70q0 82 -48.5 128.5t-150.5 45.5q-76 -1 -138 -35.5t-82 -115.5h-207q6 106 61.5 177.5t152.5 107t224 35.5q148 0 241 -39t137 -112.5t44 -177.5v-725h-205l-20 186
q-55 -117 -140.5 -161.5t-195.5 -44.5zM516 145q45 0 89 16.5t79.5 45t57 63.5t22.5 73v163l-127 -2q-94 -1 -164.5 -20t-109.5 -60.5t-39 -110.5q0 -79 55 -123.5t137 -44.5zM456 -380v211h237v-211h-237z" />
    <glyph glyph-name="uni1EA2" unicode="&#x1ea2;" horiz-adv-x="1438" 
d="M68 0l519 1446h264l519 -1446h-244l-129 363h-554l-130 -363h-245zM501 579h435l-217 631zM791 1565l-62 97q41 26 56.5 61t-5.5 68q-19 32 -59.5 32.5t-78.5 -24.5l-62 96q88 57 173.5 44t128.5 -80q53 -81 29 -159t-120 -135z" />
    <glyph glyph-name="uni1EA3" unicode="&#x1ea3;" horiz-adv-x="1120" 
d="M437 -20q-99 0 -177.5 36.5t-123 105t-44.5 166.5q0 171 123.5 258t393.5 91l155 4v70q0 82 -48.5 128.5t-150.5 45.5q-76 -1 -138 -35.5t-82 -115.5h-207q6 106 61.5 177.5t152.5 107t224 35.5q148 0 241 -39t137 -112.5t44 -177.5v-725h-205l-20 186
q-55 -117 -140.5 -161.5t-195.5 -44.5zM516 145q45 0 89 16.5t79.5 45t57 63.5t22.5 73v163l-127 -2q-94 -1 -164.5 -20t-109.5 -60.5t-39 -110.5q0 -79 55 -123.5t137 -44.5zM650 1153l-62 97q41 26 56.5 61t-5.5 68q-19 32 -59.5 32.5t-78.5 -24.5l-62 96q88 57 173.5 44
t128.5 -80q53 -81 29 -159t-120 -135z" />
    <glyph glyph-name="uni1EA4" unicode="&#x1ea4;" horiz-adv-x="1438" 
d="M68 0l519 1446h264l519 -1446h-244l-129 363h-554l-130 -363h-245zM501 579h435l-217 631zM377 1567l258 244h170l252 -244h-204l-135 135l-149 -135h-192zM926 1800l149 253h201l-213 -253h-137z" />
    <glyph glyph-name="uni1EA5" unicode="&#x1ea5;" horiz-adv-x="1120" 
d="M437 -20q-99 0 -177.5 36.5t-123 105t-44.5 166.5q0 171 123.5 258t393.5 91l155 4v70q0 82 -48.5 128.5t-150.5 45.5q-76 -1 -138 -35.5t-82 -115.5h-207q6 106 61.5 177.5t152.5 107t224 35.5q148 0 241 -39t137 -112.5t44 -177.5v-725h-205l-20 186
q-55 -117 -140.5 -161.5t-195.5 -44.5zM516 145q45 0 89 16.5t79.5 45t57 63.5t22.5 73v163l-127 -2q-94 -1 -164.5 -20t-109.5 -60.5t-39 -110.5q0 -79 55 -123.5t137 -44.5zM236 1155l258 244h170l252 -244h-204l-135 135l-149 -135h-192zM785 1388l149 253h201l-213 -253
h-137z" />
    <glyph glyph-name="uni1EA6" unicode="&#x1ea6;" horiz-adv-x="1438" 
d="M68 0l519 1446h264l519 -1446h-244l-129 363h-554l-130 -363h-245zM501 579h435l-217 631zM377 1567l258 244h170l252 -244h-204l-135 135l-149 -135h-192zM1018 1800l-219 253h201l158 -253h-140z" />
    <glyph glyph-name="uni1EA7" unicode="&#x1ea7;" horiz-adv-x="1120" 
d="M437 -20q-99 0 -177.5 36.5t-123 105t-44.5 166.5q0 171 123.5 258t393.5 91l155 4v70q0 82 -48.5 128.5t-150.5 45.5q-76 -1 -138 -35.5t-82 -115.5h-207q6 106 61.5 177.5t152.5 107t224 35.5q148 0 241 -39t137 -112.5t44 -177.5v-725h-205l-20 186
q-55 -117 -140.5 -161.5t-195.5 -44.5zM516 145q45 0 89 16.5t79.5 45t57 63.5t22.5 73v163l-127 -2q-94 -1 -164.5 -20t-109.5 -60.5t-39 -110.5q0 -79 55 -123.5t137 -44.5zM236 1155l258 244h170l252 -244h-204l-135 135l-149 -135h-192zM877 1388l-219 253h201l158 -253
h-140z" />
    <glyph glyph-name="uni1EA8" unicode="&#x1ea8;" horiz-adv-x="1438" 
d="M68 0l519 1446h264l519 -1446h-244l-129 363h-554l-130 -363h-245zM501 579h435l-217 631zM383 1567l258 244h170l252 -244h-204l-135 135l-149 -135h-192zM990 1755l-63 97q41 26 56.5 61t-5.5 68q-19 31 -59.5 32t-78.5 -24l-62 96q89 56 174 43.5t129 -79.5
q52 -81 28.5 -159t-119.5 -135z" />
    <glyph glyph-name="uni1EA9" unicode="&#x1ea9;" horiz-adv-x="1120" 
d="M437 -20q-99 0 -177.5 36.5t-123 105t-44.5 166.5q0 171 123.5 258t393.5 91l155 4v70q0 82 -48.5 128.5t-150.5 45.5q-76 -1 -138 -35.5t-82 -115.5h-207q6 106 61.5 177.5t152.5 107t224 35.5q148 0 241 -39t137 -112.5t44 -177.5v-725h-205l-20 186
q-55 -117 -140.5 -161.5t-195.5 -44.5zM516 145q45 0 89 16.5t79.5 45t57 63.5t22.5 73v163l-127 -2q-94 -1 -164.5 -20t-109.5 -60.5t-39 -110.5q0 -79 55 -123.5t137 -44.5zM242 1155l258 244h170l252 -244h-204l-135 135l-149 -135h-192zM849 1343l-63 97q41 26 56.5 61
t-5.5 68q-19 31 -59.5 32t-78.5 -24l-62 96q89 56 174 43.5t129 -79.5q52 -81 28.5 -159t-119.5 -135z" />
    <glyph glyph-name="uni1EAA" unicode="&#x1eaa;" horiz-adv-x="1438" 
d="M68 0l519 1446h264l519 -1446h-244l-129 363h-554l-130 -363h-245zM501 579h435l-217 631zM380 1567l258 244h170l252 -244h-204l-135 135l-149 -135h-192zM435 1910l-40 133q35 35 76 59.5t104 24.5q53 0 100 -14.5t91.5 -29.5t89.5 -15q49 0 86.5 20t67.5 43l35 -149
q-29 -23 -76 -44t-113 -21q-55 0 -98 13.5t-84 27t-90 13.5t-81.5 -16t-67.5 -45z" />
    <glyph glyph-name="uni1EAB" unicode="&#x1eab;" horiz-adv-x="1120" 
d="M437 -20q-99 0 -177.5 36.5t-123 105t-44.5 166.5q0 171 123.5 258t393.5 91l155 4v70q0 82 -48.5 128.5t-150.5 45.5q-76 -1 -138 -35.5t-82 -115.5h-207q6 106 61.5 177.5t152.5 107t224 35.5q148 0 241 -39t137 -112.5t44 -177.5v-725h-205l-20 186
q-55 -117 -140.5 -161.5t-195.5 -44.5zM516 145q45 0 89 16.5t79.5 45t57 63.5t22.5 73v163l-127 -2q-94 -1 -164.5 -20t-109.5 -60.5t-39 -110.5q0 -79 55 -123.5t137 -44.5zM238 1155l258 244h170l252 -244h-204l-135 135l-149 -135h-192zM293 1498l-40 133q35 35 76 59.5
t104 24.5q53 0 100 -14.5t91.5 -29.5t89.5 -15q49 0 86.5 20t67.5 43l35 -149q-29 -23 -76 -44t-113 -21q-55 0 -98 13.5t-84 27t-90 13.5t-81.5 -16t-67.5 -45z" />
    <glyph glyph-name="uni1EAC" unicode="&#x1eac;" horiz-adv-x="1438" 
d="M68 0l519 1446h264l519 -1446h-244l-129 363h-554l-130 -363h-245zM501 579h435l-217 631zM601 -380v211h237v-211h-237zM377 1567l258 244h170l252 -244h-204l-135 135l-149 -135h-192z" />
    <glyph glyph-name="uni1EAD" unicode="&#x1ead;" horiz-adv-x="1120" 
d="M437 -20q-99 0 -177.5 36.5t-123 105t-44.5 166.5q0 171 123.5 258t393.5 91l155 4v70q0 82 -48.5 128.5t-150.5 45.5q-76 -1 -138 -35.5t-82 -115.5h-207q6 106 61.5 177.5t152.5 107t224 35.5q148 0 241 -39t137 -112.5t44 -177.5v-725h-205l-20 186
q-55 -117 -140.5 -161.5t-195.5 -44.5zM516 145q45 0 89 16.5t79.5 45t57 63.5t22.5 73v163l-127 -2q-94 -1 -164.5 -20t-109.5 -60.5t-39 -110.5q0 -79 55 -123.5t137 -44.5zM456 -380v211h237v-211h-237zM236 1155l258 244h170l252 -244h-204l-135 135l-149 -135h-192z
" />
    <glyph glyph-name="uni1EAE" unicode="&#x1eae;" horiz-adv-x="1438" 
d="M68 0l519 1446h264l519 -1446h-244l-129 363h-554l-130 -363h-245zM501 579h435l-217 631zM721 1566q-79 0 -147.5 26.5t-116 79.5t-64.5 131h162q15 -49 58.5 -80t107.5 -31q63 0 108 31t62 80h160q-16 -76 -63.5 -129t-116 -80.5t-150.5 -27.5zM650 1848l149 253h202
l-214 -253h-137z" />
    <glyph glyph-name="uni1EAF" unicode="&#x1eaf;" horiz-adv-x="1120" 
d="M437 -20q-99 0 -177.5 36.5t-123 105t-44.5 166.5q0 171 123.5 258t393.5 91l155 4v70q0 82 -48.5 128.5t-150.5 45.5q-76 -1 -138 -35.5t-82 -115.5h-207q6 106 61.5 177.5t152.5 107t224 35.5q148 0 241 -39t137 -112.5t44 -177.5v-725h-205l-20 186
q-55 -117 -140.5 -161.5t-195.5 -44.5zM516 145q45 0 89 16.5t79.5 45t57 63.5t22.5 73v163l-127 -2q-94 -1 -164.5 -20t-109.5 -60.5t-39 -110.5q0 -79 55 -123.5t137 -44.5zM580 1154q-79 0 -147.5 26.5t-116 79.5t-64.5 131h162q15 -49 58.5 -80t107.5 -31q63 0 108 31
t62 80h160q-16 -76 -63.5 -129t-116 -80.5t-150.5 -27.5zM509 1436l149 253h202l-214 -253h-137z" />
    <glyph glyph-name="uni1EB0" unicode="&#x1eb0;" horiz-adv-x="1438" 
d="M68 0l519 1446h264l519 -1446h-244l-129 363h-554l-130 -363h-245zM501 579h435l-217 631zM721 1566q-79 0 -147.5 26.5t-116 79.5t-64.5 131h162q15 -49 58.5 -80t107.5 -31q63 0 108 31t62 80h160q-16 -76 -63.5 -129t-116 -80.5t-150.5 -27.5zM664 1847l-219 253h201
l158 -253h-140z" />
    <glyph glyph-name="uni1EB1" unicode="&#x1eb1;" horiz-adv-x="1120" 
d="M437 -20q-99 0 -177.5 36.5t-123 105t-44.5 166.5q0 171 123.5 258t393.5 91l155 4v70q0 82 -48.5 128.5t-150.5 45.5q-76 -1 -138 -35.5t-82 -115.5h-207q6 106 61.5 177.5t152.5 107t224 35.5q148 0 241 -39t137 -112.5t44 -177.5v-725h-205l-20 186
q-55 -117 -140.5 -161.5t-195.5 -44.5zM516 145q45 0 89 16.5t79.5 45t57 63.5t22.5 73v163l-127 -2q-94 -1 -164.5 -20t-109.5 -60.5t-39 -110.5q0 -79 55 -123.5t137 -44.5zM580 1154q-79 0 -147.5 26.5t-116 79.5t-64.5 131h162q15 -49 58.5 -80t107.5 -31q63 0 108 31
t62 80h160q-16 -76 -63.5 -129t-116 -80.5t-150.5 -27.5zM523 1435l-219 253h201l158 -253h-140z" />
    <glyph glyph-name="uni1EB2" unicode="&#x1eb2;" horiz-adv-x="1438" 
d="M68 0l519 1446h264l519 -1446h-244l-129 363h-554l-130 -363h-245zM501 579h435l-217 631zM721 1566q-79 0 -147.5 26.5t-116 79.5t-64.5 131h162q15 -49 58.5 -80t107.5 -31q63 0 108 31t62 80h160q-16 -76 -63.5 -129t-116 -80.5t-150.5 -27.5zM730 1790l-62 97
q41 27 56.5 61.5t-5.5 68.5q-19 31 -59.5 31.5t-78.5 -24.5l-62 96q72 46 146 46q103 0 156 -82q53 -81 29 -158.5t-120 -135.5z" />
    <glyph glyph-name="uni1EB3" unicode="&#x1eb3;" horiz-adv-x="1120" 
d="M437 -20q-99 0 -177.5 36.5t-123 105t-44.5 166.5q0 171 123.5 258t393.5 91l155 4v70q0 82 -48.5 128.5t-150.5 45.5q-76 -1 -138 -35.5t-82 -115.5h-207q6 106 61.5 177.5t152.5 107t224 35.5q148 0 241 -39t137 -112.5t44 -177.5v-725h-205l-20 186
q-55 -117 -140.5 -161.5t-195.5 -44.5zM516 145q45 0 89 16.5t79.5 45t57 63.5t22.5 73v163l-127 -2q-94 -1 -164.5 -20t-109.5 -60.5t-39 -110.5q0 -79 55 -123.5t137 -44.5zM580 1154q-79 0 -147.5 26.5t-116 79.5t-64.5 131h162q15 -49 58.5 -80t107.5 -31q63 0 108 31
t62 80h160q-16 -76 -63.5 -129t-116 -80.5t-150.5 -27.5zM589 1378l-62 97q41 27 56.5 61.5t-5.5 68.5q-19 31 -59.5 31.5t-78.5 -24.5l-62 96q72 46 146 46q103 0 156 -82q53 -81 29 -158.5t-120 -135.5z" />
    <glyph glyph-name="uni1EB4" unicode="&#x1eb4;" horiz-adv-x="1438" 
d="M68 0l519 1446h264l519 -1446h-244l-129 363h-554l-130 -363h-245zM501 579h435l-217 631zM721 1566q-79 0 -147.5 26.5t-116 79.5t-64.5 131h162q15 -49 58.5 -80t107.5 -31q63 0 108 31t62 80h160q-16 -76 -63.5 -129t-116 -80.5t-150.5 -27.5zM436 1908l-40 133
q35 35 76 59.5t104 24.5q53 0 100 -14.5t91.5 -29.5t89.5 -15q49 0 86.5 20t67.5 43l35 -149q-29 -23 -76 -44t-113 -21q-55 0 -98 13.5t-84 27t-90 13.5t-81.5 -16t-67.5 -45z" />
    <glyph glyph-name="uni1EB5" unicode="&#x1eb5;" horiz-adv-x="1120" 
d="M437 -20q-99 0 -177.5 36.5t-123 105t-44.5 166.5q0 171 123.5 258t393.5 91l155 4v70q0 82 -48.5 128.5t-150.5 45.5q-76 -1 -138 -35.5t-82 -115.5h-207q6 106 61.5 177.5t152.5 107t224 35.5q148 0 241 -39t137 -112.5t44 -177.5v-725h-205l-20 186
q-55 -117 -140.5 -161.5t-195.5 -44.5zM516 145q45 0 89 16.5t79.5 45t57 63.5t22.5 73v163l-127 -2q-94 -1 -164.5 -20t-109.5 -60.5t-39 -110.5q0 -79 55 -123.5t137 -44.5zM580 1154q-79 0 -147.5 26.5t-116 79.5t-64.5 131h162q15 -49 58.5 -80t107.5 -31q63 0 108 31
t62 80h160q-16 -76 -63.5 -129t-116 -80.5t-150.5 -27.5zM295 1496l-40 133q35 35 76 59.5t104 24.5q53 0 100 -14.5t91.5 -29.5t89.5 -15q49 0 86.5 20t67.5 43l35 -149q-29 -23 -76 -44t-113 -21q-55 0 -98 13.5t-84 27t-90 13.5t-81.5 -16t-67.5 -45z" />
    <glyph glyph-name="uni1EB6" unicode="&#x1eb6;" horiz-adv-x="1438" 
d="M68 0l519 1446h264l519 -1446h-244l-129 363h-554l-130 -363h-245zM501 579h435l-217 631zM601 -380v211h237v-211h-237zM718 1566q-79 0 -147.5 26.5t-116 79.5t-64.5 131h162q15 -49 58.5 -80t107.5 -31q63 0 108 31t62 80h160q-16 -76 -63.5 -129t-116 -80.5
t-150.5 -27.5z" />
    <glyph glyph-name="uni1EB7" unicode="&#x1eb7;" horiz-adv-x="1120" 
d="M437 -20q-99 0 -177.5 36.5t-123 105t-44.5 166.5q0 171 123.5 258t393.5 91l155 4v70q0 82 -48.5 128.5t-150.5 45.5q-76 -1 -138 -35.5t-82 -115.5h-207q6 106 61.5 177.5t152.5 107t224 35.5q148 0 241 -39t137 -112.5t44 -177.5v-725h-205l-20 186
q-55 -117 -140.5 -161.5t-195.5 -44.5zM516 145q45 0 89 16.5t79.5 45t57 63.5t22.5 73v163l-127 -2q-94 -1 -164.5 -20t-109.5 -60.5t-39 -110.5q0 -79 55 -123.5t137 -44.5zM456 -380v211h237v-211h-237zM577 1154q-79 0 -147.5 26.5t-116 79.5t-64.5 131h162
q15 -49 58.5 -80t107.5 -31q63 0 108 31t62 80h160q-16 -76 -63.5 -129t-116 -80.5t-150.5 -27.5z" />
    <glyph glyph-name="uni1EB8" unicode="&#x1eb8;" horiz-adv-x="1257" 
d="M175 0v1446h956l-1 -209h-710v-405h627v-206h-629v-414l727 -1v-211h-970zM563 -380v211h237v-211h-237z" />
    <glyph glyph-name="uni1EB9" unicode="&#x1eb9;" horiz-adv-x="1144" 
d="M595 -20q-149 0 -262.5 63.5t-177 181.5t-63.5 281q0 159 57.5 282.5t167 194.5t264.5 71q153 0 257 -65t158 -181.5t54 -272.5v-74h-715q-1 -88 28 -156t86 -106.5t141 -38.5q86 0 149.5 38.5t84.5 117.5h222q-18 -108 -85.5 -183t-164 -114t-201.5 -39zM334 612h486
q0 75 -26.5 135.5t-79.5 96t-134 35.5q-80 0 -135 -39t-83 -100.5t-28 -127.5zM466 -380v211h237v-211h-237z" />
    <glyph glyph-name="uni1EBA" unicode="&#x1eba;" horiz-adv-x="1257" 
d="M175 0v1446h956l-1 -209h-710v-405h627v-206h-629v-414l727 -1v-211h-970zM727 1565l-62 97q41 26 56.5 61t-5.5 68q-19 32 -59.5 32.5t-78.5 -24.5l-62 96q88 57 173.5 44t128.5 -80q53 -81 29 -159t-120 -135z" />
    <glyph glyph-name="uni1EBB" unicode="&#x1ebb;" horiz-adv-x="1144" 
d="M595 -20q-149 0 -262.5 63.5t-177 181.5t-63.5 281q0 159 57.5 282.5t167 194.5t264.5 71q153 0 257 -65t158 -181.5t54 -272.5v-74h-715q-1 -88 28 -156t86 -106.5t141 -38.5q86 0 149.5 38.5t84.5 117.5h222q-18 -108 -85.5 -183t-164 -114t-201.5 -39zM334 612h486
q0 75 -26.5 135.5t-79.5 96t-134 35.5q-80 0 -135 -39t-83 -100.5t-28 -127.5zM654 1153l-62 97q41 26 56.5 61t-5.5 68q-19 32 -59.5 32.5t-78.5 -24.5l-62 96q88 57 173.5 44t128.5 -80q53 -81 29 -159t-120 -135z" />
    <glyph glyph-name="uni1EBC" unicode="&#x1ebc;" horiz-adv-x="1257" 
d="M175 0v1446h956l-1 -209h-710v-405h627v-206h-629v-414l727 -1v-211h-970zM374 1616l-40 133q35 34 76.5 59t104.5 25q53 0 100 -14.5t91.5 -29.5t89.5 -15q49 0 86 20t68 43l34 -150q-29 -22 -76 -43t-112 -21q-55 0 -98.5 13.5t-84.5 27t-89 13.5q-50 0 -82 -16.5
t-68 -44.5z" />
    <glyph glyph-name="uni1EBD" unicode="&#x1ebd;" horiz-adv-x="1144" 
d="M595 -20q-149 0 -262.5 63.5t-177 181.5t-63.5 281q0 159 57.5 282.5t167 194.5t264.5 71q153 0 257 -65t158 -181.5t54 -272.5v-74h-715q-1 -88 28 -156t86 -106.5t141 -38.5q86 0 149.5 38.5t84.5 117.5h222q-18 -108 -85.5 -183t-164 -114t-201.5 -39zM334 612h486
q0 75 -26.5 135.5t-79.5 96t-134 35.5q-80 0 -135 -39t-83 -100.5t-28 -127.5zM301 1204l-40 133q35 34 76.5 59t104.5 25q53 0 100 -14.5t91.5 -29.5t89.5 -15q49 0 86 20t68 43l34 -150q-29 -22 -76 -43t-112 -21q-55 0 -98.5 13.5t-84.5 27t-89 13.5q-50 0 -82 -16.5
t-68 -44.5z" />
    <glyph glyph-name="uni1EBE" unicode="&#x1ebe;" horiz-adv-x="1257" 
d="M175 0v1446h956l-1 -209h-710v-405h627v-206h-629v-414l727 -1v-211h-970zM313 1567l258 244h170l252 -244h-204l-135 135l-149 -135h-192zM862 1800l149 253h201l-213 -253h-137z" />
    <glyph glyph-name="uni1EBF" unicode="&#x1ebf;" horiz-adv-x="1144" 
d="M595 -20q-149 0 -262.5 63.5t-177 181.5t-63.5 281q0 159 57.5 282.5t167 194.5t264.5 71q153 0 257 -65t158 -181.5t54 -272.5v-74h-715q-1 -88 28 -156t86 -106.5t141 -38.5q86 0 149.5 38.5t84.5 117.5h222q-18 -108 -85.5 -183t-164 -114t-201.5 -39zM334 612h486
q0 75 -26.5 135.5t-79.5 96t-134 35.5q-80 0 -135 -39t-83 -100.5t-28 -127.5zM240 1155l258 244h170l252 -244h-204l-135 135l-149 -135h-192zM789 1388l149 253h201l-213 -253h-137z" />
    <glyph glyph-name="uni1EC0" unicode="&#x1ec0;" horiz-adv-x="1257" 
d="M175 0v1446h956l-1 -209h-710v-405h627v-206h-629v-414l727 -1v-211h-970zM313 1567l258 244h170l252 -244h-204l-135 135l-149 -135h-192zM954 1800l-219 253h201l158 -253h-140z" />
    <glyph glyph-name="uni1EC1" unicode="&#x1ec1;" horiz-adv-x="1144" 
d="M595 -20q-149 0 -262.5 63.5t-177 181.5t-63.5 281q0 159 57.5 282.5t167 194.5t264.5 71q153 0 257 -65t158 -181.5t54 -272.5v-74h-715q-1 -88 28 -156t86 -106.5t141 -38.5q86 0 149.5 38.5t84.5 117.5h222q-18 -108 -85.5 -183t-164 -114t-201.5 -39zM334 612h486
q0 75 -26.5 135.5t-79.5 96t-134 35.5q-80 0 -135 -39t-83 -100.5t-28 -127.5zM240 1155l258 244h170l252 -244h-204l-135 135l-149 -135h-192zM881 1388l-219 253h201l158 -253h-140z" />
    <glyph glyph-name="uni1EC2" unicode="&#x1ec2;" horiz-adv-x="1257" 
d="M175 0v1446h956l-1 -209h-710v-405h627v-206h-629v-414l727 -1v-211h-970zM319 1567l258 244h170l252 -244h-204l-135 135l-149 -135h-192zM926 1755l-63 97q41 26 56.5 61t-5.5 68q-19 31 -59.5 32t-78.5 -24l-62 96q89 56 174 43.5t129 -79.5q52 -81 28.5 -159
t-119.5 -135z" />
    <glyph glyph-name="uni1EC3" unicode="&#x1ec3;" horiz-adv-x="1144" 
d="M595 -20q-149 0 -262.5 63.5t-177 181.5t-63.5 281q0 159 57.5 282.5t167 194.5t264.5 71q153 0 257 -65t158 -181.5t54 -272.5v-74h-715q-1 -88 28 -156t86 -106.5t141 -38.5q86 0 149.5 38.5t84.5 117.5h222q-18 -108 -85.5 -183t-164 -114t-201.5 -39zM334 612h486
q0 75 -26.5 135.5t-79.5 96t-134 35.5q-80 0 -135 -39t-83 -100.5t-28 -127.5zM246 1155l258 244h170l252 -244h-204l-135 135l-149 -135h-192zM853 1343l-63 97q41 26 56.5 61t-5.5 68q-19 31 -59.5 32t-78.5 -24l-62 96q89 56 174 43.5t129 -79.5q52 -81 28.5 -159
t-119.5 -135z" />
    <glyph glyph-name="uni1EC4" unicode="&#x1ec4;" horiz-adv-x="1257" 
d="M175 0v1446h956l-1 -209h-710v-405h627v-206h-629v-414l727 -1v-211h-970zM315 1567l258 244h170l252 -244h-204l-135 135l-149 -135h-192zM370 1910l-40 133q35 35 76 59.5t104 24.5q53 0 100 -14.5t91.5 -29.5t89.5 -15q49 0 86.5 20t67.5 43l35 -149q-29 -23 -76 -44
t-113 -21q-55 0 -98 13.5t-84 27t-90 13.5t-81.5 -16t-67.5 -45z" />
    <glyph glyph-name="uni1EC5" unicode="&#x1ec5;" horiz-adv-x="1144" 
d="M595 -20q-149 0 -262.5 63.5t-177 181.5t-63.5 281q0 159 57.5 282.5t167 194.5t264.5 71q153 0 257 -65t158 -181.5t54 -272.5v-74h-715q-1 -88 28 -156t86 -106.5t141 -38.5q86 0 149.5 38.5t84.5 117.5h222q-18 -108 -85.5 -183t-164 -114t-201.5 -39zM334 612h486
q0 75 -26.5 135.5t-79.5 96t-134 35.5q-80 0 -135 -39t-83 -100.5t-28 -127.5zM242 1155l258 244h170l252 -244h-204l-135 135l-149 -135h-192zM297 1498l-40 133q35 35 76 59.5t104 24.5q53 0 100 -14.5t91.5 -29.5t89.5 -15q49 0 86.5 20t67.5 43l35 -149q-29 -23 -76 -44
t-113 -21q-55 0 -98 13.5t-84 27t-90 13.5t-81.5 -16t-67.5 -45z" />
    <glyph glyph-name="uni1EC6" unicode="&#x1ec6;" horiz-adv-x="1257" 
d="M175 0v1446h956l-1 -209h-710v-405h627v-206h-629v-414l727 -1v-211h-970zM563 -380v211h237v-211h-237zM313 1567l258 244h170l252 -244h-204l-135 135l-149 -135h-192z" />
    <glyph glyph-name="uni1EC7" unicode="&#x1ec7;" horiz-adv-x="1144" 
d="M595 -20q-149 0 -262.5 63.5t-177 181.5t-63.5 281q0 159 57.5 282.5t167 194.5t264.5 71q153 0 257 -65t158 -181.5t54 -272.5v-74h-715q-1 -88 28 -156t86 -106.5t141 -38.5q86 0 149.5 38.5t84.5 117.5h222q-18 -108 -85.5 -183t-164 -114t-201.5 -39zM334 612h486
q0 75 -26.5 135.5t-79.5 96t-134 35.5q-80 0 -135 -39t-83 -100.5t-28 -127.5zM466 -380v211h237v-211h-237zM240 1155l258 244h170l252 -244h-204l-135 135l-149 -135h-192z" />
    <glyph glyph-name="uni1EC8" unicode="&#x1ec8;" horiz-adv-x="593" 
d="M175 0v1446h243v-1446h-243zM370 1565l-62 97q41 26 56.5 61t-5.5 68q-19 32 -59.5 32.5t-78.5 -24.5l-62 96q88 57 173.5 44t128.5 -80q53 -81 29 -159t-120 -135z" />
    <glyph glyph-name="uni1EC9" unicode="&#x1ec9;" horiz-adv-x="509" 
d="M138 0v1034h233v-1034h-233zM329 1153l-62 97q41 26 56.5 61t-5.5 68q-19 32 -59.5 32.5t-78.5 -24.5l-62 96q88 57 173.5 44t128.5 -80q53 -81 29 -159t-120 -135z" />
    <glyph glyph-name="uni1ECA" unicode="&#x1eca;" horiz-adv-x="593" 
d="M175 0v1446h243v-1446h-243zM191 -380v211h237v-211h-237z" />
    <glyph glyph-name="uni1ECB" unicode="&#x1ecb;" horiz-adv-x="516" 
d="M142 0v1034h233v-1034h-233zM138 1215v230h241v-230h-241zM140 -380v211h237v-211h-237z" />
    <glyph glyph-name="uni1ECC" unicode="&#x1ecc;" horiz-adv-x="1497" 
d="M751 -20q-200 0 -345.5 88t-225 254t-79.5 398q0 234 80 401t226.5 256t343.5 89t341.5 -89t223.5 -256t79 -401q0 -232 -78 -397.5t-223 -254t-343 -88.5zM751 184q118 0 203 55.5t130.5 173t45.5 304.5q0 190 -46 310.5t-131 177.5t-202 57q-118 0 -203.5 -57.5
t-132.5 -178t-47 -309.5q0 -187 47 -304.5t132.5 -173t203.5 -55.5zM635 -380v211h237v-211h-237z" />
    <glyph glyph-name="uni1ECD" unicode="&#x1ecd;" horiz-adv-x="1142" 
d="M572 -20q-148 0 -258 63.5t-170.5 182.5t-60.5 286q0 162 59 284t168.5 190t262.5 68q148 0 257 -65t168.5 -186t59.5 -291q0 -157 -56.5 -276.5t-165 -187.5t-264.5 -68zM573 165q84 0 138.5 46t81.5 126t27 182q0 95 -24 175t-78.5 128.5t-144.5 48.5
q-85 0 -140.5 -44.5t-82.5 -124t-27 -183.5q0 -94 24 -174.5t79 -130t147 -49.5zM452 -380v211h237v-211h-237z" />
    <glyph glyph-name="uni1ECE" unicode="&#x1ece;" horiz-adv-x="1497" 
d="M751 -20q-200 0 -345.5 88t-225 254t-79.5 398q0 234 80 401t226.5 256t343.5 89t341.5 -89t223.5 -256t79 -401q0 -232 -78 -397.5t-223 -254t-343 -88.5zM751 184q118 0 203 55.5t130.5 173t45.5 304.5q0 190 -46 310.5t-131 177.5t-202 57q-118 0 -203.5 -57.5
t-132.5 -178t-47 -309.5q0 -187 47 -304.5t132.5 -173t203.5 -55.5zM823 1565l-62 97q41 26 56.5 61t-5.5 68q-19 32 -59.5 32.5t-78.5 -24.5l-62 96q88 57 173.5 44t128.5 -80q53 -81 29 -159t-120 -135z" />
    <glyph glyph-name="uni1ECF" unicode="&#x1ecf;" horiz-adv-x="1142" 
d="M572 -20q-148 0 -258 63.5t-170.5 182.5t-60.5 286q0 162 59 284t168.5 190t262.5 68q148 0 257 -65t168.5 -186t59.5 -291q0 -157 -56.5 -276.5t-165 -187.5t-264.5 -68zM573 165q84 0 138.5 46t81.5 126t27 182q0 95 -24 175t-78.5 128.5t-144.5 48.5
q-85 0 -140.5 -44.5t-82.5 -124t-27 -183.5q0 -94 24 -174.5t79 -130t147 -49.5zM644 1153l-62 97q41 26 56.5 61t-5.5 68q-19 32 -59.5 32.5t-78.5 -24.5l-62 96q88 57 173.5 44t128.5 -80q53 -81 29 -159t-120 -135z" />
    <glyph glyph-name="uni1ED0" unicode="&#x1ed0;" horiz-adv-x="1497" 
d="M751 -20q-200 0 -345.5 88t-225 254t-79.5 398q0 234 80 401t226.5 256t343.5 89t341.5 -89t223.5 -256t79 -401q0 -232 -78 -397.5t-223 -254t-343 -88.5zM751 184q118 0 203 55.5t130.5 173t45.5 304.5q0 190 -46 310.5t-131 177.5t-202 57q-118 0 -203.5 -57.5
t-132.5 -178t-47 -309.5q0 -187 47 -304.5t132.5 -173t203.5 -55.5zM409 1567l258 244h170l252 -244h-204l-135 135l-149 -135h-192zM958 1800l149 253h201l-213 -253h-137z" />
    <glyph glyph-name="uni1ED1" unicode="&#x1ed1;" horiz-adv-x="1142" 
d="M572 -20q-148 0 -258 63.5t-170.5 182.5t-60.5 286q0 162 59 284t168.5 190t262.5 68q148 0 257 -65t168.5 -186t59.5 -291q0 -157 -56.5 -276.5t-165 -187.5t-264.5 -68zM573 165q84 0 138.5 46t81.5 126t27 182q0 95 -24 175t-78.5 128.5t-144.5 48.5
q-85 0 -140.5 -44.5t-82.5 -124t-27 -183.5q0 -94 24 -174.5t79 -130t147 -49.5zM230 1155l258 244h170l252 -244h-204l-135 135l-149 -135h-192zM779 1388l149 253h201l-213 -253h-137z" />
    <glyph glyph-name="uni1ED2" unicode="&#x1ed2;" horiz-adv-x="1497" 
d="M751 -20q-200 0 -345.5 88t-225 254t-79.5 398q0 234 80 401t226.5 256t343.5 89t341.5 -89t223.5 -256t79 -401q0 -232 -78 -397.5t-223 -254t-343 -88.5zM751 184q118 0 203 55.5t130.5 173t45.5 304.5q0 190 -46 310.5t-131 177.5t-202 57q-118 0 -203.5 -57.5
t-132.5 -178t-47 -309.5q0 -187 47 -304.5t132.5 -173t203.5 -55.5zM409 1567l258 244h170l252 -244h-204l-135 135l-149 -135h-192zM1050 1800l-219 253h201l158 -253h-140z" />
    <glyph glyph-name="uni1ED3" unicode="&#x1ed3;" horiz-adv-x="1142" 
d="M572 -20q-148 0 -258 63.5t-170.5 182.5t-60.5 286q0 162 59 284t168.5 190t262.5 68q148 0 257 -65t168.5 -186t59.5 -291q0 -157 -56.5 -276.5t-165 -187.5t-264.5 -68zM573 165q84 0 138.5 46t81.5 126t27 182q0 95 -24 175t-78.5 128.5t-144.5 48.5
q-85 0 -140.5 -44.5t-82.5 -124t-27 -183.5q0 -94 24 -174.5t79 -130t147 -49.5zM230 1155l258 244h170l252 -244h-204l-135 135l-149 -135h-192zM871 1388l-219 253h201l158 -253h-140z" />
    <glyph glyph-name="uni1ED4" unicode="&#x1ed4;" horiz-adv-x="1497" 
d="M751 -20q-200 0 -345.5 88t-225 254t-79.5 398q0 234 80 401t226.5 256t343.5 89t341.5 -89t223.5 -256t79 -401q0 -232 -78 -397.5t-223 -254t-343 -88.5zM751 184q118 0 203 55.5t130.5 173t45.5 304.5q0 190 -46 310.5t-131 177.5t-202 57q-118 0 -203.5 -57.5
t-132.5 -178t-47 -309.5q0 -187 47 -304.5t132.5 -173t203.5 -55.5zM414 1567l258 244h170l252 -244h-204l-135 135l-149 -135h-192zM1021 1755l-63 97q41 26 56.5 61t-5.5 68q-19 31 -59.5 32t-78.5 -24l-62 96q89 56 174 43.5t129 -79.5q52 -81 28.5 -159t-119.5 -135z
" />
    <glyph glyph-name="uni1ED5" unicode="&#x1ed5;" horiz-adv-x="1142" 
d="M572 -20q-148 0 -258 63.5t-170.5 182.5t-60.5 286q0 162 59 284t168.5 190t262.5 68q148 0 257 -65t168.5 -186t59.5 -291q0 -157 -56.5 -276.5t-165 -187.5t-264.5 -68zM573 165q84 0 138.5 46t81.5 126t27 182q0 95 -24 175t-78.5 128.5t-144.5 48.5
q-85 0 -140.5 -44.5t-82.5 -124t-27 -183.5q0 -94 24 -174.5t79 -130t147 -49.5zM236 1155l258 244h170l252 -244h-204l-135 135l-149 -135h-192zM843 1343l-63 97q41 26 56.5 61t-5.5 68q-19 31 -59.5 32t-78.5 -24l-62 96q89 56 174 43.5t129 -79.5q52 -81 28.5 -159
t-119.5 -135z" />
    <glyph glyph-name="uni1ED6" unicode="&#x1ed6;" horiz-adv-x="1497" 
d="M751 -20q-200 0 -345.5 88t-225 254t-79.5 398q0 234 80 401t226.5 256t343.5 89t341.5 -89t223.5 -256t79 -401q0 -232 -78 -397.5t-223 -254t-343 -88.5zM751 184q118 0 203 55.5t130.5 173t45.5 304.5q0 190 -46 310.5t-131 177.5t-202 57q-118 0 -203.5 -57.5
t-132.5 -178t-47 -309.5q0 -187 47 -304.5t132.5 -173t203.5 -55.5zM411 1567l258 244h170l252 -244h-204l-135 135l-149 -135h-192zM466 1910l-40 133q35 35 76 59.5t104 24.5q53 0 100 -14.5t91.5 -29.5t89.5 -15q49 0 86.5 20t67.5 43l35 -149q-29 -23 -76 -44t-113 -21
q-55 0 -98 13.5t-84 27t-90 13.5t-81.5 -16t-67.5 -45z" />
    <glyph glyph-name="uni1ED7" unicode="&#x1ed7;" horiz-adv-x="1142" 
d="M572 -20q-148 0 -258 63.5t-170.5 182.5t-60.5 286q0 162 59 284t168.5 190t262.5 68q148 0 257 -65t168.5 -186t59.5 -291q0 -157 -56.5 -276.5t-165 -187.5t-264.5 -68zM573 165q84 0 138.5 46t81.5 126t27 182q0 95 -24 175t-78.5 128.5t-144.5 48.5
q-85 0 -140.5 -44.5t-82.5 -124t-27 -183.5q0 -94 24 -174.5t79 -130t147 -49.5zM232 1155l258 244h170l252 -244h-204l-135 135l-149 -135h-192zM287 1498l-40 133q35 35 76 59.5t104 24.5q53 0 100 -14.5t91.5 -29.5t89.5 -15q49 0 86.5 20t67.5 43l35 -149
q-29 -23 -76 -44t-113 -21q-55 0 -98 13.5t-84 27t-90 13.5t-81.5 -16t-67.5 -45z" />
    <glyph glyph-name="uni1ED8" unicode="&#x1ed8;" horiz-adv-x="1497" 
d="M751 -20q-200 0 -345.5 88t-225 254t-79.5 398q0 234 80 401t226.5 256t343.5 89t341.5 -89t223.5 -256t79 -401q0 -232 -78 -397.5t-223 -254t-343 -88.5zM751 184q118 0 203 55.5t130.5 173t45.5 304.5q0 190 -46 310.5t-131 177.5t-202 57q-118 0 -203.5 -57.5
t-132.5 -178t-47 -309.5q0 -187 47 -304.5t132.5 -173t203.5 -55.5zM635 -380v211h237v-211h-237zM409 1567l258 244h170l252 -244h-204l-135 135l-149 -135h-192z" />
    <glyph glyph-name="uni1ED9" unicode="&#x1ed9;" horiz-adv-x="1142" 
d="M572 -20q-148 0 -258 63.5t-170.5 182.5t-60.5 286q0 162 59 284t168.5 190t262.5 68q148 0 257 -65t168.5 -186t59.5 -291q0 -157 -56.5 -276.5t-165 -187.5t-264.5 -68zM573 165q84 0 138.5 46t81.5 126t27 182q0 95 -24 175t-78.5 128.5t-144.5 48.5
q-85 0 -140.5 -44.5t-82.5 -124t-27 -183.5q0 -94 24 -174.5t79 -130t147 -49.5zM452 -380v211h237v-211h-237zM230 1155l258 244h170l252 -244h-204l-135 135l-149 -135h-192z" />
    <glyph glyph-name="uni1EDA" unicode="&#x1eda;" horiz-adv-x="1625" 
d="M751 -20q-200 0 -345.5 88t-225 254t-79.5 398q0 234 80 401t226.5 256t343.5 89q145 0 262 -48.5t201 -141.5q43 1 74 7.5t50.5 26t31 61t15.5 111.5h173q-1 -112 -25.5 -185.5t-79 -111t-149.5 -40.5q45 -84 68 -191t23 -234q0 -232 -78 -397.5t-223 -254t-343 -88.5z
M751 184q118 0 203 55.5t130.5 173t45.5 304.5q0 190 -46 310.5t-131 177.5t-202 57q-118 0 -203.5 -57.5t-132.5 -178t-47 -309.5q0 -187 47 -304.5t132.5 -173t203.5 -55.5zM654 1567l206 291h260l-286 -291h-180z" />
    <glyph glyph-name="uni1EDB" unicode="&#x1edb;" horiz-adv-x="1246" 
d="M475 1155l206 291h260l-286 -291h-180zM572 -20q-148 0 -258 63.5t-170.5 182.5t-60.5 286q0 162 59 284t168.5 190t262.5 68q112 0 202 -37.5t154 -108.5q47 3 76.5 18t45 58.5t20.5 128.5h172q0 -109 -22.5 -181t-74 -109.5t-139.5 -44.5q51 -111 51 -266
q0 -157 -56.5 -276.5t-165 -187.5t-264.5 -68zM573 165q84 0 138.5 46t81.5 126t27 182q0 95 -24 175t-78.5 128.5t-144.5 48.5q-85 0 -140.5 -44.5t-82.5 -124t-27 -183.5q0 -94 24 -174.5t79 -130t147 -49.5z" />
    <glyph glyph-name="uni1EDC" unicode="&#x1edc;" horiz-adv-x="1625" 
d="M751 -20q-200 0 -345.5 88t-225 254t-79.5 398q0 234 80 401t226.5 256t343.5 89q145 0 262 -48.5t201 -141.5q43 1 74 7.5t50.5 26t31 61t15.5 111.5h173q-1 -112 -25.5 -185.5t-79 -111t-149.5 -40.5q45 -84 68 -191t23 -234q0 -232 -78 -397.5t-223 -254t-343 -88.5z
M751 184q118 0 203 55.5t130.5 173t45.5 304.5q0 190 -46 310.5t-131 177.5t-202 57q-118 0 -203.5 -57.5t-132.5 -178t-47 -309.5q0 -187 47 -304.5t132.5 -173t203.5 -55.5zM662 1567l-286 291h259l206 -291h-179z" />
    <glyph glyph-name="uni1EDD" unicode="&#x1edd;" horiz-adv-x="1246" 
d="M472 1155l-286 291h259l206 -291h-179zM572 -20q-148 0 -258 63.5t-170.5 182.5t-60.5 286q0 162 59 284t168.5 190t262.5 68q112 0 202 -37.5t154 -108.5q47 3 76.5 18t45 58.5t20.5 128.5h172q0 -109 -22.5 -181t-74 -109.5t-139.5 -44.5q51 -111 51 -266
q0 -157 -56.5 -276.5t-165 -187.5t-264.5 -68zM573 165q84 0 138.5 46t81.5 126t27 182q0 95 -24 175t-78.5 128.5t-144.5 48.5q-85 0 -140.5 -44.5t-82.5 -124t-27 -183.5q0 -94 24 -174.5t79 -130t147 -49.5z" />
    <glyph glyph-name="uni1EDE" unicode="&#x1ede;" horiz-adv-x="1625" 
d="M751 -20q-200 0 -345.5 88t-225 254t-79.5 398q0 234 80 401t226.5 256t343.5 89q145 0 262 -48.5t201 -141.5q43 1 74 7.5t50.5 26t31 61t15.5 111.5h173q-1 -112 -25.5 -185.5t-79 -111t-149.5 -40.5q45 -84 68 -191t23 -234q0 -232 -78 -397.5t-223 -254t-343 -88.5z
M751 184q118 0 203 55.5t130.5 173t45.5 304.5q0 190 -46 310.5t-131 177.5t-202 57q-118 0 -203.5 -57.5t-132.5 -178t-47 -309.5q0 -187 47 -304.5t132.5 -173t203.5 -55.5zM823 1565l-62 97q41 26 56.5 61t-5.5 68q-19 32 -59.5 32.5t-78.5 -24.5l-62 96q88 57 173.5 44
t128.5 -80q53 -81 29 -159t-120 -135z" />
    <glyph glyph-name="uni1EDF" unicode="&#x1edf;" horiz-adv-x="1246" 
d="M635 1153l-62 97q41 26 56.5 61t-5.5 68q-19 32 -59.5 32.5t-78.5 -24.5l-62 96q88 57 173.5 44t128.5 -80q53 -81 29 -159t-120 -135zM572 -20q-148 0 -258 63.5t-170.5 182.5t-60.5 286q0 162 59 284t168.5 190t262.5 68q112 0 202 -37.5t154 -108.5q47 3 76.5 18
t45 58.5t20.5 128.5h172q0 -109 -22.5 -181t-74 -109.5t-139.5 -44.5q51 -111 51 -266q0 -157 -56.5 -276.5t-165 -187.5t-264.5 -68zM573 165q84 0 138.5 46t81.5 126t27 182q0 95 -24 175t-78.5 128.5t-144.5 48.5q-85 0 -140.5 -44.5t-82.5 -124t-27 -183.5
q0 -94 24 -174.5t79 -130t147 -49.5z" />
    <glyph glyph-name="uni1EE0" unicode="&#x1ee0;" horiz-adv-x="1625" 
d="M751 -20q-200 0 -345.5 88t-225 254t-79.5 398q0 234 80 401t226.5 256t343.5 89q145 0 262 -48.5t201 -141.5q43 1 74 7.5t50.5 26t31 61t15.5 111.5h173q-1 -112 -25.5 -185.5t-79 -111t-149.5 -40.5q45 -84 68 -191t23 -234q0 -232 -78 -397.5t-223 -254t-343 -88.5z
M751 184q118 0 203 55.5t130.5 173t45.5 304.5q0 190 -46 310.5t-131 177.5t-202 57q-118 0 -203.5 -57.5t-132.5 -178t-47 -309.5q0 -187 47 -304.5t132.5 -173t203.5 -55.5zM470 1616l-40 133q35 34 76.5 59t104.5 25q53 0 100 -14.5t91.5 -29.5t89.5 -15q49 0 86 20
t68 43l34 -150q-29 -22 -76 -43t-112 -21q-55 0 -98.5 13.5t-84.5 27t-89 13.5q-50 0 -82 -16.5t-68 -44.5z" />
    <glyph glyph-name="uni1EE1" unicode="&#x1ee1;" horiz-adv-x="1246" 
d="M282 1204l-40 133q35 34 76.5 59t104.5 25q53 0 100 -14.5t91.5 -29.5t89.5 -15q49 0 86 20t68 43l34 -150q-29 -22 -76 -43t-112 -21q-55 0 -98.5 13.5t-84.5 27t-89 13.5q-50 0 -82 -16.5t-68 -44.5zM572 -20q-148 0 -258 63.5t-170.5 182.5t-60.5 286q0 162 59 284
t168.5 190t262.5 68q112 0 202 -37.5t154 -108.5q47 3 76.5 18t45 58.5t20.5 128.5h172q0 -109 -22.5 -181t-74 -109.5t-139.5 -44.5q51 -111 51 -266q0 -157 -56.5 -276.5t-165 -187.5t-264.5 -68zM573 165q84 0 138.5 46t81.5 126t27 182q0 95 -24 175t-78.5 128.5
t-144.5 48.5q-85 0 -140.5 -44.5t-82.5 -124t-27 -183.5q0 -94 24 -174.5t79 -130t147 -49.5z" />
    <glyph glyph-name="uni1EE2" unicode="&#x1ee2;" horiz-adv-x="1625" 
d="M751 -20q-200 0 -345.5 88t-225 254t-79.5 398q0 234 80 401t226.5 256t343.5 89q145 0 262 -48.5t201 -141.5q43 1 74 7.5t50.5 26t31 61t15.5 111.5h173q-1 -112 -25.5 -185.5t-79 -111t-149.5 -40.5q45 -84 68 -191t23 -234q0 -232 -78 -397.5t-223 -254t-343 -88.5z
M751 184q118 0 203 55.5t130.5 173t45.5 304.5q0 190 -46 310.5t-131 177.5t-202 57q-118 0 -203.5 -57.5t-132.5 -178t-47 -309.5q0 -187 47 -304.5t132.5 -173t203.5 -55.5zM635 -380v211h237v-211h-237z" />
    <glyph glyph-name="uni1EE3" unicode="&#x1ee3;" horiz-adv-x="1246" 
d="M430 -380v211h237v-211h-237zM572 -20q-148 0 -258 63.5t-170.5 182.5t-60.5 286q0 162 59 284t168.5 190t262.5 68q112 0 202 -37.5t154 -108.5q47 3 76.5 18t45 58.5t20.5 128.5h172q0 -109 -22.5 -181t-74 -109.5t-139.5 -44.5q51 -111 51 -266q0 -157 -56.5 -276.5
t-165 -187.5t-264.5 -68zM573 165q84 0 138.5 46t81.5 126t27 182q0 95 -24 175t-78.5 128.5t-144.5 48.5q-85 0 -140.5 -44.5t-82.5 -124t-27 -183.5q0 -94 24 -174.5t79 -130t147 -49.5z" />
    <glyph glyph-name="uni1EE4" unicode="&#x1ee4;" horiz-adv-x="1427" 
d="M730 -20q-200 0 -322.5 66.5t-177.5 192t-55 303.5v904h249v-929q0 -168 82.5 -248t223.5 -80q95 0 165 35t108 107.5t38 185.5v929h246v-918q0 -172 -56 -294.5t-178.5 -188t-322.5 -65.5zM611 -378v211h237v-211h-237z" />
    <glyph glyph-name="uni1EE5" unicode="&#x1ee5;" horiz-adv-x="1177" 
d="M518 -20q-76 0 -146.5 22.5t-126.5 66t-89 107.5t-33 149v709h244v-681q0 -84 53.5 -138t161.5 -54q98 0 157 51.5t59 148.5v673h242v-1034h-187l-27 202q-19 -85 -66.5 -133.5t-111 -68.5t-130.5 -20zM469 -380v211h237v-211h-237z" />
    <glyph glyph-name="uni1EE6" unicode="&#x1ee6;" horiz-adv-x="1427" 
d="M730 -20q-200 0 -322.5 66.5t-177.5 192t-55 303.5v904h249v-929q0 -168 82.5 -248t223.5 -80q95 0 165 35t108 107.5t38 185.5v929h246v-918q0 -172 -56 -294.5t-178.5 -188t-322.5 -65.5zM804 1565l-62 97q41 26 56.5 61t-5.5 68q-19 32 -59.5 32.5t-78.5 -24.5l-62 96
q88 57 173.5 44t128.5 -80q53 -81 29 -159t-120 -135z" />
    <glyph glyph-name="uni1EE7" unicode="&#x1ee7;" horiz-adv-x="1177" 
d="M518 -20q-76 0 -146.5 22.5t-126.5 66t-89 107.5t-33 149v709h244v-681q0 -84 53.5 -138t161.5 -54q98 0 157 51.5t59 148.5v673h242v-1034h-187l-27 202q-19 -85 -66.5 -133.5t-111 -68.5t-130.5 -20zM656 1153l-62 97q41 26 56.5 61t-5.5 68q-19 32 -59.5 32.5
t-78.5 -24.5l-62 96q88 57 173.5 44t128.5 -80q53 -81 29 -159t-120 -135z" />
    <glyph glyph-name="uni1EE8" unicode="&#x1ee8;" horiz-adv-x="1675" 
d="M730 -20q-200 0 -322.5 66.5t-177.5 192t-55 303.5v904h249v-929q0 -168 82.5 -248t223.5 -80q95 0 165 35t108 107.5t38 185.5v929h246v-170q45 2 73 18.5t43 60.5t20 127h172q-1 -123 -30 -199.5t-95.5 -110t-182.5 -27.5v-617q0 -172 -56 -294.5t-178.5 -188
t-322.5 -65.5zM636 1567l206 291h260l-286 -291h-180z" />
    <glyph glyph-name="uni1EE9" unicode="&#x1ee9;" horiz-adv-x="1368" 
d="M504 1155l206 291h260l-286 -291h-180zM518 -20q-76 0 -146.5 22.5t-126.5 66t-89 107.5t-33 149v709h244v-681q0 -84 53.5 -138t161.5 -54q98 0 157 51.5t59 148.5v673h242v-128q50 1 80.5 17t46.5 60t21 130h172q-1 -125 -31 -202t-99.5 -109.5t-189.5 -24.5v-777h-187
l-27 202q-19 -85 -66.5 -133.5t-111 -68.5t-130.5 -20z" />
    <glyph glyph-name="uni1EEA" unicode="&#x1eea;" horiz-adv-x="1675" 
d="M730 -20q-200 0 -322.5 66.5t-177.5 192t-55 303.5v904h249v-929q0 -168 82.5 -248t223.5 -80q95 0 165 35t108 107.5t38 185.5v929h246v-170q45 2 73 18.5t43 60.5t20 127h172q-1 -123 -30 -199.5t-95.5 -110t-182.5 -27.5v-617q0 -172 -56 -294.5t-178.5 -188
t-322.5 -65.5zM643 1567l-286 291h259l206 -291h-179z" />
    <glyph glyph-name="uni1EEB" unicode="&#x1eeb;" horiz-adv-x="1368" 
d="M501 1155l-286 291h259l206 -291h-179zM518 -20q-76 0 -146.5 22.5t-126.5 66t-89 107.5t-33 149v709h244v-681q0 -84 53.5 -138t161.5 -54q98 0 157 51.5t59 148.5v673h242v-128q50 1 80.5 17t46.5 60t21 130h172q-1 -125 -31 -202t-99.5 -109.5t-189.5 -24.5v-777h-187
l-27 202q-19 -85 -66.5 -133.5t-111 -68.5t-130.5 -20z" />
    <glyph glyph-name="uni1EEC" unicode="&#x1eec;" horiz-adv-x="1675" 
d="M730 -20q-200 0 -322.5 66.5t-177.5 192t-55 303.5v904h249v-929q0 -168 82.5 -248t223.5 -80q95 0 165 35t108 107.5t38 185.5v929h246v-170q45 2 73 18.5t43 60.5t20 127h172q-1 -123 -30 -199.5t-95.5 -110t-182.5 -27.5v-617q0 -172 -56 -294.5t-178.5 -188
t-322.5 -65.5zM804 1565l-62 97q41 26 56.5 61t-5.5 68q-19 32 -59.5 32.5t-78.5 -24.5l-62 96q88 57 173.5 44t128.5 -80q53 -81 29 -159t-120 -135z" />
    <glyph glyph-name="uni1EED" unicode="&#x1eed;" horiz-adv-x="1368" 
d="M664 1153l-62 97q41 26 56.5 61t-5.5 68q-19 32 -59.5 32.5t-78.5 -24.5l-62 96q88 57 173.5 44t128.5 -80q53 -81 29 -159t-120 -135zM518 -20q-76 0 -146.5 22.5t-126.5 66t-89 107.5t-33 149v709h244v-681q0 -84 53.5 -138t161.5 -54q98 0 157 51.5t59 148.5v673h242
v-128q50 1 80.5 17t46.5 60t21 130h172q-1 -125 -31 -202t-99.5 -109.5t-189.5 -24.5v-777h-187l-27 202q-19 -85 -66.5 -133.5t-111 -68.5t-130.5 -20z" />
    <glyph glyph-name="uni1EEE" unicode="&#x1eee;" horiz-adv-x="1669" 
d="M730 -20q-200 0 -322.5 66.5t-177.5 192t-55 303.5v904h249v-929q0 -168 82.5 -248t223.5 -80q95 0 165 35t108 107.5t38 185.5v929h246v-170q45 2 73 18.5t43 60.5t20 127h172q-1 -123 -30 -199.5t-95.5 -110t-182.5 -27.5v-617q0 -172 -56 -294.5t-178.5 -188
t-322.5 -65.5zM451 1616l-40 133q35 34 76.5 59t104.5 25q53 0 100 -14.5t91.5 -29.5t89.5 -15q49 0 86 20t68 43l34 -150q-29 -22 -76 -43t-112 -21q-55 0 -98.5 13.5t-84.5 27t-89 13.5q-50 0 -82 -16.5t-68 -44.5z" />
    <glyph glyph-name="uni1EEF" unicode="&#x1eef;" horiz-adv-x="1368" 
d="M311 1204l-40 133q35 34 76.5 59t104.5 25q53 0 100 -14.5t91.5 -29.5t89.5 -15q49 0 86 20t68 43l34 -150q-29 -22 -76 -43t-112 -21q-55 0 -98.5 13.5t-84.5 27t-89 13.5q-50 0 -82 -16.5t-68 -44.5zM518 -20q-76 0 -146.5 22.5t-126.5 66t-89 107.5t-33 149v709h244
v-681q0 -84 53.5 -138t161.5 -54q98 0 157 51.5t59 148.5v673h242v-128q50 1 80.5 17t46.5 60t21 130h172q-1 -125 -31 -202t-99.5 -109.5t-189.5 -24.5v-777h-187l-27 202q-19 -85 -66.5 -133.5t-111 -68.5t-130.5 -20z" />
    <glyph glyph-name="uni1EF0" unicode="&#x1ef0;" horiz-adv-x="1675" 
d="M730 -20q-200 0 -322.5 66.5t-177.5 192t-55 303.5v904h249v-929q0 -168 82.5 -248t223.5 -80q95 0 165 35t108 107.5t38 185.5v929h246v-170q45 2 73 18.5t43 60.5t20 127h172q-1 -123 -30 -199.5t-95.5 -110t-182.5 -27.5v-617q0 -172 -56 -294.5t-178.5 -188
t-322.5 -65.5zM611 -378v211h237v-211h-237z" />
    <glyph glyph-name="uni1EF1" unicode="&#x1ef1;" horiz-adv-x="1368" 
d="M462 -380v211h237v-211h-237zM518 -20q-76 0 -146.5 22.5t-126.5 66t-89 107.5t-33 149v709h244v-681q0 -84 53.5 -138t161.5 -54q98 0 157 51.5t59 148.5v673h242v-128q50 1 80.5 17t46.5 60t21 130h172q-1 -125 -31 -202t-99.5 -109.5t-189.5 -24.5v-777h-187l-27 202
q-19 -85 -66.5 -133.5t-111 -68.5t-130.5 -20z" />
    <glyph glyph-name="Ygrave" unicode="&#x1ef2;" horiz-adv-x="1280" 
d="M519 0v612l-498 834h264l357 -622l351 622h266l-497 -835v-611h-243zM578 1569l-286 291h259l206 -291h-179z" />
    <glyph glyph-name="ygrave" unicode="&#x1ef3;" horiz-adv-x="1101" 
d="M273 -330q-100 0 -139 15.5l-39 15.5v156l104 -3q63 -3 102.5 7t61.5 27.5t32.5 37t16.5 33.5l27 76l-403 999h242l275 -731l274 731h238l-426 -1072q-48 -117 -103.5 -180.5t-121 -87.5t-141.5 -24zM464 1155l-286 291h259l206 -291h-179z" />
    <glyph glyph-name="uni1EF4" unicode="&#x1ef4;" horiz-adv-x="1280" 
d="M519 0v612l-498 834h264l357 -622l351 622h266l-497 -835v-611h-243zM524 -380v211h237v-211h-237z" />
    <glyph glyph-name="uni1EF5" unicode="&#x1ef5;" horiz-adv-x="1101" 
d="M273 -330q-100 0 -139 15.5l-39 15.5v156l104 -3q63 -3 102.5 7t61.5 27.5t32.5 37t16.5 33.5l27 76l-403 999h242l275 -731l274 731h238l-426 -1072q-48 -117 -103.5 -180.5t-121 -87.5t-141.5 -24zM714 -353v211h237v-211h-237z" />
    <glyph glyph-name="uni1EF6" unicode="&#x1ef6;" horiz-adv-x="1280" 
d="M519 0v612l-498 834h264l357 -622l351 622h266l-497 -835v-611h-243zM738 1567l-62 97q41 26 56.5 61t-5.5 68q-19 32 -59.5 32.5t-78.5 -24.5l-62 96q88 57 173.5 44t128.5 -80q53 -81 29 -159t-120 -135z" />
    <glyph glyph-name="uni1EF7" unicode="&#x1ef7;" horiz-adv-x="1101" 
d="M273 -330q-100 0 -139 15.5l-39 15.5v156l104 -3q63 -3 102.5 7t61.5 27.5t32.5 37t16.5 33.5l27 76l-403 999h242l275 -731l274 731h238l-426 -1072q-48 -117 -103.5 -180.5t-121 -87.5t-141.5 -24zM625 1153l-62 97q41 26 56.5 61t-5.5 68q-19 32 -59.5 32.5
t-78.5 -24.5l-62 96q88 57 173.5 44t128.5 -80q53 -81 29 -159t-120 -135z" />
    <glyph glyph-name="uni1EF8" unicode="&#x1ef8;" horiz-adv-x="1280" 
d="M519 0v612l-498 834h264l357 -622l351 622h266l-497 -835v-611h-243zM385 1618l-40 133q35 34 76.5 59t104.5 25q53 0 100 -14.5t91.5 -29.5t89.5 -15q49 0 86 20t68 43l34 -150q-29 -22 -76 -43t-112 -21q-55 0 -98.5 13.5t-84.5 27t-89 13.5q-50 0 -82 -16.5t-68 -44.5
z" />
    <glyph glyph-name="uni1EF9" unicode="&#x1ef9;" horiz-adv-x="1101" 
d="M273 -330q-100 0 -139 15.5l-39 15.5v156l104 -3q63 -3 102.5 7t61.5 27.5t32.5 37t16.5 33.5l27 76l-403 999h242l275 -731l274 731h238l-426 -1072q-48 -117 -103.5 -180.5t-121 -87.5t-141.5 -24zM272 1204l-40 133q35 34 76.5 59t104.5 25q53 0 100 -14.5t91.5 -29.5
t89.5 -15q49 0 86 20t68 43l34 -150q-29 -22 -76 -43t-112 -21q-55 0 -98.5 13.5t-84.5 27t-89 13.5q-50 0 -82 -16.5t-68 -44.5z" />
    <glyph glyph-name="endash" unicode="&#x2013;" horiz-adv-x="1151" 
d="M122 408v182l907 1v-182z" />
    <glyph glyph-name="emdash" unicode="&#x2014;" horiz-adv-x="2268" 
d="M365 408v182l1538 1v-182z" />
    <glyph glyph-name="quoteleft" unicode="&#x2018;" horiz-adv-x="504" 
d="M90 987v222l187 299h98l-114 -261l95 -8v-252h-266z" />
    <glyph glyph-name="quoteright" unicode="&#x2019;" horiz-adv-x="496" 
d="M100 925l113 261l-94 7v253h266v-222l-187 -299h-98z" />
    <glyph glyph-name="quotesinglbase" unicode="&#x201a;" horiz-adv-x="521" 
d="M91 -264l113 260l-94 7v255h266v-223l-187 -299h-98z" />
    <glyph glyph-name="quotedblleft" unicode="&#x201c;" horiz-adv-x="904" 
d="M90 925v223l188 298h98l-115 -260l95 -8v-253h-266zM490 925v223l186 298h98l-114 -260l95 -8v-253h-265z" />
    <glyph glyph-name="quotedblright" unicode="&#x201d;" horiz-adv-x="894" 
d="M498 925l115 261l-95 7v253h266v-222l-187 -299h-99zM100 925l113 261l-94 7v253h266v-222l-187 -299h-98z" />
    <glyph glyph-name="quotedblbase" unicode="&#x201e;" horiz-adv-x="930" 
d="M500 -264l113 260l-94 7v255h266v-223l-187 -299h-98zM91 -264l113 260l-94 7v255h266v-223l-187 -299h-98z" />
    <glyph glyph-name="dagger" unicode="&#x2020;" horiz-adv-x="984" 
d="M367 -322l46 1109l-365 -36v218l356 -32l-39 509h243l-39 -509l356 32v-218l-365 36l47 -1109h-240z" />
    <glyph glyph-name="daggerdbl" unicode="&#x2021;" horiz-adv-x="984" 
d="M365 -322l40 489l-357 -33v219l363 -36v447l-363 -34v216l356 -31l-39 531h242l-38 -531l356 31v-216l-363 34v-447l363 36v-219l-357 33l40 -489h-243z" />
    <glyph glyph-name="bullet" unicode="&#x2022;" horiz-adv-x="673" 
d="M328 509q-63 0 -113.5 30.5t-81 82.5t-30.5 114t30.5 113t81 81.5t113.5 30.5q62 0 113.5 -30.5t82 -81.5t30.5 -113t-30.5 -114t-82 -82.5t-113.5 -30.5z" />
    <glyph glyph-name="ellipsis" unicode="&#x2026;" horiz-adv-x="1674" 
d="M1279 0v280h275v-280h-275zM104 0v280h275v-280h-275zM692 0v280h275v-280h-275z" />
    <glyph glyph-name="perthousand" unicode="&#x2030;" horiz-adv-x="2661" 
d="M371 -8l977 1470h147l-972 -1470h-152zM455 645q-102 0 -182.5 53.5t-127 145.5t-46.5 210q0 119 47 212.5t127.5 147.5t181.5 54q100 0 180 -54t126 -147.5t46 -212.5q0 -118 -45.5 -210t-125.5 -145.5t-181 -53.5zM453 774q87 0 130 71.5t43 208.5q0 141 -44 214
t-129 73t-129 -73.5t-44 -213.5q0 -136 43.5 -208t129.5 -72zM1384 -20q-102 0 -183 52.5t-127 145t-46 213.5q0 119 46.5 212.5t127.5 147.5t182 54t181 -54t126 -147.5t46 -212.5q0 -121 -45.5 -213.5t-125.5 -145t-182 -52.5zM1382 109q87 0 130 71.5t43 208.5
q0 140 -44 213.5t-129 73.5t-128.5 -74t-43.5 -213q0 -136 43 -208t129 -72zM2200 -20q-103 0 -183.5 52.5t-126.5 145t-46 213.5q0 119 46.5 212.5t127 147.5t182.5 54q100 0 180 -54t126 -147.5t46 -212.5q0 -121 -45.5 -213.5t-125.5 -145t-181 -52.5zM2198 109
q87 0 129.5 71.5t42.5 208.5q0 140 -43.5 213.5t-128.5 73.5t-129.5 -74t-44.5 -213q0 -136 44 -208t130 -72z" />
    <glyph glyph-name="guilsinglleft" unicode="&#x2039;" horiz-adv-x="590" 
d="M340 134l-248 368l248 384h133l-180 -384l178 -368h-131z" />
    <glyph glyph-name="guilsinglright" unicode="&#x203a;" horiz-adv-x="589" 
d="M118 134l179 368l-180 384h132l248 -384l-248 -368h-131z" />
    <glyph glyph-name="fraction" unicode="&#x2044;" horiz-adv-x="469" 
d="M-174 -8l-150 2l975 1468h147z" />
    <glyph glyph-name="uni2070" unicode="&#x2070;" horiz-adv-x="784" 
d="M392 733q-162 0 -250.5 120.5t-88.5 341.5q0 224 89.5 348t250.5 124q160 0 248.5 -124t88.5 -346t-87.5 -343t-250.5 -121zM393 863q90 0 131 79.5t41 252.5q0 178 -42 260.5t-131 82.5t-131.5 -83t-42.5 -260q0 -172 42 -252t133 -80z" />
    <glyph glyph-name="uni2074" unicode="&#x2074;" horiz-adv-x="804" 
d="M463 745l1 214h-420v133l416 563h156v-562h145v-134h-145v-214h-153zM193 1093h270v363z" />
    <glyph glyph-name="uni2075" unicode="&#x2075;" horiz-adv-x="822" 
d="M424 732q-131 0 -231.5 62.5t-139.5 162.5l128 65q36 -72 91.5 -117t137.5 -45q89 0 141.5 49t52.5 128q0 76 -53 123.5t-133 47.5q-49 0 -88.5 -13t-87.5 -61q-7 -1 -9.5 -1t-9.5 4l-120 47l42 470h568l-6 -132h-434l-20 -242q47 29 94.5 44t107.5 15q87 0 158 -34.5
t113.5 -100.5t42.5 -162q0 -143 -93.5 -226.5t-251.5 -83.5z" />
    <glyph glyph-name="uni2076" unicode="&#x2076;" horiz-adv-x="801" 
d="M415 735q-170 0 -266 122t-96 327q0 229 99 356t272 127q82 0 151 -30.5t113 -87t50 -136.5h-146q-17 62 -60 94t-105 32q-107 0 -158.5 -86.5t-42.5 -233.5q33 51 91 79.5t125 28.5q140 0 223 -77.5t83 -206.5q0 -91 -42 -160.5t-117 -108.5t-174 -39zM411 858
q72 0 120.5 49.5t48.5 128.5q0 86 -48 127t-122 41q-44 0 -83 -20t-63.5 -51t-25.5 -65q0 -98 48.5 -154t124.5 -56z" />
    <glyph glyph-name="uni2077" unicode="&#x2077;" horiz-adv-x="730" 
d="M207 747q10 78 47 205t107 277t176 296h-493v132h662v-131q-57 -74 -113 -176.5t-103 -213t-77.5 -213t-35.5 -176.5h-170z" />
    <glyph glyph-name="uni2078" unicode="&#x2078;" horiz-adv-x="845" 
d="M422 735q-161 0 -260 71t-99 192q0 51 25.5 98t65 80.5t82.5 44.5q-60 28 -96.5 76.5t-36.5 116.5q0 119 90 186t229 67q141 0 230.5 -67t89.5 -186q0 -68 -36 -116.5t-96 -76.5q44 -11 83 -44.5t64 -80.5t25 -98q0 -121 -98.5 -192t-261.5 -71zM422 856q89 0 140.5 39.5
t51.5 105.5q0 67 -52 108.5t-140 41.5q-87 0 -138.5 -41.5t-51.5 -108.5q0 -66 51 -105.5t139 -39.5zM422 1284q74 0 117.5 35.5t43.5 97.5q0 64 -44.5 101.5t-116.5 37.5q-70 0 -115 -37.5t-45 -101.5q0 -62 44 -97.5t116 -35.5z" />
    <glyph glyph-name="uni2079" unicode="&#x2079;" horiz-adv-x="801" 
d="M375 735q-83 0 -153 31.5t-114.5 88.5t-51.5 133h150q14 -57 57 -91t105 -34q108 0 168.5 78t53.5 247q-29 -55 -86.5 -87.5t-134.5 -32.5q-139 0 -225.5 79t-86.5 212q0 91 41.5 160.5t116 108.5t172.5 39q170 0 265.5 -122t95.5 -328q0 -242 -100 -362t-273 -120z
M391 1197q45 0 84 20t63.5 52t25.5 65q1 98 -47.5 154t-125.5 56q-72 0 -118 -48.5t-46 -129.5q0 -83 45.5 -126t118.5 -43z" />
    <glyph glyph-name="colonmonetary" unicode="&#x20a1;" horiz-adv-x="1409" 
d="M738 -20q-199 0 -341.5 91.5t-219 260t-76.5 400.5q0 231 76 395t218.5 251.5t342.5 87.5q159 0 282 -64.5t198.5 -174.5t89.5 -245h-257q-15 80 -55.5 143t-106.5 100t-158 37q-115 0 -195.5 -54.5t-123 -172.5t-42.5 -306q0 -285 94 -415t267 -130q92 0 158 40.5
t106.5 108t55.5 147.5h257q-12 -98 -49.5 -188t-105.5 -160.5t-170.5 -111t-244.5 -40.5zM415 -122l320 1682h116l-320 -1682h-116zM640 -122l320 1682h116l-320 -1682h-116z" />
    <glyph glyph-name="franc" unicode="&#x20a3;" horiz-adv-x="1234" 
d="M153 0v1446h993l-1 -205h-715v-431h562v-201h-562v-609h-277zM-27 250v140l767 1v-140z" />
    <glyph glyph-name="lira" unicode="&#x20a4;" horiz-adv-x="1264" 
d="M36 0v205h71q68 -1 115.5 49t55.5 158q3 14 3.5 31t-0.5 38q-1 13 -17 13h-211v139h208l-24 154h-184v140h163l-7 70q-22 168 34.5 271t162.5 150.5t234 47.5q90 0 178.5 -31t158.5 -90t105 -143l-215 -69q-26 58 -70 96t-122 38q-56 0 -100.5 -22.5t-70 -65.5
t-25.5 -105q0 -20 4.5 -53.5t10.5 -73.5q3 -20 22 -20l290 1v-140l-287 -1l22 -154l265 1v-139h-266q-3 -50 -17 -103t-39.5 -101t-64.5 -84h310q94 0 152 36t88 124l207 -48q-45 -156 -157.5 -237.5t-272.5 -81.5h-710z" />
    <glyph glyph-name="uni20A6" unicode="&#x20a6;" horiz-adv-x="1597" 
d="M224 0v1446h238l708 -1033v1033h243v-1446h-219l-727 1061v-1061h-243zM15 483v128l1567 1v-128zM15 878v128l1567 1v-128z" />
    <glyph glyph-name="uni20A9" unicode="&#x20a9;" horiz-adv-x="2155" 
d="M566 0l-422 1446h241l293 -1044l294 1044h181l296 -1044l295 1044h240l-425 -1446h-205l-292 1025l-296 -1025h-200zM25 690v139l2095 1v-139zM25 1002v139l2095 1v-139z" />
    <glyph glyph-name="dong" unicode="&#x20ab;" horiz-adv-x="1047" 
d="M424 248q-98 0 -176 48t-123.5 144t-45.5 239q0 136 48 237t130 157t184 56q73 0 123 -23.5t93 -63.5q14 -11 20.5 -8.5t6.5 19.5v392h206v-1181h-202v111q-25 -27 -59 -56.5t-84 -50t-121 -20.5zM130 0v124h765v-124h-765zM502 386q52 0 92.5 23t63 58.5t22.5 74.5v359
q-38 41 -79.5 63.5t-95.5 22.5q-92 0 -151 -73.5t-59 -230.5q0 -106 27 -171.5t74 -95.5t106 -30zM441 1214v114h571v-114h-571z" />
    <glyph glyph-name="Euro" unicode="&#x20ac;" horiz-adv-x="1256" 
d="M766 -20q-140 0 -253 53t-194 152t-124.5 237.5t-43.5 308.5q0 227 76.5 392t213.5 254t321 89q125 0 232 -47.5t182 -129.5l-168 -135q-46 46 -99 79.5t-126 33.5q-110 0 -188 -57t-119.5 -176.5t-41.5 -305.5q0 -184 44 -303.5t125.5 -177.5t193.5 -58q73 0 139.5 35.5
t108.5 80.5l132 -146q-73 -77 -180 -128t-231 -51zM-8 494v140h823v-139zM-8 816v139l823 1v-139z" />
    <glyph glyph-name="uni20B9" unicode="&#x20b9;" horiz-adv-x="1233" 
d="M709 0l-233 651h-444v182h405q154 0 226.5 58t72.5 187q0 118 -69 174.5t-203 56.5h-432v137h469q248 0 386 -97t138 -278q0 -103 -39.5 -177t-102 -122.5t-133.5 -73.5q-15 -5 -7 -26l267 -672h-301zM34 1015v129l1153 1v-129zM34 1318v128l1153 1v-128z" />
    <glyph glyph-name="uni20BA" unicode="&#x20ba;" horiz-adv-x="1231" 
d="M254 0v1446h278v-1239h82q121 2 214 82.5t154 244.5l218 -47q-36 -105 -93 -193.5t-139 -154.5t-192.5 -102.5t-253.5 -36.5h-268zM101 383l-50 138l756 275l50 -138zM79 701l-49 138l757 275l51 -137z" />
    <glyph glyph-name="uni2113" unicode="&#x2113;" horiz-adv-x="1081" 
d="M577 -16q-165 0 -254.5 85t-116.5 258l-99 -68l-62 140l160 118v469q0 163 51.5 269.5t141 158.5t203.5 52q112 0 180.5 -43.5t100 -118t31.5 -165.5q0 -109 -39.5 -204t-106 -179t-148 -160t-166.5 -148q0 -154 39 -218t136 -64q73 0 136.5 37.5t133.5 129.5l87 -82
q-20 -45 -53 -91.5t-81.5 -86.5t-116 -64.5t-157.5 -24.5zM453 653q52 48 104 104.5t94.5 121t68.5 134.5t26 145q0 72 -31.5 113t-96.5 41q-50 0 -87 -30.5t-57.5 -104t-20.5 -203.5v-321z" />
    <glyph glyph-name="uni2116" unicode="&#x2116;" horiz-adv-x="2348" 
d="M175 0v1446h238l708 -1033v1033h243v-1446h-219l-727 1061v-1061h-243zM1943 795q-98 0 -170.5 42.5t-111.5 117.5t-39 172q0 101 41 177t113.5 118.5t166.5 42.5q98 0 170 -43t112 -119.5t40 -175.5q0 -97 -39.5 -172t-112 -117.5t-170.5 -42.5zM1943 908q77 0 115.5 58
t38.5 166q0 106 -38.5 163t-115.5 57q-76 0 -114 -57t-38 -163q0 -108 38 -166t114 -58z" />
    <glyph glyph-name="uni2117" unicode="&#x2117;" horiz-adv-x="1649" 
d="M819 -20q-154 0 -289 57.5t-237 159.5t-159.5 237t-57.5 290q0 153 57.5 287.5t159.5 236.5t237 160t289 58q153 0 287.5 -58t237 -160t160.5 -236.5t58 -287.5q0 -155 -58 -290t-160.5 -237t-237 -159.5t-287.5 -57.5zM819 126q124 0 230.5 41.5t186.5 120t124.5 189
t44.5 247.5q0 135 -44.5 245t-124.5 189.5t-186.5 122.5t-230.5 43q-127 0 -233.5 -43t-185.5 -122.5t-123 -189.5t-44 -245q0 -137 44 -247.5t123 -189t185.5 -120t233.5 -41.5zM544 334v774h327q84 0 151.5 -24.5t106.5 -76.5t39 -134q0 -124 -78 -187.5t-202 -63.5h-182
v-288h-162zM706 742h164q58 0 95.5 31t37.5 93q0 68 -40.5 94t-99.5 26h-157v-244z" />
    <glyph glyph-name="uni2120" unicode="&#x2120;" horiz-adv-x="1996" 
d="M978 0v904h218l236 -691l239 691h217v-904h-155v709l-238 -709h-127l-236 704v-704h-154zM430 -13q-89 0 -169 29.5t-133.5 88t-64.5 145.5h158q15 -68 73.5 -104.5t143.5 -36.5q75 0 132.5 34.5t57.5 99.5q0 49 -34.5 77t-100.5 44l-176 42q-103 23 -165 80.5t-62 164.5
q0 81 44.5 140t121.5 91.5t174 32.5q109 0 185 -36.5t115.5 -97.5t39.5 -135h-154q-5 54 -31.5 86t-68 46.5t-91.5 14.5q-88 0 -131.5 -38t-43.5 -90q0 -47 31.5 -75.5t97.5 -43.5l168 -40q127 -27 180.5 -93.5t53.5 -155.5q0 -79 -44 -140t-123 -95.5t-184 -34.5z" />
    <glyph glyph-name="trademark" unicode="&#x2122;" horiz-adv-x="1869" 
d="M851 0v904h218l236 -691l239 691h217v-904h-154v709l-238 -709h-128l-236 704v-704h-154zM304 0v767h-282v137h706v-137h-271v-767h-153z" />
    <glyph glyph-name="uni2126" unicode="&#x2126;" horiz-adv-x="1533" 
d="M144 0v214h293q-27 22 -69 59t-87.5 89.5t-86 121.5t-66 154.5t-25.5 188.5q0 128 44 249t129.5 217.5t209.5 153.5t284 57q165 0 288 -59t206 -157t125 -218t42 -241q0 -95 -20 -175.5t-61 -152t-105.5 -142t-154.5 -145.5h299v-214h-559v191q48 34 103 87t105 126.5
t81.5 171t31.5 222.5q0 111 -25.5 203t-74.5 159t-119.5 103.5t-161.5 36.5q-89 0 -160.5 -35.5t-122.5 -102.5t-77.5 -160.5t-26.5 -209.5q0 -133 37.5 -241t109 -197t174.5 -163v-191h-560z" />
    <glyph glyph-name="uni2153" unicode="&#x2153;" horiz-adv-x="1806" 
d="M212 536v697h-168v96q117 -1 165.5 28.5t53.5 88.5h109v-910h-160zM369 -8l-150 2l975 1468h147zM1376 -14q-156 1 -245 79t-91 209h153q13 -81 63.5 -119t122.5 -38q91 0 143.5 39t52.5 102q0 64 -53 103.5t-143 40.5l-86 3v129l79 3q52 1 93 19.5t64 48.5t23 68
q0 52 -47 86t-126 34q-45 0 -85 -16t-65.5 -51.5t-27.5 -94.5h-152q-1 93 42.5 157t119 98t170.5 34q99 0 175 -27t119.5 -80t43.5 -134q0 -67 -39.5 -119t-123.5 -82q78 -23 132.5 -78t54.5 -146q0 -87 -49 -147t-132 -90.5t-186 -30.5z" />
    <glyph glyph-name="uni2154" unicode="&#x2154;" horiz-adv-x="2119" 
d="M61 537v84v42q0 81 34.5 137t89 96t115.5 71.5t115 62t88.5 69t34.5 91.5q0 60 -42.5 97.5t-114.5 37.5q-73 0 -124.5 -42.5t-60.5 -126.5h-152q0 84 38.5 152.5t114.5 109.5t189 41q147 0 232 -74t85 -194q0 -81 -34 -136t-86.5 -93t-112.5 -67t-113 -57.5t-87 -65
t-34 -89.5v-10h469v-136h-644zM682 -8l-150 2l975 1468h147zM1690 -14q-156 1 -245 79t-91 209h153q13 -81 63.5 -119t122.5 -38q91 0 143.5 39t52.5 102q0 64 -53 103.5t-143 40.5l-86 3v129l79 3q52 1 93 19.5t64 48.5t23 68q0 52 -47 86t-126 34q-45 0 -85 -16
t-65.5 -51.5t-27.5 -94.5h-152q-1 93 42.5 157t119 98t170.5 34q99 0 175 -27t119.5 -80t43.5 -134q0 -67 -39.5 -119t-123.5 -82q78 -23 132.5 -78t54.5 -146q0 -87 -49 -147t-132 -90.5t-186 -30.5z" />
    <glyph glyph-name="oneeighth" unicode="&#x215b;" horiz-adv-x="1822" 
d="M212 536v697h-168v96q117 -1 165.5 28.5t53.5 88.5h109v-910h-160zM369 -8l-150 2l975 1468h147zM1399 -10q-161 0 -260 71t-99 192q0 51 25.5 98t65 80.5t82.5 44.5q-60 28 -96.5 76.5t-36.5 116.5q0 119 90 186t229 67q141 0 230.5 -67t89.5 -186q0 -68 -36 -116.5
t-96 -76.5q44 -11 83 -44.5t64 -80.5t25 -98q0 -121 -98.5 -192t-261.5 -71zM1399 111q89 0 140.5 39.5t51.5 105.5q0 67 -52 108.5t-140 41.5q-87 0 -138.5 -41.5t-51.5 -108.5q0 -66 51 -105.5t139 -39.5zM1399 539q74 0 117.5 35.5t43.5 97.5q0 64 -44.5 101.5
t-116.5 37.5q-70 0 -115 -37.5t-45 -101.5q0 -62 44 -97.5t116 -35.5z" />
    <glyph glyph-name="threeeighths" unicode="&#x215c;" horiz-adv-x="2078" 
d="M399 526q-156 1 -245 79t-91 209h153q13 -81 63.5 -119t122.5 -38q91 0 143.5 39t52.5 102q0 64 -53 103.5t-143 40.5l-86 3v129l79 3q52 1 93 19.5t64 48.5t23 68q0 52 -47 86t-126 34q-45 0 -85 -16t-65.5 -51.5t-27.5 -94.5h-152q-1 93 42.5 157t119 98t170.5 34
q99 0 175 -27t119.5 -80t43.5 -134q0 -67 -39.5 -119t-123.5 -82q78 -23 132.5 -78t54.5 -146q0 -87 -49 -147t-132 -90.5t-186 -30.5zM624 -8l-150 2l975 1468h147zM1654 -10q-161 0 -260 71t-99 192q0 51 25.5 98t65 80.5t82.5 44.5q-60 28 -96.5 76.5t-36.5 116.5
q0 119 90 186t229 67q141 0 230.5 -67t89.5 -186q0 -68 -36 -116.5t-96 -76.5q44 -11 83 -44.5t64 -80.5t25 -98q0 -121 -98.5 -192t-261.5 -71zM1654 111q89 0 140.5 39.5t51.5 105.5q0 67 -52 108.5t-140 41.5q-87 0 -138.5 -41.5t-51.5 -108.5q0 -66 51 -105.5t139 -39.5
zM1654 539q74 0 117.5 35.5t43.5 97.5q0 64 -44.5 101.5t-116.5 37.5q-70 0 -115 -37.5t-45 -101.5q0 -62 44 -97.5t116 -35.5z" />
    <glyph glyph-name="fiveeighths" unicode="&#x215d;" horiz-adv-x="2071" 
d="M424 524q-131 0 -231.5 62.5t-139.5 162.5l128 65q36 -72 91.5 -117t137.5 -45q89 0 141.5 49t52.5 128q0 76 -53 123.5t-133 47.5q-49 0 -88.5 -13t-87.5 -61q-7 -1 -9.5 -1t-9.5 4l-120 47l42 470h568l-6 -132h-434l-20 -242q47 29 94.5 44t107.5 15q87 0 158 -34.5
t113.5 -100.5t42.5 -162q0 -143 -93.5 -226.5t-251.5 -83.5zM617 -8l-150 2l975 1468h147zM1647 -10q-161 0 -260 71t-99 192q0 51 25.5 98t65 80.5t82.5 44.5q-60 28 -96.5 76.5t-36.5 116.5q0 119 90 186t229 67q141 0 230.5 -67t89.5 -186q0 -68 -36 -116.5t-96 -76.5
q44 -11 83 -44.5t64 -80.5t25 -98q0 -121 -98.5 -192t-261.5 -71zM1647 111q89 0 140.5 39.5t51.5 105.5q0 67 -52 108.5t-140 41.5q-87 0 -138.5 -41.5t-51.5 -108.5q0 -66 51 -105.5t139 -39.5zM1647 539q74 0 117.5 35.5t43.5 97.5q0 64 -44.5 101.5t-116.5 37.5
q-70 0 -115 -37.5t-45 -101.5q0 -62 44 -97.5t116 -35.5z" />
    <glyph glyph-name="seveneighths" unicode="&#x215e;" horiz-adv-x="1898" 
d="M207 537q10 78 47 205t107 277t176 296h-493v132h662v-131q-57 -74 -113 -176.5t-103 -213t-77.5 -213t-35.5 -176.5h-170zM445 -8l-150 2l975 1468h147zM1475 -10q-161 0 -260 71t-99 192q0 51 25.5 98t65 80.5t82.5 44.5q-60 28 -96.5 76.5t-36.5 116.5q0 119 90 186
t229 67q141 0 230.5 -67t89.5 -186q0 -68 -36 -116.5t-96 -76.5q44 -11 83 -44.5t64 -80.5t25 -98q0 -121 -98.5 -192t-261.5 -71zM1475 111q89 0 140.5 39.5t51.5 105.5q0 67 -52 108.5t-140 41.5q-87 0 -138.5 -41.5t-51.5 -108.5q0 -66 51 -105.5t139 -39.5zM1475 539
q74 0 117.5 35.5t43.5 97.5q0 64 -44.5 101.5t-116.5 37.5q-70 0 -115 -37.5t-45 -101.5q0 -62 44 -97.5t116 -35.5z" />
    <glyph glyph-name="partialdiff" unicode="&#x2202;" horiz-adv-x="1197" 
d="M570 -20q-149 0 -257 62t-166 168.5t-58 239.5q0 132 56.5 234.5t162 161t253.5 58.5q69 0 118 -12.5t87.5 -34t77.5 -47.5q20 -14 25 -8t5 17q0 96 -23 179.5t-70.5 146.5t-121 98.5t-173.5 35.5q-98 0 -161.5 -29.5t-114.5 -62.5l-70 146q32 31 90.5 61.5t137 51
t167.5 20.5q170 0 297.5 -81.5t199 -247t71.5 -417.5q0 -228 -60.5 -394t-179 -256t-293.5 -90zM558 161h2q79 0 142 48t103 133.5t51 198.5q3 31 1 44t-13 26q-23 32 -63.5 60t-90 45t-102.5 17q-78 0 -137 -38.5t-92.5 -105t-33.5 -150.5q0 -83 31.5 -145.5t84 -97.5
t117.5 -35z" />
    <glyph glyph-name="emptyset" unicode="&#x2205;" horiz-adv-x="1178" 
d="M181 259l-88 91l893 823l84 -91zM585 290q-120 0 -219 59.5t-158 158.5t-59 220q0 120 59 219t158 158t219 59q121 0 220.5 -59t158.5 -158t59 -219q0 -121 -59 -220.5t-158.5 -158.5t-220.5 -59zM585 410q88 0 160 43t115 115t43 160q0 86 -43 158t-115 115t-160 43
q-87 0 -159 -43t-114.5 -115t-42.5 -158q0 -88 42.5 -160t114.5 -115t159 -43z" />
    <glyph glyph-name="uni2206" unicode="&#x2206;" horiz-adv-x="1480" 
d="M35 0l715 1446l696 -1446h-1411zM390 208h708l-348 769z" />
    <glyph glyph-name="product" unicode="&#x220f;" horiz-adv-x="1358" 
d="M223 0v1242h-188v204h1277v-204h-190v-1242h-252v1242h-394v-1242h-253z" />
    <glyph glyph-name="summation" unicode="&#x2211;" horiz-adv-x="1105" 
d="M55 0v152l422 567l-397 558v169h928v-199h-595l368 -503l-404 -535h667v-209h-989z" />
    <glyph glyph-name="minus" unicode="&#x2212;" horiz-adv-x="1146" 
d="M119 636v181l908 1v-181z" />
    <glyph glyph-name="uni2215" unicode="&#x2215;" horiz-adv-x="1206" 
d="M243 -8l-151 2l875 1468h148z" />
    <glyph glyph-name="uni2219" unicode="&#x2219;" horiz-adv-x="676" 
d="M330 593q-58 0 -99 41.5t-41 99.5t41 99t99 41t99 -41t41 -99t-41 -99.5t-99 -41.5z" />
    <glyph glyph-name="radical" unicode="&#x221a;" horiz-adv-x="1323" 
d="M553 -322l-316 859l-154 -59l-53 144l347 126l295 -834l442 1737h208l-518 -1973h-251z" />
    <glyph glyph-name="infinity" unicode="&#x221e;" horiz-adv-x="1531" 
d="M417 195q-87 0 -160.5 42t-117.5 119t-44 180t44.5 180t122.5 119.5t179 42.5q74 0 126.5 -23t95 -62t86.5 -88q16 -16 24.5 -15.5t22.5 15.5q34 38 76.5 78t100 67.5t135.5 27.5q91 0 162.5 -40.5t113.5 -114.5t42 -175v-3q0 -111 -46.5 -189t-122.5 -119.5t-166 -41.5
q-74 0 -128 25.5t-97.5 68.5t-87.5 94q-10 12 -16 13.5t-19 -13.5q-13 -14 -39.5 -44t-66.5 -63.5t-95 -57t-125 -23.5zM431 357h5q44 0 84 22t72.5 53.5t53.5 60.5q18 25 17 37.5t-20 41.5q-46 70 -97.5 110.5t-116.5 40.5q-75 0 -122.5 -50.5t-47.5 -130.5
q0 -82 50.5 -133.5t121.5 -51.5zM1103 357q51 0 86 27.5t53 69.5t18 86q0 72 -44 127.5t-119 55.5h-1q-68 0 -120.5 -47t-95.5 -97q-18 -22 -14.5 -41t14.5 -34q47 -65 89.5 -96.5t77 -41t56.5 -9.5z" />
    <glyph glyph-name="integral" unicode="&#x222b;" horiz-adv-x="911" 
d="M244 -343q-52 0 -91 6t-70.5 17.5t-61.5 29.5l54 206q37 -20 71.5 -31.5t80.5 -11.5q61 0 101 47.5t40 166.5q0 139 -10 287t-23.5 295.5t-23.5 286.5t-10 259q0 151 41 252.5t119.5 152.5t192.5 51q54 0 94 -6t72 -18t60 -30l-52 -206q-38 20 -73 32t-83 12
q-63 0 -103 -48t-40 -162q0 -142 9.5 -290t22.5 -294t22.5 -283t9.5 -256q0 -155 -41 -258.5t-119 -155t-189 -51.5z" />
    <glyph glyph-name="approxequal" unicode="&#x2248;" horiz-adv-x="1183" 
d="M189 738l-70 128q66 67 133.5 113.5t162.5 46.5q59 0 106 -17.5t89 -40t84 -39.5t91 -17q73 0 123 38.5t84 88.5l71 -128q-43 -73 -115 -115.5t-160 -42.5q-58 0 -105 17t-89 40t-85 40t-95 17q-76 0 -128.5 -40t-96.5 -89zM190 328l-71 129q66 67 133.5 113t162.5 46
q59 0 106 -17.5t89 -40t84 -40t91 -17.5q73 0 123 39t84 89l71 -127q-43 -73 -115 -116t-160 -43q-60 0 -107 17.5t-89 40t-84.5 40t-93.5 17.5q-76 0 -129 -40.5t-95 -89.5z" />
    <glyph glyph-name="notequal" unicode="&#x2260;" horiz-adv-x="1146" 
d="M216 90l528 1191h125l-522 -1191h-131zM119 828v181l908 1v-181zM119 376v182l908 1v-182z" />
    <glyph glyph-name="lessequal" unicode="&#x2264;" horiz-adv-x="1146" 
d="M1013 426l-885 347v208l886 348v-216l-611 -237l610 -235v-215zM119 85v181l908 -1v-181z" />
    <glyph glyph-name="greaterequal" unicode="&#x2265;" horiz-adv-x="1146" 
d="M132 426v215l612 235l-613 237v216l887 -348v-208zM119 84v181l908 1v-181z" />
    <glyph glyph-name="lozenge" unicode="&#x25ca;" horiz-adv-x="1050" 
d="M447 0l-340 723l350 723h172l341 -719l-351 -727h-172zM540 179l236 544l-236 541l-236 -534z" />
    <glyph glyph-name="i.loclTRK" horiz-adv-x="509" 
d="M138 0v1034h233v-1034h-233zM138 1235v211h237v-211h-237z" />
    <glyph glyph-name="g.ss01" horiz-adv-x="1202" 
d="M576 -337q-100 0 -179 29t-135 76t-88.5 102.5t-39.5 106.5h227q15 -59 74.5 -95.5t138.5 -37.5q98 -1 159.5 34.5t91 91.5t30.5 119v97q-44 -83 -128.5 -115t-191.5 -32q-91 0 -170.5 36.5t-140 102.5t-95.5 156t-37 197q-2 97 25.5 190t83 168t138 119t190.5 44
q77 0 139 -27t105.5 -65t62.5 -72l2 144h236l4 -892q0 -150 -64.5 -256.5t-177.5 -163.5t-260 -57zM604 217q91 0 142.5 35.5t72.5 92.5t21 121l-2 161q-1 60 -33 117.5t-86 95t-122 37.5q-84 0 -142 -46.5t-87.5 -124.5t-29.5 -175q0 -89 33.5 -160t93 -112.5t139.5 -41.5z
" />
    <glyph glyph-name="l.ss01" horiz-adv-x="589" 
d="M173 0v1486h244v-1486h-244z" />
    <glyph glyph-name="zero.osf" horiz-adv-x="1259" 
d="M630 -22q-251 0 -394.5 189t-143.5 551q0 244 66 410.5t187 252t286 85.5q248 0 392.5 -190.5t144.5 -555.5q0 -363 -143.5 -552.5t-394.5 -189.5zM631 181q141 0 210 125t69 413q0 294 -70 422t-210 128t-211.5 -129t-71.5 -421q0 -287 71.5 -412.5t212.5 -125.5z" />
    <glyph glyph-name="one.osf" horiz-adv-x="837" 
d="M357 0v1114h-268v145q127 0 201.5 21.5t109 63.5t39.5 102h166v-1446h-248z" />
    <glyph glyph-name="two.osf" horiz-adv-x="1235" 
d="M118 0v130v67q0 111 41 191.5t109 140.5t149.5 106.5t162 88t148.5 86t109.5 99.5t41.5 131q0 97 -68.5 158.5t-185.5 61.5q-124 0 -204.5 -71t-95.5 -200h-236q2 132 63 240t181 172.5t299 64.5q155 0 267.5 -53.5t174 -149t61.5 -222.5q0 -111 -40.5 -190t-107 -136.5
t-146 -101.5t-159 -82.5t-146 -80t-107 -94.5t-40.5 -127v-21h749v-208h-1020z" />
    <glyph glyph-name="three.osf" horiz-adv-x="1298" 
d="M625 -17q-163 1 -281 56t-183.5 157t-68.5 242h237q21 -129 102.5 -191.5t198.5 -62.5q97 0 168 29.5t109.5 81.5t38.5 121q0 73 -41.5 125t-113.5 80t-162 30l-134 4v198l124 5q86 3 151.5 33t102.5 79t37 110q0 56 -34.5 101t-97.5 70.5t-149 25.5q-73 0 -137 -26
t-105.5 -83.5t-45.5 -150.5h-236q0 148 71 249.5t190.5 153t265.5 51.5q157 0 278.5 -42.5t191 -127.5t69.5 -211q0 -107 -65 -191t-205 -132q87 -24 156 -71.5t109.5 -118.5t40.5 -167q0 -103 -44.5 -183t-124 -134.5t-185.5 -82t-228 -27.5z" />
    <glyph glyph-name="four.osf" horiz-adv-x="1287" 
d="M761 0l1 343h-673v207l666 896h242v-896h231v-207h-231v-343h-236zM317 550h443v594z" />
    <glyph glyph-name="five.osf" horiz-adv-x="1318" 
d="M680 -22q-138 0 -256.5 45.5t-204 125.5t-127.5 183l197 104q37 -74 88.5 -133t121 -92.5t159.5 -33.5q141 0 226.5 78.5t85.5 209.5q0 81 -39.5 144t-107 98.5t-153.5 35.5q-51 0 -95.5 -9t-89.5 -33.5t-97 -73.5q-10 -5 -14.5 -4.5t-15.5 5.5l-187 76l66 742h899
l-9 -203h-692l-33 -402q77 54 155 78t172 24q138 0 251 -54t180 -159t67 -257t-67.5 -263t-190 -171.5t-289.5 -60.5z" />
    <glyph glyph-name="six.osf" horiz-adv-x="1286" 
d="M666 -22q-177 0 -306 88t-198.5 249.5t-69.5 382.5q0 235 69 407.5t200.5 266.5t318.5 94q128 0 237 -47.5t179 -136.5t82 -215h-225q-28 97 -96 150t-172 53q-115 0 -192 -65t-110.5 -186.5t-21.5 -290.5q31 59 84 102.5t121 67.5t144 24q145 0 254 -55t170 -156
t61 -239q0 -143 -66 -254.5t-185 -175.5t-278 -64zM660 169q78 0 140.5 37t99 103t36.5 152q0 88 -34 149t-96.5 93t-146.5 32q-69 0 -133.5 -32t-105 -83t-40.5 -109q-1 -103 34 -180t98.5 -119.5t147.5 -42.5z" />
    <glyph glyph-name="seven.osf" horiz-adv-x="1229" 
d="M351 0q12 93 48.5 232.5t100.5 308t159 348.5t222 354h-792v203h1051v-203q-73 -95 -145 -219.5t-138 -263t-118 -277t-85 -263.5t-40 -220h-263z" />
    <glyph glyph-name="eight.osf" horiz-adv-x="1321" 
d="M660 -21q-171 0 -298.5 51.5t-198.5 145.5t-71 221q0 83 41.5 159t106.5 128.5t134 66.5q-93 42 -156 120.5t-63 193.5q0 129 66 218.5t180.5 136t258.5 46.5t258 -46.5t180.5 -136t66.5 -218.5q0 -115 -62 -193.5t-157 -120.5q69 -14 134 -66.5t107 -128.5t42 -159
q0 -127 -70.5 -221t-199 -145.5t-299.5 -51.5zM660 167q143 0 226 64t83 171q0 71 -38 125.5t-107 85.5t-164 31q-94 0 -163.5 -31t-107 -85.5t-37.5 -125.5q0 -107 83.5 -171t224.5 -64zM660 848q114 0 186.5 58.5t72.5 163.5q0 104 -73 165t-186 61t-186.5 -61t-73.5 -165
q0 -105 73.5 -163.5t186.5 -58.5z" />
    <glyph glyph-name="nine.osf" horiz-adv-x="1286" 
d="M601 -22q-127 0 -238 49t-183 139t-84 212h233q21 -91 91 -147.5t172 -56.5q115 0 199.5 57t126.5 179t31 317q-27 -64 -78.5 -112t-122 -74.5t-156.5 -26.5q-145 0 -256.5 55.5t-174.5 159t-63 245.5q0 144 64.5 255t182 174t276.5 63q177 0 306 -87t198.5 -248
t69.5 -382q0 -252 -70.5 -423.5t-203 -259.5t-320.5 -88zM628 712q70 0 134 32t105 83t41 108q1 104 -34 180.5t-98.5 119t-148.5 42.5q-77 0 -137.5 -37t-94.5 -102.5t-34 -151.5q0 -128 71 -201t196 -73z" />
    <glyph glyph-name="zero.tf" horiz-adv-x="1400" 
d="M700 -22q-251 0 -394.5 189t-143.5 551q0 244 66 410.5t187 252t286 85.5q248 0 392.5 -190.5t144.5 -555.5q0 -363 -143.5 -552.5t-394.5 -189.5zM701 181q141 0 210 125t69 413q0 294 -70 422t-210 128t-211.5 -129t-71.5 -421q0 -287 71.5 -412.5t212.5 -125.5z" />
    <glyph glyph-name="one.tf" horiz-adv-x="1400" 
d="M613 1v1184l-398 -133v216l525 179h112v-1446h-239zM193 0v208h1050v-208h-1050z" />
    <glyph glyph-name="two.tf" horiz-adv-x="1400" 
d="M216 0v130v67q0 111 41 191.5t109 140.5t149.5 106.5t162 88t148.5 86t109.5 99.5t41.5 131q0 97 -68.5 158.5t-185.5 61.5q-124 0 -204.5 -71t-95.5 -200h-236q2 132 63 240t181 172.5t299 64.5q155 0 267.5 -53.5t174 -149t61.5 -222.5q0 -111 -40.5 -190t-107 -136.5
t-146 -101.5t-159 -82.5t-146 -80t-107 -94.5t-40.5 -127v-21h749v-208h-1020z" />
    <glyph glyph-name="three.tf" horiz-adv-x="1400" 
d="M685 -22q-163 1 -281 56t-183.5 157t-68.5 242h237q21 -129 102.5 -191.5t198.5 -62.5q97 0 168 29.5t109.5 81.5t38.5 121q0 73 -41.5 125t-113.5 80t-162 30l-134 4v198l124 5q86 3 151.5 33t102.5 79t37 110q0 56 -34.5 101t-97.5 70.5t-149 25.5q-73 0 -137 -26
t-105.5 -83.5t-45.5 -150.5h-236q0 148 71 249.5t190.5 153t265.5 51.5q157 0 278.5 -42.5t191 -127.5t69.5 -211q0 -107 -65 -191t-205 -132q87 -24 156 -71.5t109.5 -118.5t40.5 -167q0 -103 -44.5 -183t-124 -134.5t-185.5 -82t-228 -27.5z" />
    <glyph glyph-name="four.tf" horiz-adv-x="1400" 
d="M801 0l1 343h-673v207l666 896h242v-896h231v-207h-231v-343h-236zM357 550h443v594z" />
    <glyph glyph-name="five.tf" horiz-adv-x="1400" 
d="M752 -22q-138 0 -256.5 45.5t-204 125.5t-127.5 183l197 104q37 -74 88.5 -133t121 -92.5t159.5 -33.5q141 0 226.5 78.5t85.5 209.5q0 81 -39.5 144t-107 98.5t-153.5 35.5q-51 0 -95.5 -9t-89.5 -33.5t-97 -73.5q-10 -5 -14.5 -4.5t-15.5 5.5l-187 76l66 742h899
l-9 -203h-692l-33 -402q77 54 155 78t172 24q138 0 251 -54t180 -159t67 -257t-67.5 -263t-190 -171.5t-289.5 -60.5z" />
    </font>
</defs>
</svg>
